osu file format v14

[General]
AudioFilename: audio105.mp3
AudioLeadIn: 0
PreviewTime: 48577
Countdown: 0
SampleSet: Normal
StackLeniency: 0.7
Mode: 3
LetterboxInBreaks: 0
SpecialStyle: 0
WidescreenStoryboard: 0

[Editor]
DistanceSpacing: 0.8
BeatDivisor: 6
GridSize: 32
TimelineZoom: 2

[Metadata]
Title:Wait Another Day
TitleUnicode:Wait Another Day
Artist:Mike Williams x Mesto
ArtistUnicode:Mike Williams x Mesto
Creator:HikariNayo
Version:I'll be back before you know 1.05x
Source:
Tags:Mike Williams Mesto Wait another day BEST EDM 2019 dance electronic jack cj chordjack rates
BeatmapID:4566841
BeatmapSetID:2164994

[Difficulty]
HPDrainRate:8
CircleSize:4
OverallDifficulty:8
ApproachRate:5
SliderMultiplier:1.4
SliderTickRate:1

[Events]
//Background and Video events
0,0,"969814.jpg",0,0
//Break Periods
//Storyboard Layer 0 (Background)
//Storyboard Layer 1 (Fail)
//Storyboard Layer 2 (Pass)
//Storyboard Layer 3 (Foreground)
//Storyboard Layer 4 (Overlay)
//Storyboard Sound Samples

[TimingPoints]
91,453.514739229025,4,1,1,100,1,0
50885,-100,4,1,1,100,0,1
63583,-100,4,1,1,100,0,0
65397,-100,4,1,1,100,0,1
79910,-100,4,1,1,100,0,0
123447,-100,4,1,1,100,0,1
136146,-100,4,1,1,100,0,0
137959,-100,4,1,1,100,0,1
152471,-100,4,1,1,100,0,0

[HitObjects]
448,192,91,5,0,0:0:0:0:
320,192,91,1,0,0:0:0:0:
192,192,91,1,0,0:0:0:0:
448,192,318,1,0,0:0:0:0:
320,192,318,1,0,0:0:0:0:
448,192,545,1,0,0:0:0:0:
192,192,545,1,0,0:0:0:0:
64,192,545,1,0,0:0:0:0:
64,192,771,1,0,0:0:0:0:
192,192,771,1,0,0:0:0:0:
448,192,998,1,0,0:0:0:0:
320,192,998,1,0,0:0:0:0:
64,192,998,1,0,0:0:0:0:
192,192,1225,1,0,0:0:0:0:
320,192,1225,1,0,0:0:0:0:
448,192,1225,1,0,0:0:0:0:
320,192,1451,1,0,0:0:0:0:
192,192,1451,1,0,0:0:0:0:
64,192,1451,1,0,0:0:0:0:
64,192,1678,1,0,0:0:0:0:
192,192,1678,1,0,0:0:0:0:
448,192,1678,1,0,0:0:0:0:
320,192,1905,1,0,0:0:0:0:
448,192,1905,1,0,0:0:0:0:
64,192,1905,1,0,0:0:0:0:
448,192,2131,1,0,0:0:0:0:
320,192,2131,1,0,0:0:0:0:
192,192,2358,1,0,0:0:0:0:
64,192,2358,1,0,0:0:0:0:
448,192,2358,1,0,0:0:0:0:
320,192,2586,1,0,0:0:0:0:
192,192,2586,1,0,0:0:0:0:
64,192,2586,1,0,0:0:0:0:
64,192,2812,128,0,3719:0:0:0:0:
320,192,2812,1,0,0:0:0:0:
448,192,2812,1,0,0:0:0:0:
192,192,3039,1,0,0:0:0:0:
448,192,3266,1,0,0:0:0:0:
320,192,3492,1,0,0:0:0:0:
448,192,3492,1,0,0:0:0:0:
192,192,3719,1,0,0:0:0:0:
320,192,3719,1,0,0:0:0:0:
448,192,3719,1,0,0:0:0:0:
448,192,3946,1,0,0:0:0:0:
320,192,3946,1,0,0:0:0:0:
192,192,3946,1,0,0:0:0:0:
320,192,4172,1,0,0:0:0:0:
192,192,4172,1,0,0:0:0:0:
64,192,4172,1,0,0:0:0:0:
320,192,4399,1,0,0:0:0:0:
64,192,4399,1,0,0:0:0:0:
192,192,4399,1,0,0:0:0:0:
192,192,4626,1,0,0:0:0:0:
64,192,4626,1,0,0:0:0:0:
448,192,4626,128,0,5533:0:0:0:0:
320,192,4852,1,0,0:0:0:0:
192,192,5080,1,0,0:0:0:0:
64,192,5307,1,0,0:0:0:0:
320,192,5307,1,0,0:0:0:0:
320,192,5533,1,0,0:0:0:0:
192,192,5533,1,0,0:0:0:0:
64,192,5533,1,0,0:0:0:0:
192,192,5760,1,0,0:0:0:0:
320,192,5760,1,0,0:0:0:0:
448,192,5760,1,0,0:0:0:0:
64,192,5987,1,0,0:0:0:0:
320,192,5987,1,0,0:0:0:0:
448,192,5987,1,0,0:0:0:0:
64,192,6213,1,0,0:0:0:0:
192,192,6213,1,0,0:0:0:0:
448,192,6213,1,0,0:0:0:0:
320,192,6440,1,0,0:0:0:0:
192,192,6440,1,0,0:0:0:0:
448,192,6440,1,0,0:0:0:0:
64,192,6667,1,0,0:0:0:0:
448,192,6780,1,0,0:0:0:0:
320,192,6837,1,0,0:0:0:0:
192,192,6893,1,0,0:0:0:0:
64,192,6893,1,0,0:0:0:0:
448,192,7120,1,0,0:0:0:0:
320,192,7348,1,0,0:0:0:0:
192,192,7348,1,0,0:0:0:0:
64,192,7348,1,0,0:0:0:0:
192,192,7574,1,0,0:0:0:0:
64,192,7574,1,0,0:0:0:0:
448,192,7801,1,0,0:0:0:0:
320,192,7801,1,0,0:0:0:0:
64,192,7801,1,0,0:0:0:0:
320,192,8028,1,0,0:0:0:0:
448,192,8028,1,0,0:0:0:0:
448,192,8254,1,0,0:0:0:0:
192,192,8254,1,0,0:0:0:0:
64,192,8254,1,0,0:0:0:0:
64,192,8481,1,0,0:0:0:0:
192,192,8481,1,0,0:0:0:0:
320,192,8481,1,0,0:0:0:0:
192,192,8708,1,0,0:0:0:0:
320,192,8708,1,0,0:0:0:0:
448,192,8708,1,0,0:0:0:0:
448,192,8934,1,0,0:0:0:0:
320,192,8934,1,0,0:0:0:0:
64,192,8934,1,0,0:0:0:0:
192,192,9161,1,0,0:0:0:0:
64,192,9161,1,0,0:0:0:0:
448,192,9161,1,0,0:0:0:0:
320,192,9388,1,0,0:0:0:0:
192,192,9388,1,0,0:0:0:0:
64,192,9388,1,0,0:0:0:0:
320,192,9614,1,0,0:0:0:0:
448,192,9614,1,0,0:0:0:0:
64,192,9614,1,0,0:0:0:0:
192,192,9842,1,0,0:0:0:0:
320,192,9842,1,0,0:0:0:0:
448,192,9842,1,0,0:0:0:0:
320,192,10069,1,0,0:0:0:0:
192,192,10069,1,0,0:0:0:0:
64,192,10069,1,0,0:0:0:0:
64,192,10295,1,0,0:0:0:0:
192,192,10295,1,0,0:0:0:0:
448,192,10522,1,0,0:0:0:0:
320,192,10522,1,0,0:0:0:0:
192,192,10749,1,0,0:0:0:0:
448,192,10749,1,0,0:0:0:0:
320,192,10749,1,0,0:0:0:0:
320,192,10975,1,0,0:0:0:0:
192,192,10975,1,0,0:0:0:0:
64,192,10975,1,0,0:0:0:0:
192,192,11202,1,0,0:0:0:0:
64,192,11202,1,0,0:0:0:0:
448,192,11202,1,0,0:0:0:0:
320,192,11429,1,0,0:0:0:0:
448,192,11429,1,0,0:0:0:0:
64,192,11429,1,0,0:0:0:0:
320,192,11655,1,0,0:0:0:0:
192,192,11655,1,0,0:0:0:0:
64,192,11655,1,0,0:0:0:0:
192,192,11882,1,0,0:0:0:0:
320,192,11882,1,0,0:0:0:0:
448,192,11882,1,0,0:0:0:0:
192,192,12110,1,0,0:0:0:0:
64,192,12110,1,0,0:0:0:0:
320,192,12336,1,0,0:0:0:0:
448,192,12336,1,0,0:0:0:0:
448,192,12563,1,0,0:0:0:0:
320,192,12563,1,0,0:0:0:0:
192,192,12563,1,0,0:0:0:0:
320,192,12790,1,0,0:0:0:0:
64,192,12790,1,0,0:0:0:0:
192,192,12790,1,0,0:0:0:0:
448,192,13016,1,0,0:0:0:0:
64,192,13016,1,0,0:0:0:0:
192,192,13016,1,0,0:0:0:0:
448,192,13243,1,0,0:0:0:0:
320,192,13243,1,0,0:0:0:0:
64,192,13243,1,0,0:0:0:0:
192,192,13470,1,0,0:0:0:0:
320,192,13470,1,0,0:0:0:0:
448,192,13470,1,0,0:0:0:0:
320,192,13696,1,0,0:0:0:0:
192,192,13696,1,0,0:0:0:0:
64,192,13696,1,0,0:0:0:0:
448,192,13923,1,0,0:0:0:0:
320,192,14150,1,0,0:0:0:0:
64,192,14150,1,0,0:0:0:0:
192,192,14376,1,0,0:0:0:0:
320,192,14604,1,0,0:0:0:0:
448,192,14604,1,0,0:0:0:0:
192,192,14604,1,0,0:0:0:0:
64,192,14604,1,0,0:0:0:0:
448,192,14830,1,0,0:0:0:0:
192,192,15057,1,0,0:0:0:0:
64,192,15057,1,0,0:0:0:0:
320,192,15057,1,0,0:0:0:0:
192,192,15284,1,0,0:0:0:0:
64,192,15510,1,0,0:0:0:0:
448,192,15510,1,0,0:0:0:0:
320,192,15737,1,0,0:0:0:0:
192,192,15964,1,0,0:0:0:0:
64,192,15964,1,0,0:0:0:0:
448,192,15964,1,0,0:0:0:0:
320,192,16190,1,0,0:0:0:0:
192,192,16417,1,0,0:0:0:0:
64,192,16417,1,0,0:0:0:0:
448,192,16644,1,0,0:0:0:0:
320,192,16871,1,0,0:0:0:0:
192,192,16871,1,0,0:0:0:0:
64,192,16871,1,0,0:0:0:0:
448,192,17098,1,0,0:0:0:0:
64,192,17325,1,0,0:0:0:0:
320,192,17325,1,0,0:0:0:0:
192,192,17551,1,0,0:0:0:0:
320,192,17778,1,0,0:0:0:0:
448,192,17778,1,0,0:0:0:0:
64,192,17778,1,0,0:0:0:0:
192,192,18005,1,0,0:0:0:0:
64,192,18231,1,0,0:0:0:0:
192,192,18231,1,0,0:0:0:0:
448,192,18231,1,0,0:0:0:0:
320,192,18458,1,0,0:0:0:0:
448,192,18685,1,0,0:0:0:0:
320,192,18685,1,0,0:0:0:0:
192,192,18685,1,0,0:0:0:0:
64,192,18911,1,0,0:0:0:0:
448,192,19138,1,0,0:0:0:0:
320,192,19138,1,0,0:0:0:0:
192,192,19366,1,0,0:0:0:0:
64,192,19592,1,0,0:0:0:0:
448,192,19592,1,0,0:0:0:0:
320,192,19592,1,0,0:0:0:0:
192,192,19819,1,0,0:0:0:0:
320,192,20046,1,0,0:0:0:0:
448,192,20046,1,0,0:0:0:0:
64,192,20272,1,0,0:0:0:0:
192,192,20499,1,0,0:0:0:0:
320,192,20499,1,0,0:0:0:0:
448,192,20499,1,0,0:0:0:0:
64,192,20726,1,0,0:0:0:0:
192,192,20952,1,0,0:0:0:0:
320,192,20952,1,0,0:0:0:0:
448,192,21179,1,0,0:0:0:0:
192,192,21406,1,0,0:0:0:0:
320,192,21406,1,0,0:0:0:0:
64,192,21406,1,0,0:0:0:0:
448,192,21633,1,0,0:0:0:0:
192,192,21860,1,0,0:0:0:0:
64,192,21860,1,0,0:0:0:0:
320,192,22087,1,0,0:0:0:0:
448,192,22313,1,0,0:0:0:0:
192,192,22313,1,0,0:0:0:0:
64,192,22313,1,0,0:0:0:0:
320,192,22540,1,0,0:0:0:0:
448,192,22767,1,0,0:0:0:0:
64,192,22767,1,0,0:0:0:0:
192,192,22993,1,0,0:0:0:0:
320,192,23220,1,0,0:0:0:0:
448,192,23220,1,0,0:0:0:0:
64,192,23220,1,0,0:0:0:0:
192,192,23447,1,0,0:0:0:0:
320,192,23673,1,0,0:0:0:0:
448,192,23673,1,0,0:0:0:0:
64,192,23900,1,0,0:0:0:0:
192,192,24128,1,0,0:0:0:0:
320,192,24128,1,0,0:0:0:0:
448,192,24128,1,0,0:0:0:0:
64,192,24354,1,0,0:0:0:0:
320,192,24581,1,0,0:0:0:0:
192,192,24581,1,0,0:0:0:0:
448,192,24808,1,0,0:0:0:0:
320,192,25034,1,0,0:0:0:0:
192,192,25034,1,0,0:0:0:0:
64,192,25034,1,0,0:0:0:0:
448,192,25261,1,0,0:0:0:0:
64,192,25488,128,0,25941:0:0:0:0:
192,192,25488,1,0,0:0:0:0:
448,192,25714,1,0,0:0:0:0:
448,192,25941,1,0,0:0:0:0:
320,192,25941,1,0,0:0:0:0:
192,192,25941,1,0,0:0:0:0:
320,192,26168,1,0,0:0:0:0:
448,192,26395,128,0,26849:0:0:0:0:
192,192,26395,1,0,0:0:0:0:
64,192,26622,1,0,0:0:0:0:
320,192,26849,1,0,0:0:0:0:
192,192,26849,1,0,0:0:0:0:
64,192,26849,1,0,0:0:0:0:
192,192,27075,1,0,0:0:0:0:
64,192,27302,128,0,28209:0:0:0:0:
448,192,27302,1,0,0:0:0:0:
320,192,27529,1,0,0:0:0:0:
448,192,27755,1,0,0:0:0:0:
320,192,27755,1,0,0:0:0:0:
192,192,27755,1,0,0:0:0:0:
192,192,27982,1,0,0:0:0:0:
448,192,28209,1,0,0:0:0:0:
320,192,28662,128,0,28890:0:0:0:0:
192,192,28890,128,0,29116:0:0:0:0:
64,192,29116,1,0,0:0:0:0:
320,192,29116,1,0,0:0:0:0:
448,192,29116,1,0,0:0:0:0:
448,192,29343,1,0,0:0:0:0:
320,192,29570,1,0,0:0:0:0:
192,192,29570,1,0,0:0:0:0:
64,192,29570,1,0,0:0:0:0:
448,192,29570,1,0,0:0:0:0:
64,192,29796,1,0,0:0:0:0:
192,192,30023,1,0,0:0:0:0:
320,192,30023,1,0,0:0:0:0:
448,192,30023,1,0,0:0:0:0:
320,192,30250,1,0,0:0:0:0:
448,192,30250,1,0,0:0:0:0:
448,192,30476,1,0,0:0:0:0:
320,192,30476,1,0,0:0:0:0:
192,192,30476,1,0,0:0:0:0:
64,192,30476,1,0,0:0:0:0:
192,192,30703,1,0,0:0:0:0:
64,192,30703,1,0,0:0:0:0:
320,192,30930,1,0,0:0:0:0:
448,192,30930,1,0,0:0:0:0:
64,192,30930,1,0,0:0:0:0:
448,192,31157,1,0,0:0:0:0:
192,192,31157,1,0,0:0:0:0:
448,192,31384,1,0,0:0:0:0:
320,192,31384,1,0,0:0:0:0:
192,192,31384,1,0,0:0:0:0:
64,192,31384,1,0,0:0:0:0:
64,192,31610,1,0,0:0:0:0:
320,192,31610,1,0,0:0:0:0:
192,192,31837,1,0,0:0:0:0:
448,192,31837,1,0,0:0:0:0:
320,192,31837,1,0,0:0:0:0:
64,192,32064,1,0,0:0:0:0:
448,192,32290,1,0,0:0:0:0:
320,192,32290,1,0,0:0:0:0:
64,192,32290,1,0,0:0:0:0:
192,192,32290,1,0,0:0:0:0:
320,192,32517,1,0,0:0:0:0:
448,192,32517,1,0,0:0:0:0:
64,192,32744,1,0,0:0:0:0:
448,192,32744,1,0,0:0:0:0:
192,192,32744,1,0,0:0:0:0:
192,192,32970,1,0,0:0:0:0:
64,192,32970,1,0,0:0:0:0:
320,192,33197,1,0,0:0:0:0:
192,192,33197,1,0,0:0:0:0:
64,192,33197,1,0,0:0:0:0:
448,192,33197,1,0,0:0:0:0:
192,192,33424,1,0,0:0:0:0:
320,192,33424,1,0,0:0:0:0:
64,192,33651,1,0,0:0:0:0:
320,192,33651,1,0,0:0:0:0:
448,192,33651,1,0,0:0:0:0:
192,192,33878,1,0,0:0:0:0:
320,192,34105,1,0,0:0:0:0:
64,192,34105,1,0,0:0:0:0:
192,192,34105,1,0,0:0:0:0:
448,192,34105,1,0,0:0:0:0:
64,192,34331,1,0,0:0:0:0:
320,192,34331,1,0,0:0:0:0:
64,192,34558,1,0,0:0:0:0:
320,192,34558,1,0,0:0:0:0:
448,192,34558,1,0,0:0:0:0:
192,192,34558,1,0,0:0:0:0:
448,192,34785,1,0,0:0:0:0:
192,192,34785,1,0,0:0:0:0:
448,192,35011,1,0,0:0:0:0:
320,192,35011,1,0,0:0:0:0:
192,192,35011,1,0,0:0:0:0:
64,192,35011,1,0,0:0:0:0:
320,192,35238,1,0,0:0:0:0:
448,192,35238,1,0,0:0:0:0:
64,192,35465,1,0,0:0:0:0:
320,192,35465,1,0,0:0:0:0:
192,192,35465,1,0,0:0:0:0:
192,192,35691,1,0,0:0:0:0:
192,192,35919,1,0,0:0:0:0:
64,192,35919,1,0,0:0:0:0:
448,192,35919,1,0,0:0:0:0:
320,192,35919,1,0,0:0:0:0:
64,192,36146,1,0,0:0:0:0:
320,192,36146,1,0,0:0:0:0:
64,192,36372,1,0,0:0:0:0:
192,192,36372,1,0,0:0:0:0:
320,192,36372,1,0,0:0:0:0:
448,192,36372,1,0,0:0:0:0:
448,192,36599,1,0,0:0:0:0:
320,192,36599,1,0,0:0:0:0:
448,192,36826,1,0,0:0:0:0:
320,192,36826,1,0,0:0:0:0:
192,192,36826,1,0,0:0:0:0:
64,192,36826,1,0,0:0:0:0:
64,192,37052,1,0,0:0:0:0:
320,192,37052,1,0,0:0:0:0:
192,192,37279,1,0,0:0:0:0:
64,192,37279,1,0,0:0:0:0:
320,192,37279,1,0,0:0:0:0:
448,192,37506,1,0,0:0:0:0:
192,192,37506,1,0,0:0:0:0:
448,192,37732,1,0,0:0:0:0:
320,192,37732,1,0,0:0:0:0:
192,192,37732,1,0,0:0:0:0:
64,192,37732,1,0,0:0:0:0:
320,192,37959,1,0,0:0:0:0:
448,192,37959,1,0,0:0:0:0:
320,192,38186,1,0,0:0:0:0:
64,192,38186,1,0,0:0:0:0:
192,192,38186,1,0,0:0:0:0:
192,192,38413,1,0,0:0:0:0:
64,192,38413,1,0,0:0:0:0:
448,192,38640,1,0,0:0:0:0:
320,192,38640,1,0,0:0:0:0:
192,192,38640,1,0,0:0:0:0:
64,192,38640,1,0,0:0:0:0:
320,192,38867,1,0,0:0:0:0:
448,192,38867,1,0,0:0:0:0:
448,192,39093,1,0,0:0:0:0:
192,192,39093,1,0,0:0:0:0:
64,192,39093,1,0,0:0:0:0:
320,192,39320,1,0,0:0:0:0:
64,192,39547,1,0,0:0:0:0:
192,192,39547,1,0,0:0:0:0:
448,192,39547,1,0,0:0:0:0:
320,192,39547,1,0,0:0:0:0:
192,192,39773,1,0,0:0:0:0:
448,192,39773,1,0,0:0:0:0:
320,192,40000,1,0,0:0:0:0:
64,192,40000,1,0,0:0:0:0:
192,192,40000,1,0,0:0:0:0:
320,192,40227,1,0,0:0:0:0:
448,192,40227,1,0,0:0:0:0:
64,192,40453,1,0,0:0:0:0:
320,192,40453,1,0,0:0:0:0:
192,192,40453,1,0,0:0:0:0:
448,192,40453,1,0,0:0:0:0:
192,192,40681,1,0,0:0:0:0:
64,192,40681,1,0,0:0:0:0:
320,192,40908,1,0,0:0:0:0:
448,192,40908,1,0,0:0:0:0:
192,192,40908,1,0,0:0:0:0:
320,192,41134,1,0,0:0:0:0:
64,192,41361,1,0,0:0:0:0:
192,192,41361,1,0,0:0:0:0:
448,192,41361,1,0,0:0:0:0:
320,192,41361,1,0,0:0:0:0:
64,192,41588,1,0,0:0:0:0:
192,192,41814,1,0,0:0:0:0:
448,192,41814,1,0,0:0:0:0:
320,192,41814,1,0,0:0:0:0:
320,192,42041,1,0,0:0:0:0:
192,192,42268,1,0,0:0:0:0:
64,192,42268,1,0,0:0:0:0:
448,192,42494,1,0,0:0:0:0:
320,192,42721,1,0,0:0:0:0:
192,192,42721,1,0,0:0:0:0:
64,192,42948,1,0,0:0:0:0:
64,192,43175,1,0,0:0:0:0:
192,192,43175,1,0,0:0:0:0:
64,192,43402,1,0,0:0:0:0:
192,192,43402,1,0,0:0:0:0:
320,192,43402,1,0,0:0:0:0:
64,192,43629,1,0,0:0:0:0:
320,192,43629,1,0,0:0:0:0:
192,192,43629,1,0,0:0:0:0:
448,192,43629,1,0,0:0:0:0:
448,192,44082,1,0,0:0:0:0:
320,192,44082,1,0,0:0:0:0:
192,192,44082,1,0,0:0:0:0:
448,192,44535,1,0,0:0:0:0:
192,192,44535,1,0,0:0:0:0:
64,192,44535,1,0,0:0:0:0:
320,192,44762,1,0,0:0:0:0:
320,192,44989,1,0,0:0:0:0:
192,192,44989,1,0,0:0:0:0:
64,192,44989,1,0,0:0:0:0:
64,192,45215,1,0,0:0:0:0:
192,192,45443,1,0,0:0:0:0:
320,192,45443,1,0,0:0:0:0:
448,192,45443,1,0,0:0:0:0:
448,192,45896,1,0,0:0:0:0:
320,192,45896,1,0,0:0:0:0:
64,192,45896,1,0,0:0:0:0:
320,192,46123,1,0,0:0:0:0:
192,192,46350,1,0,0:0:0:0:
64,192,46350,1,0,0:0:0:0:
448,192,46350,1,0,0:0:0:0:
192,192,46803,1,0,0:0:0:0:
320,192,46803,1,0,0:0:0:0:
448,192,46803,1,0,0:0:0:0:
320,192,47030,1,0,0:0:0:0:
448,192,47030,1,0,0:0:0:0:
448,192,47256,1,0,0:0:0:0:
64,192,47256,1,0,0:0:0:0:
192,192,47256,1,0,0:0:0:0:
192,192,47483,1,0,0:0:0:0:
64,192,47483,1,0,0:0:0:0:
320,192,47483,1,0,0:0:0:0:
192,192,47710,1,0,0:0:0:0:
320,192,47710,1,0,0:0:0:0:
448,192,47710,1,0,0:0:0:0:
320,192,47937,1,0,0:0:0:0:
64,192,47937,1,0,0:0:0:0:
448,192,47937,1,0,0:0:0:0:
448,192,48164,1,0,0:0:0:0:
320,192,48164,1,0,0:0:0:0:
448,192,48277,1,0,0:0:0:0:
320,192,48277,1,0,0:0:0:0:
192,192,48390,1,0,0:0:0:0:
64,192,48390,1,0,0:0:0:0:
64,192,48504,1,0,0:0:0:0:
192,192,48504,1,0,0:0:0:0:
320,192,48617,1,0,0:0:0:0:
448,192,48617,1,0,0:0:0:0:
448,192,48730,1,0,0:0:0:0:
320,192,48730,1,0,0:0:0:0:
192,192,48844,1,0,0:0:0:0:
64,192,48844,1,0,0:0:0:0:
64,192,48957,1,0,0:0:0:0:
192,192,48957,1,0,0:0:0:0:
320,192,49070,1,0,0:0:0:0:
448,192,49070,1,0,0:0:0:0:
64,192,49070,1,0,0:0:0:0:
192,192,49297,1,0,0:0:0:0:
448,192,49524,1,0,0:0:0:0:
64,192,49750,1,0,0:0:0:0:
320,192,49977,1,0,0:0:0:0:
192,192,50431,1,0,0:0:0:0:
64,192,50431,1,0,0:0:0:0:
320,192,50658,1,0,0:0:0:0:
448,192,50658,1,0,0:0:0:0:
448,192,50885,1,0,0:0:0:0:
320,192,50885,1,0,0:0:0:0:
64,192,50885,1,0,0:0:0:0:
192,192,50885,1,0,0:0:0:0:
448,192,50998,1,0,0:0:0:0:
320,192,50998,1,0,0:0:0:0:
64,192,50998,1,0,0:0:0:0:
320,192,51111,1,0,0:0:0:0:
448,192,51111,1,0,0:0:0:0:
192,192,51111,1,0,0:0:0:0:
448,192,51225,1,0,0:0:0:0:
320,192,51225,1,0,0:0:0:0:
320,192,51338,1,0,0:0:0:0:
448,192,51338,1,0,0:0:0:0:
192,192,51338,1,0,0:0:0:0:
64,192,51338,1,0,0:0:0:0:
64,192,51451,1,0,0:0:0:0:
192,192,51451,1,0,0:0:0:0:
448,192,51451,1,0,0:0:0:0:
192,192,51565,1,0,0:0:0:0:
64,192,51565,1,0,0:0:0:0:
320,192,51565,1,0,0:0:0:0:
64,192,51678,1,0,0:0:0:0:
192,192,51678,1,0,0:0:0:0:
64,192,51791,1,0,0:0:0:0:
192,192,51791,1,0,0:0:0:0:
320,192,51791,1,0,0:0:0:0:
448,192,51791,1,0,0:0:0:0:
448,192,51905,1,0,0:0:0:0:
320,192,51905,1,0,0:0:0:0:
448,192,52018,1,0,0:0:0:0:
192,192,52018,1,0,0:0:0:0:
64,192,52018,1,0,0:0:0:0:
64,192,52131,1,0,0:0:0:0:
192,192,52131,1,0,0:0:0:0:
64,192,52245,1,0,0:0:0:0:
192,192,52245,1,0,0:0:0:0:
320,192,52245,1,0,0:0:0:0:
448,192,52245,1,0,0:0:0:0:
320,192,52358,1,0,0:0:0:0:
448,192,52358,1,0,0:0:0:0:
320,192,52471,1,0,0:0:0:0:
192,192,52471,1,0,0:0:0:0:
64,192,52471,1,0,0:0:0:0:
192,192,52586,1,0,0:0:0:0:
64,192,52586,1,0,0:0:0:0:
448,192,52699,1,0,0:0:0:0:
320,192,52699,1,0,0:0:0:0:
192,192,52699,1,0,0:0:0:0:
64,192,52699,1,0,0:0:0:0:
448,192,52812,1,0,0:0:0:0:
320,192,52812,1,0,0:0:0:0:
64,192,52812,1,0,0:0:0:0:
320,192,52926,1,0,0:0:0:0:
448,192,52926,1,0,0:0:0:0:
192,192,52926,1,0,0:0:0:0:
448,192,53039,1,0,0:0:0:0:
320,192,53039,1,0,0:0:0:0:
64,192,53152,1,0,0:0:0:0:
192,192,53152,1,0,0:0:0:0:
320,192,53152,1,0,0:0:0:0:
448,192,53152,1,0,0:0:0:0:
192,192,53266,1,0,0:0:0:0:
64,192,53266,1,0,0:0:0:0:
448,192,53379,1,0,0:0:0:0:
64,192,53379,1,0,0:0:0:0:
320,192,53379,1,0,0:0:0:0:
320,192,53492,1,0,0:0:0:0:
448,192,53492,1,0,0:0:0:0:
64,192,53606,1,0,0:0:0:0:
192,192,53606,1,0,0:0:0:0:
448,192,53606,1,0,0:0:0:0:
320,192,53606,1,0,0:0:0:0:
192,192,53719,1,0,0:0:0:0:
64,192,53719,1,0,0:0:0:0:
448,192,53719,1,0,0:0:0:0:
192,192,53832,1,0,0:0:0:0:
64,192,53832,1,0,0:0:0:0:
320,192,53832,1,0,0:0:0:0:
192,192,53946,1,0,0:0:0:0:
64,192,53946,1,0,0:0:0:0:
448,192,54059,1,0,0:0:0:0:
320,192,54059,1,0,0:0:0:0:
192,192,54059,1,0,0:0:0:0:
64,192,54059,1,0,0:0:0:0:
320,192,54172,1,0,0:0:0:0:
64,192,54286,1,0,0:0:0:0:
192,192,54286,1,0,0:0:0:0:
448,192,54286,1,0,0:0:0:0:
192,192,54399,1,0,0:0:0:0:
64,192,54512,1,0,0:0:0:0:
192,192,54512,1,0,0:0:0:0:
448,192,54512,1,0,0:0:0:0:
320,192,54512,1,0,0:0:0:0:
448,192,54626,1,0,0:0:0:0:
320,192,54626,1,0,0:0:0:0:
448,192,54739,1,0,0:0:0:0:
192,192,54739,1,0,0:0:0:0:
64,192,54739,1,0,0:0:0:0:
192,192,54852,1,0,0:0:0:0:
64,192,54852,1,0,0:0:0:0:
448,192,54967,1,0,0:0:0:0:
320,192,54967,1,0,0:0:0:0:
192,192,54967,1,0,0:0:0:0:
64,192,54967,1,0,0:0:0:0:
320,192,55080,1,0,0:0:0:0:
448,192,55080,1,0,0:0:0:0:
192,192,55193,1,0,0:0:0:0:
64,192,55193,1,0,0:0:0:0:
320,192,55193,1,0,0:0:0:0:
192,192,55307,1,0,0:0:0:0:
64,192,55307,1,0,0:0:0:0:
64,192,55420,1,0,0:0:0:0:
192,192,55420,1,0,0:0:0:0:
448,192,55420,1,0,0:0:0:0:
320,192,55420,1,0,0:0:0:0:
448,192,55533,1,0,0:0:0:0:
320,192,55533,1,0,0:0:0:0:
64,192,55533,1,0,0:0:0:0:
320,192,55647,1,0,0:0:0:0:
448,192,55647,1,0,0:0:0:0:
192,192,55647,1,0,0:0:0:0:
448,192,55760,1,0,0:0:0:0:
320,192,55760,1,0,0:0:0:0:
320,192,55873,1,0,0:0:0:0:
448,192,55873,1,0,0:0:0:0:
192,192,55873,1,0,0:0:0:0:
64,192,55873,1,0,0:0:0:0:
64,192,55987,1,0,0:0:0:0:
192,192,55987,1,0,0:0:0:0:
64,192,56100,1,0,0:0:0:0:
320,192,56100,1,0,0:0:0:0:
448,192,56100,1,0,0:0:0:0:
448,192,56213,1,0,0:0:0:0:
320,192,56213,1,0,0:0:0:0:
448,192,56327,1,0,0:0:0:0:
320,192,56327,1,0,0:0:0:0:
192,192,56327,1,0,0:0:0:0:
64,192,56327,1,0,0:0:0:0:
192,192,56440,1,0,0:0:0:0:
64,192,56440,1,0,0:0:0:0:
192,192,56553,1,0,0:0:0:0:
320,192,56553,1,0,0:0:0:0:
448,192,56553,1,0,0:0:0:0:
448,192,56667,1,0,0:0:0:0:
320,192,56667,1,0,0:0:0:0:
448,192,56780,1,0,0:0:0:0:
320,192,56780,1,0,0:0:0:0:
192,192,56780,1,0,0:0:0:0:
64,192,56780,1,0,0:0:0:0:
192,192,56893,1,0,0:0:0:0:
64,192,56893,1,0,0:0:0:0:
64,192,57007,1,0,0:0:0:0:
320,192,57007,1,0,0:0:0:0:
448,192,57007,1,0,0:0:0:0:
448,192,57120,1,0,0:0:0:0:
320,192,57120,1,0,0:0:0:0:
448,192,57233,1,0,0:0:0:0:
320,192,57233,1,0,0:0:0:0:
64,192,57233,1,0,0:0:0:0:
192,192,57233,1,0,0:0:0:0:
64,192,57348,1,0,0:0:0:0:
192,192,57348,1,0,0:0:0:0:
192,192,57461,1,0,0:0:0:0:
64,192,57461,1,0,0:0:0:0:
320,192,57461,1,0,0:0:0:0:
192,192,57574,1,0,0:0:0:0:
64,192,57574,1,0,0:0:0:0:
320,192,57574,1,0,0:0:0:0:
192,192,57688,1,0,0:0:0:0:
64,192,57688,1,0,0:0:0:0:
448,192,57688,1,0,0:0:0:0:
320,192,57688,1,0,0:0:0:0:
192,192,57801,1,0,0:0:0:0:
64,192,57801,1,0,0:0:0:0:
64,192,57914,1,0,0:0:0:0:
320,192,57914,1,0,0:0:0:0:
448,192,57914,1,0,0:0:0:0:
448,192,58028,1,0,0:0:0:0:
320,192,58028,1,0,0:0:0:0:
64,192,58141,1,0,0:0:0:0:
192,192,58141,1,0,0:0:0:0:
320,192,58141,1,0,0:0:0:0:
448,192,58141,1,0,0:0:0:0:
192,192,58254,1,0,0:0:0:0:
64,192,58254,1,0,0:0:0:0:
320,192,58254,1,0,0:0:0:0:
64,192,58368,1,0,0:0:0:0:
192,192,58368,1,0,0:0:0:0:
320,192,58368,1,0,0:0:0:0:
192,192,58481,1,0,0:0:0:0:
64,192,58481,1,0,0:0:0:0:
64,192,58594,1,0,0:0:0:0:
192,192,58594,1,0,0:0:0:0:
320,192,58594,1,0,0:0:0:0:
448,192,58594,1,0,0:0:0:0:
320,192,58708,1,0,0:0:0:0:
448,192,58708,1,0,0:0:0:0:
192,192,58708,1,0,0:0:0:0:
448,192,58821,1,0,0:0:0:0:
320,192,58821,1,0,0:0:0:0:
192,192,58821,1,0,0:0:0:0:
320,192,58934,1,0,0:0:0:0:
448,192,58934,1,0,0:0:0:0:
448,192,59048,1,0,0:0:0:0:
320,192,59048,1,0,0:0:0:0:
192,192,59048,1,0,0:0:0:0:
64,192,59048,1,0,0:0:0:0:
64,192,59161,1,0,0:0:0:0:
192,192,59161,1,0,0:0:0:0:
64,192,59274,1,0,0:0:0:0:
320,192,59274,1,0,0:0:0:0:
448,192,59274,1,0,0:0:0:0:
448,192,59388,1,0,0:0:0:0:
320,192,59388,1,0,0:0:0:0:
448,192,59501,1,0,0:0:0:0:
320,192,59501,1,0,0:0:0:0:
192,192,59501,1,0,0:0:0:0:
64,192,59501,1,0,0:0:0:0:
64,192,59614,1,0,0:0:0:0:
192,192,59614,1,0,0:0:0:0:
192,192,59729,1,0,0:0:0:0:
320,192,59729,1,0,0:0:0:0:
448,192,59729,1,0,0:0:0:0:
448,192,59842,1,0,0:0:0:0:
320,192,59842,1,0,0:0:0:0:
448,192,59955,1,0,0:0:0:0:
320,192,59955,1,0,0:0:0:0:
192,192,59955,1,0,0:0:0:0:
64,192,59955,1,0,0:0:0:0:
64,192,60069,1,0,0:0:0:0:
192,192,60069,1,0,0:0:0:0:
64,192,60182,1,0,0:0:0:0:
320,192,60182,1,0,0:0:0:0:
448,192,60182,1,0,0:0:0:0:
192,192,60182,1,0,0:0:0:0:
320,192,60295,1,0,0:0:0:0:
448,192,60295,1,0,0:0:0:0:
64,192,60409,1,0,0:0:0:0:
192,192,60409,1,0,0:0:0:0:
320,192,60409,1,0,0:0:0:0:
448,192,60409,1,0,0:0:0:0:
192,192,60522,1,0,0:0:0:0:
64,192,60522,1,0,0:0:0:0:
64,192,60635,1,0,0:0:0:0:
192,192,60635,1,0,0:0:0:0:
320,192,60635,1,0,0:0:0:0:
448,192,60635,1,0,0:0:0:0:
320,192,60749,1,0,0:0:0:0:
448,192,60749,1,0,0:0:0:0:
64,192,60862,1,0,0:0:0:0:
192,192,60862,1,0,0:0:0:0:
320,192,60862,1,0,0:0:0:0:
448,192,60862,1,0,0:0:0:0:
192,192,60975,1,0,0:0:0:0:
64,192,60975,1,0,0:0:0:0:
320,192,60975,1,0,0:0:0:0:
64,192,61089,1,0,0:0:0:0:
192,192,61089,1,0,0:0:0:0:
320,192,61089,1,0,0:0:0:0:
192,192,61202,1,0,0:0:0:0:
64,192,61202,1,0,0:0:0:0:
448,192,61315,1,0,0:0:0:0:
192,192,61315,1,0,0:0:0:0:
320,192,61315,1,0,0:0:0:0:
64,192,61315,1,0,0:0:0:0:
320,192,61429,1,0,0:0:0:0:
448,192,61429,1,0,0:0:0:0:
448,192,61542,1,0,0:0:0:0:
192,192,61542,1,0,0:0:0:0:
64,192,61542,1,0,0:0:0:0:
64,192,61655,1,0,0:0:0:0:
192,192,61655,1,0,0:0:0:0:
64,192,61769,1,0,0:0:0:0:
192,192,61769,1,0,0:0:0:0:
320,192,61769,1,0,0:0:0:0:
448,192,61769,1,0,0:0:0:0:
320,192,61882,1,0,0:0:0:0:
448,192,61882,1,0,0:0:0:0:
320,192,61995,1,0,0:0:0:0:
192,192,61995,1,0,0:0:0:0:
64,192,61995,1,0,0:0:0:0:
192,192,62110,1,0,0:0:0:0:
64,192,62110,1,0,0:0:0:0:
64,192,62223,1,0,0:0:0:0:
192,192,62223,1,0,0:0:0:0:
320,192,62223,1,0,0:0:0:0:
448,192,62223,1,0,0:0:0:0:
320,192,62336,1,0,0:0:0:0:
448,192,62336,1,0,0:0:0:0:
448,192,62450,1,0,0:0:0:0:
192,192,62450,1,0,0:0:0:0:
64,192,62450,1,0,0:0:0:0:
192,192,62563,1,0,0:0:0:0:
64,192,62563,1,0,0:0:0:0:
64,192,62676,1,0,0:0:0:0:
192,192,62676,1,0,0:0:0:0:
320,192,62676,1,0,0:0:0:0:
448,192,62676,1,0,0:0:0:0:
320,192,62790,1,0,0:0:0:0:
448,192,62790,1,0,0:0:0:0:
192,192,62790,1,0,0:0:0:0:
448,192,62903,1,0,0:0:0:0:
320,192,62903,1,0,0:0:0:0:
192,192,62903,1,0,0:0:0:0:
320,192,63016,1,0,0:0:0:0:
448,192,63016,1,0,0:0:0:0:
448,192,63130,1,0,0:0:0:0:
320,192,63130,1,0,0:0:0:0:
64,192,63130,1,0,0:0:0:0:
192,192,63130,1,0,0:0:0:0:
64,192,63356,1,0,0:0:0:0:
192,192,63583,1,0,0:0:0:0:
320,192,63583,1,0,0:0:0:0:
448,192,63583,1,0,0:0:0:0:
64,192,63810,1,0,0:0:0:0:
448,192,64036,1,0,0:0:0:0:
320,192,64263,1,0,0:0:0:0:
192,192,64490,1,0,0:0:0:0:
448,192,64717,1,0,0:0:0:0:
448,192,64944,1,0,0:0:0:0:
320,192,64944,1,0,0:0:0:0:
448,192,65170,1,0,0:0:0:0:
320,192,65170,1,0,0:0:0:0:
192,192,65170,1,0,0:0:0:0:
64,192,65397,1,0,0:0:0:0:
192,192,65397,1,0,0:0:0:0:
320,192,65397,1,0,0:0:0:0:
448,192,65397,1,0,0:0:0:0:
192,192,65510,1,0,0:0:0:0:
64,192,65510,1,0,0:0:0:0:
320,192,65510,1,0,0:0:0:0:
64,192,65624,1,0,0:0:0:0:
192,192,65624,1,0,0:0:0:0:
320,192,65624,1,0,0:0:0:0:
192,192,65737,1,0,0:0:0:0:
64,192,65737,1,0,0:0:0:0:
64,192,65850,1,0,0:0:0:0:
320,192,65850,1,0,0:0:0:0:
192,192,65850,1,0,0:0:0:0:
448,192,65850,1,0,0:0:0:0:
448,192,65964,1,0,0:0:0:0:
320,192,65964,1,0,0:0:0:0:
192,192,65964,1,0,0:0:0:0:
320,192,66077,1,0,0:0:0:0:
448,192,66077,1,0,0:0:0:0:
192,192,66077,1,0,0:0:0:0:
448,192,66190,1,0,0:0:0:0:
320,192,66190,1,0,0:0:0:0:
320,192,66304,1,0,0:0:0:0:
448,192,66304,1,0,0:0:0:0:
192,192,66304,1,0,0:0:0:0:
64,192,66304,1,0,0:0:0:0:
64,192,66417,1,0,0:0:0:0:
192,192,66417,1,0,0:0:0:0:
64,192,66530,1,0,0:0:0:0:
320,192,66530,1,0,0:0:0:0:
448,192,66530,1,0,0:0:0:0:
448,192,66644,1,0,0:0:0:0:
320,192,66644,1,0,0:0:0:0:
320,192,66757,1,0,0:0:0:0:
448,192,66757,1,0,0:0:0:0:
192,192,66757,1,0,0:0:0:0:
64,192,66757,1,0,0:0:0:0:
192,192,66871,1,0,0:0:0:0:
64,192,66871,1,0,0:0:0:0:
192,192,66985,1,0,0:0:0:0:
320,192,66985,1,0,0:0:0:0:
448,192,66985,1,0,0:0:0:0:
448,192,67098,1,0,0:0:0:0:
320,192,67098,1,0,0:0:0:0:
320,192,67211,1,0,0:0:0:0:
448,192,67211,1,0,0:0:0:0:
192,192,67211,1,0,0:0:0:0:
64,192,67211,1,0,0:0:0:0:
64,192,67325,1,0,0:0:0:0:
192,192,67325,1,0,0:0:0:0:
320,192,67325,1,0,0:0:0:0:
64,192,67438,1,0,0:0:0:0:
192,192,67438,1,0,0:0:0:0:
320,192,67438,1,0,0:0:0:0:
192,192,67551,1,0,0:0:0:0:
64,192,67551,1,0,0:0:0:0:
64,192,67665,1,0,0:0:0:0:
192,192,67665,1,0,0:0:0:0:
320,192,67665,1,0,0:0:0:0:
448,192,67665,1,0,0:0:0:0:
448,192,67778,1,0,0:0:0:0:
320,192,67778,1,0,0:0:0:0:
448,192,67891,1,0,0:0:0:0:
192,192,67891,1,0,0:0:0:0:
64,192,67891,1,0,0:0:0:0:
64,192,68005,1,0,0:0:0:0:
192,192,68005,1,0,0:0:0:0:
64,192,68118,1,0,0:0:0:0:
192,192,68118,1,0,0:0:0:0:
320,192,68118,1,0,0:0:0:0:
448,192,68118,1,0,0:0:0:0:
448,192,68231,1,0,0:0:0:0:
320,192,68231,1,0,0:0:0:0:
192,192,68231,1,0,0:0:0:0:
320,192,68345,1,0,0:0:0:0:
448,192,68345,1,0,0:0:0:0:
192,192,68345,1,0,0:0:0:0:
448,192,68458,1,0,0:0:0:0:
320,192,68458,1,0,0:0:0:0:
320,192,68571,1,0,0:0:0:0:
448,192,68571,1,0,0:0:0:0:
192,192,68571,1,0,0:0:0:0:
64,192,68571,1,0,0:0:0:0:
64,192,68685,1,0,0:0:0:0:
192,192,68798,1,0,0:0:0:0:
320,192,68798,1,0,0:0:0:0:
448,192,68798,1,0,0:0:0:0:
320,192,68911,1,0,0:0:0:0:
448,192,69025,1,0,0:0:0:0:
320,192,69025,1,0,0:0:0:0:
192,192,69025,1,0,0:0:0:0:
64,192,69025,1,0,0:0:0:0:
192,192,69138,1,0,0:0:0:0:
64,192,69138,1,0,0:0:0:0:
64,192,69252,1,0,0:0:0:0:
320,192,69252,1,0,0:0:0:0:
448,192,69252,1,0,0:0:0:0:
448,192,69366,1,0,0:0:0:0:
320,192,69366,1,0,0:0:0:0:
448,192,69479,1,0,0:0:0:0:
320,192,69479,1,0,0:0:0:0:
192,192,69479,1,0,0:0:0:0:
64,192,69479,1,0,0:0:0:0:
192,192,69592,1,0,0:0:0:0:
64,192,69592,1,0,0:0:0:0:
192,192,69706,1,0,0:0:0:0:
448,192,69706,1,0,0:0:0:0:
320,192,69706,1,0,0:0:0:0:
320,192,69819,1,0,0:0:0:0:
448,192,69819,1,0,0:0:0:0:
448,192,69932,1,0,0:0:0:0:
320,192,69932,1,0,0:0:0:0:
192,192,69932,1,0,0:0:0:0:
64,192,69932,1,0,0:0:0:0:
192,192,70046,1,0,0:0:0:0:
64,192,70046,1,0,0:0:0:0:
448,192,70046,1,0,0:0:0:0:
64,192,70159,1,0,0:0:0:0:
192,192,70159,1,0,0:0:0:0:
320,192,70159,1,0,0:0:0:0:
192,192,70272,1,0,0:0:0:0:
64,192,70272,1,0,0:0:0:0:
64,192,70386,1,0,0:0:0:0:
192,192,70386,1,0,0:0:0:0:
320,192,70386,1,0,0:0:0:0:
448,192,70386,1,0,0:0:0:0:
320,192,70499,1,0,0:0:0:0:
192,192,70612,1,0,0:0:0:0:
64,192,70612,1,0,0:0:0:0:
448,192,70612,1,0,0:0:0:0:
192,192,70726,1,0,0:0:0:0:
64,192,70839,1,0,0:0:0:0:
320,192,70839,1,0,0:0:0:0:
192,192,70839,1,0,0:0:0:0:
448,192,70839,1,0,0:0:0:0:
448,192,70952,1,0,0:0:0:0:
320,192,70952,1,0,0:0:0:0:
448,192,71066,1,0,0:0:0:0:
192,192,71066,1,0,0:0:0:0:
64,192,71066,1,0,0:0:0:0:
64,192,71179,1,0,0:0:0:0:
192,192,71179,1,0,0:0:0:0:
64,192,71292,1,0,0:0:0:0:
192,192,71292,1,0,0:0:0:0:
320,192,71292,1,0,0:0:0:0:
448,192,71292,1,0,0:0:0:0:
448,192,71406,1,0,0:0:0:0:
320,192,71406,1,0,0:0:0:0:
320,192,71519,1,0,0:0:0:0:
192,192,71519,1,0,0:0:0:0:
64,192,71519,1,0,0:0:0:0:
64,192,71633,1,0,0:0:0:0:
192,192,71633,1,0,0:0:0:0:
64,192,71747,1,0,0:0:0:0:
192,192,71747,1,0,0:0:0:0:
448,192,71747,1,0,0:0:0:0:
320,192,71747,1,0,0:0:0:0:
448,192,71860,1,0,0:0:0:0:
320,192,71860,1,0,0:0:0:0:
320,192,71973,1,0,0:0:0:0:
448,192,71973,1,0,0:0:0:0:
192,192,71973,1,0,0:0:0:0:
448,192,72087,1,0,0:0:0:0:
320,192,72087,1,0,0:0:0:0:
192,192,72087,1,0,0:0:0:0:
320,192,72200,1,0,0:0:0:0:
448,192,72200,1,0,0:0:0:0:
192,192,72200,1,0,0:0:0:0:
64,192,72200,1,0,0:0:0:0:
320,192,72313,1,0,0:0:0:0:
448,192,72313,1,0,0:0:0:0:
448,192,72427,1,0,0:0:0:0:
192,192,72427,1,0,0:0:0:0:
64,192,72427,1,0,0:0:0:0:
192,192,72540,1,0,0:0:0:0:
64,192,72540,1,0,0:0:0:0:
448,192,72653,1,0,0:0:0:0:
320,192,72653,1,0,0:0:0:0:
192,192,72653,1,0,0:0:0:0:
64,192,72653,1,0,0:0:0:0:
320,192,72767,1,0,0:0:0:0:
448,192,72767,1,0,0:0:0:0:
64,192,72767,1,0,0:0:0:0:
448,192,72880,1,0,0:0:0:0:
320,192,72880,1,0,0:0:0:0:
192,192,72880,1,0,0:0:0:0:
320,192,72993,1,0,0:0:0:0:
448,192,72993,1,0,0:0:0:0:
448,192,73107,1,0,0:0:0:0:
320,192,73107,1,0,0:0:0:0:
192,192,73107,1,0,0:0:0:0:
64,192,73107,1,0,0:0:0:0:
64,192,73220,1,0,0:0:0:0:
192,192,73220,1,0,0:0:0:0:
448,192,73220,1,0,0:0:0:0:
192,192,73333,1,0,0:0:0:0:
64,192,73333,1,0,0:0:0:0:
320,192,73333,1,0,0:0:0:0:
64,192,73447,1,0,0:0:0:0:
192,192,73447,1,0,0:0:0:0:
64,192,73560,1,0,0:0:0:0:
192,192,73560,1,0,0:0:0:0:
320,192,73560,1,0,0:0:0:0:
448,192,73560,1,0,0:0:0:0:
448,192,73673,1,0,0:0:0:0:
320,192,73673,1,0,0:0:0:0:
448,192,73787,1,0,0:0:0:0:
192,192,73787,1,0,0:0:0:0:
64,192,73787,1,0,0:0:0:0:
192,192,73900,1,0,0:0:0:0:
64,192,73900,1,0,0:0:0:0:
64,192,74014,1,0,0:0:0:0:
320,192,74014,1,0,0:0:0:0:
192,192,74014,1,0,0:0:0:0:
448,192,74014,1,0,0:0:0:0:
448,192,74128,1,0,0:0:0:0:
320,192,74128,1,0,0:0:0:0:
320,192,74241,1,0,0:0:0:0:
192,192,74241,1,0,0:0:0:0:
64,192,74241,1,0,0:0:0:0:
64,192,74354,1,0,0:0:0:0:
192,192,74354,1,0,0:0:0:0:
64,192,74468,1,0,0:0:0:0:
192,192,74468,1,0,0:0:0:0:
320,192,74468,1,0,0:0:0:0:
448,192,74468,1,0,0:0:0:0:
448,192,74581,1,0,0:0:0:0:
320,192,74581,1,0,0:0:0:0:
320,192,74694,1,0,0:0:0:0:
448,192,74694,1,0,0:0:0:0:
192,192,74694,1,0,0:0:0:0:
64,192,74694,1,0,0:0:0:0:
64,192,74808,1,0,0:0:0:0:
192,192,74808,1,0,0:0:0:0:
64,192,74921,1,0,0:0:0:0:
192,192,74921,1,0,0:0:0:0:
320,192,74921,1,0,0:0:0:0:
448,192,74921,1,0,0:0:0:0:
448,192,75034,1,0,0:0:0:0:
320,192,75034,1,0,0:0:0:0:
320,192,75148,1,0,0:0:0:0:
448,192,75148,1,0,0:0:0:0:
192,192,75148,1,0,0:0:0:0:
64,192,75148,1,0,0:0:0:0:
64,192,75261,1,0,0:0:0:0:
192,192,75261,1,0,0:0:0:0:
64,192,75374,1,0,0:0:0:0:
192,192,75374,1,0,0:0:0:0:
448,192,75374,1,0,0:0:0:0:
320,192,75374,1,0,0:0:0:0:
448,192,75488,1,0,0:0:0:0:
320,192,75488,1,0,0:0:0:0:
64,192,75488,1,0,0:0:0:0:
320,192,75601,1,0,0:0:0:0:
448,192,75601,1,0,0:0:0:0:
192,192,75601,1,0,0:0:0:0:
448,192,75714,1,0,0:0:0:0:
320,192,75714,1,0,0:0:0:0:
320,192,75828,1,0,0:0:0:0:
448,192,75828,1,0,0:0:0:0:
192,192,75828,1,0,0:0:0:0:
64,192,75828,1,0,0:0:0:0:
192,192,75941,1,0,0:0:0:0:
64,192,75941,1,0,0:0:0:0:
64,192,76054,1,0,0:0:0:0:
320,192,76054,1,0,0:0:0:0:
448,192,76054,1,0,0:0:0:0:
448,192,76168,1,0,0:0:0:0:
320,192,76168,1,0,0:0:0:0:
448,192,76281,1,0,0:0:0:0:
320,192,76281,1,0,0:0:0:0:
192,192,76281,1,0,0:0:0:0:
64,192,76281,1,0,0:0:0:0:
192,192,76395,1,0,0:0:0:0:
64,192,76395,1,0,0:0:0:0:
192,192,76509,1,0,0:0:0:0:
320,192,76509,1,0,0:0:0:0:
448,192,76509,1,0,0:0:0:0:
448,192,76622,1,0,0:0:0:0:
320,192,76622,1,0,0:0:0:0:
64,192,76735,1,0,0:0:0:0:
192,192,76735,1,0,0:0:0:0:
320,192,76735,1,0,0:0:0:0:
448,192,76735,1,0,0:0:0:0:
192,192,76849,1,0,0:0:0:0:
64,192,76849,1,0,0:0:0:0:
64,192,76962,1,0,0:0:0:0:
320,192,76962,1,0,0:0:0:0:
448,192,76962,1,0,0:0:0:0:
448,192,77075,1,0,0:0:0:0:
320,192,77075,1,0,0:0:0:0:
448,192,77189,1,0,0:0:0:0:
320,192,77189,1,0,0:0:0:0:
192,192,77189,1,0,0:0:0:0:
64,192,77189,1,0,0:0:0:0:
192,192,77302,1,0,0:0:0:0:
64,192,77302,1,0,0:0:0:0:
448,192,77302,1,0,0:0:0:0:
64,192,77415,1,0,0:0:0:0:
192,192,77415,1,0,0:0:0:0:
320,192,77415,1,0,0:0:0:0:
192,192,77529,1,0,0:0:0:0:
64,192,77529,1,0,0:0:0:0:
64,192,77642,1,0,0:0:0:0:
192,192,77642,1,0,0:0:0:0:
320,192,77642,1,0,0:0:0:0:
448,192,77642,1,0,0:0:0:0:
448,192,77869,1,0,0:0:0:0:
320,192,78095,1,0,0:0:0:0:
192,192,78095,1,0,0:0:0:0:
64,192,78095,1,0,0:0:0:0:
448,192,78322,1,0,0:0:0:0:
64,192,78549,1,0,0:0:0:0:
192,192,78776,1,0,0:0:0:0:
320,192,79003,1,0,0:0:0:0:
64,192,79230,1,0,0:0:0:0:
64,192,79456,1,0,0:0:0:0:
192,192,79456,1,0,0:0:0:0:
64,192,79683,1,0,0:0:0:0:
192,192,79683,1,0,0:0:0:0:
320,192,79683,1,0,0:0:0:0:
64,192,79910,1,0,0:0:0:0:
448,192,79910,1,0,0:0:0:0:
192,192,79910,1,0,0:0:0:0:
320,192,79910,1,0,0:0:0:0:
320,192,80136,1,0,0:0:0:0:
192,192,80363,1,0,0:0:0:0:
64,192,80590,1,0,0:0:0:0:
320,192,80816,1,0,0:0:0:0:
448,192,80816,1,0,0:0:0:0:
192,192,81043,1,0,0:0:0:0:
320,192,81270,1,0,0:0:0:0:
448,192,81497,1,0,0:0:0:0:
64,192,81724,1,0,0:0:0:0:
192,192,81724,1,0,0:0:0:0:
320,192,81950,1,0,0:0:0:0:
192,192,82177,1,0,0:0:0:0:
64,192,82404,1,0,0:0:0:0:
448,192,82630,1,0,0:0:0:0:
320,192,82630,1,0,0:0:0:0:
192,192,82857,1,0,0:0:0:0:
448,192,83084,1,0,0:0:0:0:
64,192,83310,1,0,0:0:0:0:
320,192,83538,1,0,0:0:0:0:
192,192,83538,1,0,0:0:0:0:
448,192,83765,1,0,0:0:0:0:
64,192,83991,1,0,0:0:0:0:
192,192,84218,1,0,0:0:0:0:
320,192,84445,1,0,0:0:0:0:
448,192,84445,1,0,0:0:0:0:
192,192,84671,1,0,0:0:0:0:
64,192,84898,1,0,0:0:0:0:
320,192,85125,1,0,0:0:0:0:
448,192,85351,1,0,0:0:0:0:
64,192,85351,1,0,0:0:0:0:
320,192,85578,1,0,0:0:0:0:
192,192,85805,1,0,0:0:0:0:
64,192,86032,1,0,0:0:0:0:
448,192,86259,1,0,0:0:0:0:
320,192,86259,1,0,0:0:0:0:
64,192,86486,1,0,0:0:0:0:
64,192,86712,1,0,0:0:0:0:
192,192,86712,1,0,0:0:0:0:
64,192,86939,1,0,0:0:0:0:
192,192,86939,1,0,0:0:0:0:
320,192,86939,1,0,0:0:0:0:
448,192,87166,1,0,0:0:0:0:
320,192,87166,1,0,0:0:0:0:
192,192,87166,1,0,0:0:0:0:
64,192,87166,1,0,0:0:0:0:
192,192,87392,1,0,0:0:0:0:
448,192,87619,1,0,0:0:0:0:
320,192,87619,1,0,0:0:0:0:
64,192,87619,1,0,0:0:0:0:
192,192,87846,1,0,0:0:0:0:
64,192,88072,1,0,0:0:0:0:
448,192,88072,1,0,0:0:0:0:
320,192,88300,1,0,0:0:0:0:
192,192,88527,1,0,0:0:0:0:
64,192,88527,1,0,0:0:0:0:
448,192,88527,1,0,0:0:0:0:
320,192,88753,1,0,0:0:0:0:
448,192,88980,1,0,0:0:0:0:
64,192,88980,1,0,0:0:0:0:
192,192,89207,1,0,0:0:0:0:
64,192,89433,1,0,0:0:0:0:
320,192,89433,1,0,0:0:0:0:
448,192,89433,1,0,0:0:0:0:
192,192,89660,1,0,0:0:0:0:
320,192,89887,1,0,0:0:0:0:
64,192,89887,1,0,0:0:0:0:
448,192,90113,1,0,0:0:0:0:
320,192,90340,1,0,0:0:0:0:
192,192,90340,1,0,0:0:0:0:
64,192,90340,1,0,0:0:0:0:
448,192,90567,1,0,0:0:0:0:
192,192,90794,1,0,0:0:0:0:
64,192,90794,1,0,0:0:0:0:
320,192,91021,1,0,0:0:0:0:
448,192,91248,1,0,0:0:0:0:
192,192,91248,1,0,0:0:0:0:
64,192,91248,1,0,0:0:0:0:
320,192,91474,1,0,0:0:0:0:
64,192,91701,1,0,0:0:0:0:
448,192,91701,1,0,0:0:0:0:
192,192,91928,1,0,0:0:0:0:
320,192,92154,1,0,0:0:0:0:
448,192,92154,1,0,0:0:0:0:
64,192,92154,1,0,0:0:0:0:
192,192,92381,1,0,0:0:0:0:
320,192,92608,1,0,0:0:0:0:
448,192,92608,1,0,0:0:0:0:
64,192,92834,1,0,0:0:0:0:
192,192,93062,1,0,0:0:0:0:
320,192,93062,1,0,0:0:0:0:
448,192,93062,1,0,0:0:0:0:
64,192,93289,1,0,0:0:0:0:
448,192,93515,1,0,0:0:0:0:
320,192,93515,1,0,0:0:0:0:
192,192,93742,1,0,0:0:0:0:
64,192,93969,1,0,0:0:0:0:
320,192,93969,1,0,0:0:0:0:
448,192,93969,1,0,0:0:0:0:
192,192,94195,1,0,0:0:0:0:
64,192,94422,1,0,0:0:0:0:
448,192,94422,1,0,0:0:0:0:
320,192,94649,1,0,0:0:0:0:
448,192,94875,1,0,0:0:0:0:
192,192,94875,1,0,0:0:0:0:
64,192,94875,1,0,0:0:0:0:
320,192,95102,1,0,0:0:0:0:
448,192,95329,1,0,0:0:0:0:
64,192,95329,1,0,0:0:0:0:
192,192,95556,1,0,0:0:0:0:
64,192,95783,1,0,0:0:0:0:
448,192,95783,1,0,0:0:0:0:
320,192,95783,1,0,0:0:0:0:
192,192,96010,1,0,0:0:0:0:
64,192,96236,1,0,0:0:0:0:
192,192,96236,1,0,0:0:0:0:
448,192,96463,1,0,0:0:0:0:
320,192,96690,1,0,0:0:0:0:
192,192,96690,1,0,0:0:0:0:
64,192,96690,1,0,0:0:0:0:
448,192,96916,1,0,0:0:0:0:
320,192,97143,1,0,0:0:0:0:
192,192,97143,1,0,0:0:0:0:
64,192,97370,1,0,0:0:0:0:
448,192,97596,1,0,0:0:0:0:
320,192,97596,1,0,0:0:0:0:
192,192,97596,1,0,0:0:0:0:
64,192,97824,1,0,0:0:0:0:
192,192,98050,1,0,0:0:0:0:
448,192,98050,128,0,98504:0:0:0:0:
320,192,98277,1,0,0:0:0:0:
320,192,98504,1,0,0:0:0:0:
192,192,98504,1,0,0:0:0:0:
64,192,98504,1,0,0:0:0:0:
192,192,98730,1,0,0:0:0:0:
64,192,98957,128,0,99410:0:0:0:0:
448,192,98957,1,0,0:0:0:0:
320,192,99184,1,0,0:0:0:0:
320,192,99410,1,0,0:0:0:0:
448,192,99410,1,0,0:0:0:0:
192,192,99410,1,0,0:0:0:0:
192,192,99637,1,0,0:0:0:0:
448,192,99864,128,0,101225:0:0:0:0:
64,192,99864,1,0,0:0:0:0:
64,192,101225,128,0,101451:0:0:0:0:
192,192,101451,128,0,101678:0:0:0:0:
64,192,101678,1,0,0:0:0:0:
320,192,101678,1,0,0:0:0:0:
448,192,101678,1,0,0:0:0:0:
448,192,101905,1,0,0:0:0:0:
320,192,102131,1,0,0:0:0:0:
192,192,102131,1,0,0:0:0:0:
64,192,102131,1,0,0:0:0:0:
448,192,102131,1,0,0:0:0:0:
192,192,102358,1,0,0:0:0:0:
64,192,102586,1,0,0:0:0:0:
320,192,102586,1,0,0:0:0:0:
448,192,102586,1,0,0:0:0:0:
192,192,102812,1,0,0:0:0:0:
448,192,102812,1,0,0:0:0:0:
448,192,103039,1,0,0:0:0:0:
320,192,103039,1,0,0:0:0:0:
192,192,103039,1,0,0:0:0:0:
64,192,103039,1,0,0:0:0:0:
64,192,103266,1,0,0:0:0:0:
320,192,103266,1,0,0:0:0:0:
320,192,103492,1,0,0:0:0:0:
448,192,103492,1,0,0:0:0:0:
192,192,103492,1,0,0:0:0:0:
192,192,103719,1,0,0:0:0:0:
64,192,103719,1,0,0:0:0:0:
448,192,103946,1,0,0:0:0:0:
320,192,103946,1,0,0:0:0:0:
192,192,103946,1,0,0:0:0:0:
64,192,103946,1,0,0:0:0:0:
320,192,104172,1,0,0:0:0:0:
448,192,104172,1,0,0:0:0:0:
64,192,104399,1,0,0:0:0:0:
448,192,104399,1,0,0:0:0:0:
192,192,104399,1,0,0:0:0:0:
320,192,104626,1,0,0:0:0:0:
448,192,104852,1,0,0:0:0:0:
320,192,104852,1,0,0:0:0:0:
64,192,104852,1,0,0:0:0:0:
192,192,104852,1,0,0:0:0:0:
64,192,105080,1,0,0:0:0:0:
192,192,105080,1,0,0:0:0:0:
448,192,105307,1,0,0:0:0:0:
192,192,105307,1,0,0:0:0:0:
320,192,105307,1,0,0:0:0:0:
320,192,105533,1,0,0:0:0:0:
448,192,105533,1,0,0:0:0:0:
320,192,105760,1,0,0:0:0:0:
192,192,105760,1,0,0:0:0:0:
64,192,105760,1,0,0:0:0:0:
448,192,105760,1,0,0:0:0:0:
192,192,105987,1,0,0:0:0:0:
64,192,105987,1,0,0:0:0:0:
64,192,106213,1,0,0:0:0:0:
320,192,106213,1,0,0:0:0:0:
448,192,106213,1,0,0:0:0:0:
192,192,106440,1,0,0:0:0:0:
320,192,106667,1,0,0:0:0:0:
64,192,106667,1,0,0:0:0:0:
192,192,106667,1,0,0:0:0:0:
448,192,106667,1,0,0:0:0:0:
64,192,106893,1,0,0:0:0:0:
320,192,106893,1,0,0:0:0:0:
64,192,107120,1,0,0:0:0:0:
320,192,107120,1,0,0:0:0:0:
448,192,107120,1,0,0:0:0:0:
192,192,107120,1,0,0:0:0:0:
448,192,107348,1,0,0:0:0:0:
320,192,107348,1,0,0:0:0:0:
448,192,107574,1,0,0:0:0:0:
320,192,107574,1,0,0:0:0:0:
192,192,107574,1,0,0:0:0:0:
64,192,107574,1,0,0:0:0:0:
64,192,107801,1,0,0:0:0:0:
192,192,107801,1,0,0:0:0:0:
64,192,108028,1,0,0:0:0:0:
320,192,108028,1,0,0:0:0:0:
448,192,108028,1,0,0:0:0:0:
192,192,108254,1,0,0:0:0:0:
192,192,108481,1,0,0:0:0:0:
64,192,108481,1,0,0:0:0:0:
448,192,108481,1,0,0:0:0:0:
320,192,108481,1,0,0:0:0:0:
448,192,108708,1,0,0:0:0:0:
320,192,108708,1,0,0:0:0:0:
64,192,108934,1,0,0:0:0:0:
192,192,108934,1,0,0:0:0:0:
320,192,108934,1,0,0:0:0:0:
448,192,108934,1,0,0:0:0:0:
192,192,109161,1,0,0:0:0:0:
448,192,109388,1,0,0:0:0:0:
320,192,109388,1,0,0:0:0:0:
192,192,109388,1,0,0:0:0:0:
64,192,109388,1,0,0:0:0:0:
64,192,109614,1,0,0:0:0:0:
320,192,109614,1,0,0:0:0:0:
192,192,109842,1,0,0:0:0:0:
64,192,109842,1,0,0:0:0:0:
320,192,109842,1,0,0:0:0:0:
448,192,110069,1,0,0:0:0:0:
192,192,110069,1,0,0:0:0:0:
448,192,110295,1,0,0:0:0:0:
320,192,110295,1,0,0:0:0:0:
192,192,110295,1,0,0:0:0:0:
64,192,110295,1,0,0:0:0:0:
320,192,110522,1,0,0:0:0:0:
448,192,110522,1,0,0:0:0:0:
320,192,110749,1,0,0:0:0:0:
64,192,110749,1,0,0:0:0:0:
192,192,110749,1,0,0:0:0:0:
192,192,110975,1,0,0:0:0:0:
64,192,110975,1,0,0:0:0:0:
448,192,111202,1,0,0:0:0:0:
320,192,111202,1,0,0:0:0:0:
192,192,111202,1,0,0:0:0:0:
64,192,111202,1,0,0:0:0:0:
320,192,111429,1,0,0:0:0:0:
448,192,111429,1,0,0:0:0:0:
448,192,111655,1,0,0:0:0:0:
192,192,111655,1,0,0:0:0:0:
64,192,111655,1,0,0:0:0:0:
192,192,111882,1,0,0:0:0:0:
64,192,112110,1,0,0:0:0:0:
192,192,112110,1,0,0:0:0:0:
448,192,112110,1,0,0:0:0:0:
320,192,112110,1,0,0:0:0:0:
320,192,112336,1,0,0:0:0:0:
448,192,112336,1,0,0:0:0:0:
448,192,112563,1,0,0:0:0:0:
64,192,112563,1,0,0:0:0:0:
192,192,112563,1,0,0:0:0:0:
320,192,112790,1,0,0:0:0:0:
64,192,112790,1,0,0:0:0:0:
64,192,113016,1,0,0:0:0:0:
320,192,113016,1,0,0:0:0:0:
192,192,113016,1,0,0:0:0:0:
448,192,113016,1,0,0:0:0:0:
448,192,113243,1,0,0:0:0:0:
192,192,113243,1,0,0:0:0:0:
320,192,113470,1,0,0:0:0:0:
64,192,113470,1,0,0:0:0:0:
192,192,113470,1,0,0:0:0:0:
320,192,113696,1,0,0:0:0:0:
64,192,113923,1,0,0:0:0:0:
192,192,113923,1,0,0:0:0:0:
448,192,113923,1,0,0:0:0:0:
320,192,113923,1,0,0:0:0:0:
64,192,114150,1,0,0:0:0:0:
192,192,114376,1,0,0:0:0:0:
448,192,114376,1,0,0:0:0:0:
320,192,114604,1,0,0:0:0:0:
192,192,114830,1,0,0:0:0:0:
64,192,114830,1,0,0:0:0:0:
448,192,115057,1,0,0:0:0:0:
320,192,115284,1,0,0:0:0:0:
192,192,115284,1,0,0:0:0:0:
64,192,115510,1,0,0:0:0:0:
64,192,115737,1,0,0:0:0:0:
192,192,115737,1,0,0:0:0:0:
64,192,115964,1,0,0:0:0:0:
192,192,115964,1,0,0:0:0:0:
320,192,115964,1,0,0:0:0:0:
64,192,116190,1,0,0:0:0:0:
320,192,116190,1,0,0:0:0:0:
192,192,116190,1,0,0:0:0:0:
448,192,116190,1,0,0:0:0:0:
320,192,116644,1,0,0:0:0:0:
192,192,116644,1,0,0:0:0:0:
448,192,116644,1,0,0:0:0:0:
320,192,117098,1,0,0:0:0:0:
448,192,117098,1,0,0:0:0:0:
64,192,117098,1,0,0:0:0:0:
192,192,117325,1,0,0:0:0:0:
64,192,117551,1,0,0:0:0:0:
192,192,117551,1,0,0:0:0:0:
448,192,117551,1,0,0:0:0:0:
320,192,117778,1,0,0:0:0:0:
448,192,118005,1,0,0:0:0:0:
192,192,118005,1,0,0:0:0:0:
320,192,118005,1,0,0:0:0:0:
320,192,118458,1,0,0:0:0:0:
192,192,118458,1,0,0:0:0:0:
64,192,118458,1,0,0:0:0:0:
64,192,118685,1,0,0:0:0:0:
192,192,118911,1,0,0:0:0:0:
320,192,118911,1,0,0:0:0:0:
448,192,118911,1,0,0:0:0:0:
192,192,119366,1,0,0:0:0:0:
64,192,119366,1,0,0:0:0:0:
448,192,119366,1,0,0:0:0:0:
320,192,119592,1,0,0:0:0:0:
192,192,119819,1,0,0:0:0:0:
64,192,119819,1,0,0:0:0:0:
448,192,119819,1,0,0:0:0:0:
320,192,120046,1,0,0:0:0:0:
448,192,120046,1,0,0:0:0:0:
64,192,120046,1,0,0:0:0:0:
192,192,120272,1,0,0:0:0:0:
320,192,120272,1,0,0:0:0:0:
448,192,120272,1,0,0:0:0:0:
320,192,120499,1,0,0:0:0:0:
192,192,120499,1,0,0:0:0:0:
64,192,120499,1,0,0:0:0:0:
64,192,120726,1,0,0:0:0:0:
192,192,120726,1,0,0:0:0:0:
64,192,120839,1,0,0:0:0:0:
192,192,120839,1,0,0:0:0:0:
320,192,120952,1,0,0:0:0:0:
448,192,120952,1,0,0:0:0:0:
448,192,121066,1,0,0:0:0:0:
320,192,121066,1,0,0:0:0:0:
192,192,121179,1,0,0:0:0:0:
64,192,121179,1,0,0:0:0:0:
64,192,121292,1,0,0:0:0:0:
192,192,121292,1,0,0:0:0:0:
320,192,121406,1,0,0:0:0:0:
448,192,121406,1,0,0:0:0:0:
448,192,121519,1,0,0:0:0:0:
320,192,121519,1,0,0:0:0:0:
192,192,121633,1,0,0:0:0:0:
64,192,121633,1,0,0:0:0:0:
448,192,121633,1,0,0:0:0:0:
320,192,121860,1,0,0:0:0:0:
64,192,122087,1,0,0:0:0:0:
448,192,122313,1,0,0:0:0:0:
192,192,122540,1,0,0:0:0:0:
320,192,122993,1,0,0:0:0:0:
448,192,122993,1,0,0:0:0:0:
192,192,123220,1,0,0:0:0:0:
64,192,123220,1,0,0:0:0:0:
64,192,123447,1,0,0:0:0:0:
192,192,123447,1,0,0:0:0:0:
448,192,123447,1,0,0:0:0:0:
320,192,123447,1,0,0:0:0:0:
64,192,123560,1,0,0:0:0:0:
192,192,123560,1,0,0:0:0:0:
448,192,123560,1,0,0:0:0:0:
192,192,123673,1,0,0:0:0:0:
64,192,123673,1,0,0:0:0:0:
320,192,123673,1,0,0:0:0:0:
64,192,123787,1,0,0:0:0:0:
192,192,123787,1,0,0:0:0:0:
192,192,123900,1,0,0:0:0:0:
64,192,123900,1,0,0:0:0:0:
320,192,123900,1,0,0:0:0:0:
448,192,123900,1,0,0:0:0:0:
448,192,124014,1,0,0:0:0:0:
320,192,124014,1,0,0:0:0:0:
64,192,124014,1,0,0:0:0:0:
320,192,124128,1,0,0:0:0:0:
448,192,124128,1,0,0:0:0:0:
192,192,124128,1,0,0:0:0:0:
448,192,124241,1,0,0:0:0:0:
320,192,124241,1,0,0:0:0:0:
448,192,124354,1,0,0:0:0:0:
320,192,124354,1,0,0:0:0:0:
192,192,124354,1,0,0:0:0:0:
64,192,124354,1,0,0:0:0:0:
64,192,124468,1,0,0:0:0:0:
192,192,124468,1,0,0:0:0:0:
64,192,124581,1,0,0:0:0:0:
320,192,124581,1,0,0:0:0:0:
448,192,124581,1,0,0:0:0:0:
448,192,124694,1,0,0:0:0:0:
320,192,124694,1,0,0:0:0:0:
448,192,124808,1,0,0:0:0:0:
320,192,124808,1,0,0:0:0:0:
192,192,124808,1,0,0:0:0:0:
64,192,124808,1,0,0:0:0:0:
192,192,124921,1,0,0:0:0:0:
64,192,124921,1,0,0:0:0:0:
192,192,125034,1,0,0:0:0:0:
320,192,125034,1,0,0:0:0:0:
448,192,125034,1,0,0:0:0:0:
320,192,125148,1,0,0:0:0:0:
448,192,125148,1,0,0:0:0:0:
64,192,125261,1,0,0:0:0:0:
192,192,125261,1,0,0:0:0:0:
320,192,125261,1,0,0:0:0:0:
448,192,125261,1,0,0:0:0:0:
64,192,125374,1,0,0:0:0:0:
192,192,125374,1,0,0:0:0:0:
448,192,125374,1,0,0:0:0:0:
192,192,125488,1,0,0:0:0:0:
64,192,125488,1,0,0:0:0:0:
320,192,125488,1,0,0:0:0:0:
64,192,125601,1,0,0:0:0:0:
192,192,125601,1,0,0:0:0:0:
448,192,125714,1,0,0:0:0:0:
320,192,125714,1,0,0:0:0:0:
192,192,125714,1,0,0:0:0:0:
64,192,125714,1,0,0:0:0:0:
320,192,125828,1,0,0:0:0:0:
448,192,125828,1,0,0:0:0:0:
64,192,125941,1,0,0:0:0:0:
448,192,125941,1,0,0:0:0:0:
192,192,125941,1,0,0:0:0:0:
192,192,126054,1,0,0:0:0:0:
64,192,126054,1,0,0:0:0:0:
448,192,126168,1,0,0:0:0:0:
320,192,126168,1,0,0:0:0:0:
64,192,126168,1,0,0:0:0:0:
192,192,126168,1,0,0:0:0:0:
320,192,126281,1,0,0:0:0:0:
448,192,126281,1,0,0:0:0:0:
64,192,126281,1,0,0:0:0:0:
320,192,126395,1,0,0:0:0:0:
448,192,126395,1,0,0:0:0:0:
192,192,126395,1,0,0:0:0:0:
320,192,126509,1,0,0:0:0:0:
448,192,126509,1,0,0:0:0:0:
64,192,126622,1,0,0:0:0:0:
192,192,126622,1,0,0:0:0:0:
320,192,126622,1,0,0:0:0:0:
448,192,126622,1,0,0:0:0:0:
192,192,126735,1,0,0:0:0:0:
448,192,126849,1,0,0:0:0:0:
320,192,126849,1,0,0:0:0:0:
64,192,126849,1,0,0:0:0:0:
320,192,126962,1,0,0:0:0:0:
448,192,127075,1,0,0:0:0:0:
320,192,127075,1,0,0:0:0:0:
64,192,127075,1,0,0:0:0:0:
192,192,127075,1,0,0:0:0:0:
64,192,127189,1,0,0:0:0:0:
192,192,127189,1,0,0:0:0:0:
64,192,127302,1,0,0:0:0:0:
320,192,127302,1,0,0:0:0:0:
448,192,127302,1,0,0:0:0:0:
320,192,127415,1,0,0:0:0:0:
448,192,127415,1,0,0:0:0:0:
64,192,127529,1,0,0:0:0:0:
192,192,127529,1,0,0:0:0:0:
320,192,127529,1,0,0:0:0:0:
448,192,127529,1,0,0:0:0:0:
192,192,127642,1,0,0:0:0:0:
64,192,127642,1,0,0:0:0:0:
320,192,127755,1,0,0:0:0:0:
448,192,127755,1,0,0:0:0:0:
192,192,127755,1,0,0:0:0:0:
320,192,127869,1,0,0:0:0:0:
448,192,127869,1,0,0:0:0:0:
448,192,127982,1,0,0:0:0:0:
320,192,127982,1,0,0:0:0:0:
64,192,127982,1,0,0:0:0:0:
192,192,127982,1,0,0:0:0:0:
64,192,128095,1,0,0:0:0:0:
192,192,128095,1,0,0:0:0:0:
448,192,128095,1,0,0:0:0:0:
192,192,128209,1,0,0:0:0:0:
64,192,128209,1,0,0:0:0:0:
320,192,128209,1,0,0:0:0:0:
64,192,128322,1,0,0:0:0:0:
192,192,128322,1,0,0:0:0:0:
192,192,128435,1,0,0:0:0:0:
64,192,128435,1,0,0:0:0:0:
320,192,128435,1,0,0:0:0:0:
448,192,128435,1,0,0:0:0:0:
448,192,128549,1,0,0:0:0:0:
320,192,128549,1,0,0:0:0:0:
448,192,128662,1,0,0:0:0:0:
192,192,128662,1,0,0:0:0:0:
64,192,128662,1,0,0:0:0:0:
64,192,128776,1,0,0:0:0:0:
192,192,128776,1,0,0:0:0:0:
64,192,128890,1,0,0:0:0:0:
192,192,128890,1,0,0:0:0:0:
320,192,128890,1,0,0:0:0:0:
448,192,128890,1,0,0:0:0:0:
320,192,129003,1,0,0:0:0:0:
448,192,129003,1,0,0:0:0:0:
320,192,129116,1,0,0:0:0:0:
192,192,129116,1,0,0:0:0:0:
64,192,129116,1,0,0:0:0:0:
64,192,129230,1,0,0:0:0:0:
192,192,129230,1,0,0:0:0:0:
64,192,129343,1,0,0:0:0:0:
192,192,129343,1,0,0:0:0:0:
320,192,129343,1,0,0:0:0:0:
448,192,129343,1,0,0:0:0:0:
320,192,129456,1,0,0:0:0:0:
448,192,129456,1,0,0:0:0:0:
448,192,129570,1,0,0:0:0:0:
192,192,129570,1,0,0:0:0:0:
64,192,129570,1,0,0:0:0:0:
64,192,129683,1,0,0:0:0:0:
192,192,129683,1,0,0:0:0:0:
64,192,129796,1,0,0:0:0:0:
192,192,129796,1,0,0:0:0:0:
448,192,129796,1,0,0:0:0:0:
320,192,129796,1,0,0:0:0:0:
448,192,129910,1,0,0:0:0:0:
320,192,129910,1,0,0:0:0:0:
320,192,130023,1,0,0:0:0:0:
448,192,130023,1,0,0:0:0:0:
192,192,130023,1,0,0:0:0:0:
320,192,130136,1,0,0:0:0:0:
448,192,130136,1,0,0:0:0:0:
192,192,130136,1,0,0:0:0:0:
320,192,130250,1,0,0:0:0:0:
448,192,130250,1,0,0:0:0:0:
64,192,130250,1,0,0:0:0:0:
192,192,130250,1,0,0:0:0:0:
320,192,130363,1,0,0:0:0:0:
448,192,130363,1,0,0:0:0:0:
448,192,130476,1,0,0:0:0:0:
192,192,130476,1,0,0:0:0:0:
64,192,130476,1,0,0:0:0:0:
64,192,130590,1,0,0:0:0:0:
192,192,130590,1,0,0:0:0:0:
448,192,130703,1,0,0:0:0:0:
320,192,130703,1,0,0:0:0:0:
192,192,130703,1,0,0:0:0:0:
64,192,130703,1,0,0:0:0:0:
320,192,130816,1,0,0:0:0:0:
448,192,130816,1,0,0:0:0:0:
192,192,130816,1,0,0:0:0:0:
448,192,130930,1,0,0:0:0:0:
320,192,130930,1,0,0:0:0:0:
192,192,130930,1,0,0:0:0:0:
320,192,131043,1,0,0:0:0:0:
448,192,131043,1,0,0:0:0:0:
448,192,131157,1,0,0:0:0:0:
320,192,131157,1,0,0:0:0:0:
192,192,131157,1,0,0:0:0:0:
64,192,131157,1,0,0:0:0:0:
192,192,131270,1,0,0:0:0:0:
64,192,131270,1,0,0:0:0:0:
320,192,131270,1,0,0:0:0:0:
64,192,131384,1,0,0:0:0:0:
192,192,131384,1,0,0:0:0:0:
320,192,131384,1,0,0:0:0:0:
192,192,131497,1,0,0:0:0:0:
64,192,131497,1,0,0:0:0:0:
64,192,131610,1,0,0:0:0:0:
192,192,131610,1,0,0:0:0:0:
320,192,131610,1,0,0:0:0:0:
448,192,131610,1,0,0:0:0:0:
448,192,131724,1,0,0:0:0:0:
320,192,131724,1,0,0:0:0:0:
448,192,131837,1,0,0:0:0:0:
192,192,131837,1,0,0:0:0:0:
64,192,131837,1,0,0:0:0:0:
64,192,131950,1,0,0:0:0:0:
192,192,131950,1,0,0:0:0:0:
64,192,132064,1,0,0:0:0:0:
192,192,132064,1,0,0:0:0:0:
320,192,132064,1,0,0:0:0:0:
448,192,132064,1,0,0:0:0:0:
448,192,132177,1,0,0:0:0:0:
320,192,132177,1,0,0:0:0:0:
320,192,132290,1,0,0:0:0:0:
192,192,132290,1,0,0:0:0:0:
64,192,132290,1,0,0:0:0:0:
64,192,132404,1,0,0:0:0:0:
192,192,132404,1,0,0:0:0:0:
64,192,132517,1,0,0:0:0:0:
192,192,132517,1,0,0:0:0:0:
320,192,132517,1,0,0:0:0:0:
448,192,132517,1,0,0:0:0:0:
448,192,132630,1,0,0:0:0:0:
320,192,132630,1,0,0:0:0:0:
448,192,132744,1,0,0:0:0:0:
192,192,132744,1,0,0:0:0:0:
64,192,132744,1,0,0:0:0:0:
320,192,132744,1,0,0:0:0:0:
192,192,132857,1,0,0:0:0:0:
64,192,132857,1,0,0:0:0:0:
448,192,132970,1,0,0:0:0:0:
320,192,132970,1,0,0:0:0:0:
192,192,132970,1,0,0:0:0:0:
64,192,132970,1,0,0:0:0:0:
320,192,133084,1,0,0:0:0:0:
448,192,133084,1,0,0:0:0:0:
448,192,133197,1,0,0:0:0:0:
320,192,133197,1,0,0:0:0:0:
192,192,133197,1,0,0:0:0:0:
64,192,133197,1,0,0:0:0:0:
192,192,133310,1,0,0:0:0:0:
64,192,133310,1,0,0:0:0:0:
448,192,133424,1,0,0:0:0:0:
320,192,133424,1,0,0:0:0:0:
192,192,133424,1,0,0:0:0:0:
64,192,133424,1,0,0:0:0:0:
320,192,133538,1,0,0:0:0:0:
448,192,133538,1,0,0:0:0:0:
192,192,133538,1,0,0:0:0:0:
448,192,133651,1,0,0:0:0:0:
320,192,133651,1,0,0:0:0:0:
192,192,133651,1,0,0:0:0:0:
320,192,133765,1,0,0:0:0:0:
448,192,133765,1,0,0:0:0:0:
64,192,133878,1,0,0:0:0:0:
320,192,133878,1,0,0:0:0:0:
192,192,133878,1,0,0:0:0:0:
448,192,133878,1,0,0:0:0:0:
192,192,133991,1,0,0:0:0:0:
64,192,133991,1,0,0:0:0:0:
64,192,134105,1,0,0:0:0:0:
320,192,134105,1,0,0:0:0:0:
448,192,134105,1,0,0:0:0:0:
448,192,134218,1,0,0:0:0:0:
320,192,134218,1,0,0:0:0:0:
448,192,134331,1,0,0:0:0:0:
320,192,134331,1,0,0:0:0:0:
192,192,134331,1,0,0:0:0:0:
64,192,134331,1,0,0:0:0:0:
192,192,134445,1,0,0:0:0:0:
64,192,134445,1,0,0:0:0:0:
192,192,134558,1,0,0:0:0:0:
320,192,134558,1,0,0:0:0:0:
448,192,134558,1,0,0:0:0:0:
320,192,134671,1,0,0:0:0:0:
448,192,134671,1,0,0:0:0:0:
448,192,134785,1,0,0:0:0:0:
320,192,134785,1,0,0:0:0:0:
192,192,134785,1,0,0:0:0:0:
64,192,134785,1,0,0:0:0:0:
192,192,134898,1,0,0:0:0:0:
64,192,134898,1,0,0:0:0:0:
64,192,135011,1,0,0:0:0:0:
320,192,135011,1,0,0:0:0:0:
448,192,135011,1,0,0:0:0:0:
320,192,135125,1,0,0:0:0:0:
448,192,135125,1,0,0:0:0:0:
448,192,135238,1,0,0:0:0:0:
320,192,135238,1,0,0:0:0:0:
192,192,135238,1,0,0:0:0:0:
64,192,135238,1,0,0:0:0:0:
192,192,135351,1,0,0:0:0:0:
64,192,135351,1,0,0:0:0:0:
320,192,135351,1,0,0:0:0:0:
64,192,135465,1,0,0:0:0:0:
192,192,135465,1,0,0:0:0:0:
320,192,135465,1,0,0:0:0:0:
192,192,135578,1,0,0:0:0:0:
64,192,135578,1,0,0:0:0:0:
64,192,135691,1,0,0:0:0:0:
192,192,135691,1,0,0:0:0:0:
448,192,135691,1,0,0:0:0:0:
320,192,135691,1,0,0:0:0:0:
448,192,135919,1,0,0:0:0:0:
320,192,136146,1,0,0:0:0:0:
192,192,136146,1,0,0:0:0:0:
64,192,136146,1,0,0:0:0:0:
448,192,136372,1,0,0:0:0:0:
64,192,136599,1,0,0:0:0:0:
192,192,136826,1,0,0:0:0:0:
320,192,137052,1,0,0:0:0:0:
64,192,137279,1,0,0:0:0:0:
64,192,137506,1,0,0:0:0:0:
192,192,137506,1,0,0:0:0:0:
64,192,137732,1,0,0:0:0:0:
192,192,137732,1,0,0:0:0:0:
320,192,137732,1,0,0:0:0:0:
448,192,137959,1,0,0:0:0:0:
320,192,137959,1,0,0:0:0:0:
192,192,137959,1,0,0:0:0:0:
64,192,137959,1,0,0:0:0:0:
320,192,138072,1,0,0:0:0:0:
448,192,138072,1,0,0:0:0:0:
192,192,138072,1,0,0:0:0:0:
448,192,138186,1,0,0:0:0:0:
320,192,138186,1,0,0:0:0:0:
192,192,138186,1,0,0:0:0:0:
320,192,138300,1,0,0:0:0:0:
448,192,138300,1,0,0:0:0:0:
448,192,138413,1,0,0:0:0:0:
192,192,138413,1,0,0:0:0:0:
320,192,138413,1,0,0:0:0:0:
64,192,138413,1,0,0:0:0:0:
64,192,138527,1,0,0:0:0:0:
192,192,138527,1,0,0:0:0:0:
320,192,138527,1,0,0:0:0:0:
192,192,138640,1,0,0:0:0:0:
64,192,138640,1,0,0:0:0:0:
320,192,138640,1,0,0:0:0:0:
64,192,138753,1,0,0:0:0:0:
192,192,138753,1,0,0:0:0:0:
192,192,138867,1,0,0:0:0:0:
64,192,138867,1,0,0:0:0:0:
320,192,138867,1,0,0:0:0:0:
448,192,138867,1,0,0:0:0:0:
448,192,138980,1,0,0:0:0:0:
320,192,138980,1,0,0:0:0:0:
448,192,139093,1,0,0:0:0:0:
192,192,139093,1,0,0:0:0:0:
64,192,139093,1,0,0:0:0:0:
64,192,139207,1,0,0:0:0:0:
192,192,139207,1,0,0:0:0:0:
192,192,139320,1,0,0:0:0:0:
64,192,139320,1,0,0:0:0:0:
320,192,139320,1,0,0:0:0:0:
448,192,139320,1,0,0:0:0:0:
320,192,139433,1,0,0:0:0:0:
448,192,139433,1,0,0:0:0:0:
320,192,139547,1,0,0:0:0:0:
192,192,139547,1,0,0:0:0:0:
64,192,139547,1,0,0:0:0:0:
64,192,139660,1,0,0:0:0:0:
192,192,139660,1,0,0:0:0:0:
192,192,139773,1,0,0:0:0:0:
64,192,139773,1,0,0:0:0:0:
320,192,139773,1,0,0:0:0:0:
448,192,139773,1,0,0:0:0:0:
448,192,139887,1,0,0:0:0:0:
320,192,139887,1,0,0:0:0:0:
192,192,139887,1,0,0:0:0:0:
448,192,140000,1,0,0:0:0:0:
320,192,140000,1,0,0:0:0:0:
192,192,140000,1,0,0:0:0:0:
320,192,140113,1,0,0:0:0:0:
448,192,140113,1,0,0:0:0:0:
448,192,140227,1,0,0:0:0:0:
320,192,140227,1,0,0:0:0:0:
192,192,140227,1,0,0:0:0:0:
64,192,140227,1,0,0:0:0:0:
64,192,140340,1,0,0:0:0:0:
192,192,140340,1,0,0:0:0:0:
64,192,140453,1,0,0:0:0:0:
320,192,140453,1,0,0:0:0:0:
448,192,140453,1,0,0:0:0:0:
448,192,140567,1,0,0:0:0:0:
320,192,140567,1,0,0:0:0:0:
448,192,140681,1,0,0:0:0:0:
320,192,140681,1,0,0:0:0:0:
192,192,140681,1,0,0:0:0:0:
64,192,140681,1,0,0:0:0:0:
64,192,140794,1,0,0:0:0:0:
192,192,140794,1,0,0:0:0:0:
320,192,140794,1,0,0:0:0:0:
192,192,140908,1,0,0:0:0:0:
64,192,140908,1,0,0:0:0:0:
320,192,140908,1,0,0:0:0:0:
64,192,141021,1,0,0:0:0:0:
192,192,141021,1,0,0:0:0:0:
192,192,141134,1,0,0:0:0:0:
64,192,141134,1,0,0:0:0:0:
320,192,141134,1,0,0:0:0:0:
448,192,141134,1,0,0:0:0:0:
448,192,141248,1,0,0:0:0:0:
320,192,141361,1,0,0:0:0:0:
192,192,141361,1,0,0:0:0:0:
64,192,141361,1,0,0:0:0:0:
192,192,141474,1,0,0:0:0:0:
64,192,141588,1,0,0:0:0:0:
192,192,141588,1,0,0:0:0:0:
320,192,141588,1,0,0:0:0:0:
448,192,141588,1,0,0:0:0:0:
320,192,141701,1,0,0:0:0:0:
448,192,141701,1,0,0:0:0:0:
448,192,141814,1,0,0:0:0:0:
192,192,141814,1,0,0:0:0:0:
64,192,141814,1,0,0:0:0:0:
64,192,141928,1,0,0:0:0:0:
192,192,141928,1,0,0:0:0:0:
64,192,142041,1,0,0:0:0:0:
192,192,142041,1,0,0:0:0:0:
320,192,142041,1,0,0:0:0:0:
448,192,142041,1,0,0:0:0:0:
320,192,142154,1,0,0:0:0:0:
448,192,142154,1,0,0:0:0:0:
320,192,142268,1,0,0:0:0:0:
64,192,142268,1,0,0:0:0:0:
192,192,142268,1,0,0:0:0:0:
192,192,142381,1,0,0:0:0:0:
64,192,142381,1,0,0:0:0:0:
64,192,142494,1,0,0:0:0:0:
192,192,142494,1,0,0:0:0:0:
320,192,142494,1,0,0:0:0:0:
448,192,142494,1,0,0:0:0:0:
320,192,142608,1,0,0:0:0:0:
448,192,142608,1,0,0:0:0:0:
64,192,142608,1,0,0:0:0:0:
448,192,142721,1,0,0:0:0:0:
320,192,142721,1,0,0:0:0:0:
192,192,142721,1,0,0:0:0:0:
320,192,142834,1,0,0:0:0:0:
448,192,142834,1,0,0:0:0:0:
448,192,142948,1,0,0:0:0:0:
320,192,142948,1,0,0:0:0:0:
192,192,142948,1,0,0:0:0:0:
64,192,142948,1,0,0:0:0:0:
192,192,143062,1,0,0:0:0:0:
320,192,143175,1,0,0:0:0:0:
448,192,143175,1,0,0:0:0:0:
64,192,143175,1,0,0:0:0:0:
320,192,143289,1,0,0:0:0:0:
448,192,143402,1,0,0:0:0:0:
192,192,143402,1,0,0:0:0:0:
320,192,143402,1,0,0:0:0:0:
64,192,143402,1,0,0:0:0:0:
64,192,143515,1,0,0:0:0:0:
192,192,143515,1,0,0:0:0:0:
64,192,143629,1,0,0:0:0:0:
320,192,143629,1,0,0:0:0:0:
448,192,143629,1,0,0:0:0:0:
448,192,143742,1,0,0:0:0:0:
320,192,143742,1,0,0:0:0:0:
448,192,143855,1,0,0:0:0:0:
320,192,143855,1,0,0:0:0:0:
192,192,143855,1,0,0:0:0:0:
64,192,143855,1,0,0:0:0:0:
64,192,143969,1,0,0:0:0:0:
192,192,143969,1,0,0:0:0:0:
192,192,144082,1,0,0:0:0:0:
320,192,144082,1,0,0:0:0:0:
448,192,144082,1,0,0:0:0:0:
448,192,144195,1,0,0:0:0:0:
320,192,144195,1,0,0:0:0:0:
448,192,144309,1,0,0:0:0:0:
320,192,144309,1,0,0:0:0:0:
64,192,144309,1,0,0:0:0:0:
192,192,144309,1,0,0:0:0:0:
64,192,144422,1,0,0:0:0:0:
192,192,144422,1,0,0:0:0:0:
192,192,144535,1,0,0:0:0:0:
64,192,144535,1,0,0:0:0:0:
320,192,144535,1,0,0:0:0:0:
64,192,144649,1,0,0:0:0:0:
192,192,144649,1,0,0:0:0:0:
320,192,144649,1,0,0:0:0:0:
192,192,144762,1,0,0:0:0:0:
64,192,144762,1,0,0:0:0:0:
320,192,144762,1,0,0:0:0:0:
448,192,144762,1,0,0:0:0:0:
192,192,144875,1,0,0:0:0:0:
64,192,144875,1,0,0:0:0:0:
64,192,144989,1,0,0:0:0:0:
320,192,144989,1,0,0:0:0:0:
448,192,144989,1,0,0:0:0:0:
320,192,145102,1,0,0:0:0:0:
448,192,145102,1,0,0:0:0:0:
64,192,145215,1,0,0:0:0:0:
192,192,145215,1,0,0:0:0:0:
320,192,145215,1,0,0:0:0:0:
448,192,145215,1,0,0:0:0:0:
192,192,145329,1,0,0:0:0:0:
64,192,145329,1,0,0:0:0:0:
448,192,145329,1,0,0:0:0:0:
64,192,145443,1,0,0:0:0:0:
192,192,145443,1,0,0:0:0:0:
320,192,145443,1,0,0:0:0:0:
192,192,145556,1,0,0:0:0:0:
64,192,145556,1,0,0:0:0:0:
64,192,145670,1,0,0:0:0:0:
192,192,145670,1,0,0:0:0:0:
320,192,145670,1,0,0:0:0:0:
448,192,145670,1,0,0:0:0:0:
448,192,145783,1,0,0:0:0:0:
320,192,145783,1,0,0:0:0:0:
64,192,145783,1,0,0:0:0:0:
320,192,145896,1,0,0:0:0:0:
448,192,145896,1,0,0:0:0:0:
192,192,145896,1,0,0:0:0:0:
448,192,146010,1,0,0:0:0:0:
320,192,146010,1,0,0:0:0:0:
448,192,146123,1,0,0:0:0:0:
320,192,146123,1,0,0:0:0:0:
192,192,146123,1,0,0:0:0:0:
64,192,146123,1,0,0:0:0:0:
64,192,146236,1,0,0:0:0:0:
192,192,146236,1,0,0:0:0:0:
64,192,146350,1,0,0:0:0:0:
320,192,146350,1,0,0:0:0:0:
448,192,146350,1,0,0:0:0:0:
320,192,146463,1,0,0:0:0:0:
448,192,146463,1,0,0:0:0:0:
448,192,146576,1,0,0:0:0:0:
192,192,146576,1,0,0:0:0:0:
320,192,146576,1,0,0:0:0:0:
64,192,146576,1,0,0:0:0:0:
64,192,146690,1,0,0:0:0:0:
192,192,146690,1,0,0:0:0:0:
192,192,146803,1,0,0:0:0:0:
320,192,146803,1,0,0:0:0:0:
448,192,146803,1,0,0:0:0:0:
448,192,146916,1,0,0:0:0:0:
320,192,146916,1,0,0:0:0:0:
448,192,147030,1,0,0:0:0:0:
320,192,147030,1,0,0:0:0:0:
192,192,147030,1,0,0:0:0:0:
64,192,147030,1,0,0:0:0:0:
64,192,147143,1,0,0:0:0:0:
192,192,147143,1,0,0:0:0:0:
192,192,147256,1,0,0:0:0:0:
64,192,147256,1,0,0:0:0:0:
320,192,147256,1,0,0:0:0:0:
448,192,147256,1,0,0:0:0:0:
448,192,147370,1,0,0:0:0:0:
320,192,147370,1,0,0:0:0:0:
448,192,147483,1,0,0:0:0:0:
320,192,147483,1,0,0:0:0:0:
192,192,147483,1,0,0:0:0:0:
64,192,147483,1,0,0:0:0:0:
64,192,147596,1,0,0:0:0:0:
192,192,147596,1,0,0:0:0:0:
192,192,147710,1,0,0:0:0:0:
64,192,147710,1,0,0:0:0:0:
320,192,147710,1,0,0:0:0:0:
448,192,147710,1,0,0:0:0:0:
448,192,147824,1,0,0:0:0:0:
320,192,147824,1,0,0:0:0:0:
448,192,147937,1,0,0:0:0:0:
320,192,147937,1,0,0:0:0:0:
64,192,147937,1,0,0:0:0:0:
192,192,147937,1,0,0:0:0:0:
64,192,148050,1,0,0:0:0:0:
192,192,148050,1,0,0:0:0:0:
448,192,148050,1,0,0:0:0:0:
192,192,148164,1,0,0:0:0:0:
64,192,148164,1,0,0:0:0:0:
320,192,148164,1,0,0:0:0:0:
64,192,148277,1,0,0:0:0:0:
192,192,148277,1,0,0:0:0:0:
192,192,148390,1,0,0:0:0:0:
64,192,148390,1,0,0:0:0:0:
320,192,148390,1,0,0:0:0:0:
448,192,148390,1,0,0:0:0:0:
320,192,148504,1,0,0:0:0:0:
448,192,148504,1,0,0:0:0:0:
448,192,148617,1,0,0:0:0:0:
192,192,148617,1,0,0:0:0:0:
64,192,148617,1,0,0:0:0:0:
64,192,148730,1,0,0:0:0:0:
192,192,148730,1,0,0:0:0:0:
64,192,148844,1,0,0:0:0:0:
192,192,148844,1,0,0:0:0:0:
320,192,148844,1,0,0:0:0:0:
448,192,148844,1,0,0:0:0:0:
320,192,148957,1,0,0:0:0:0:
448,192,148957,1,0,0:0:0:0:
320,192,149070,1,0,0:0:0:0:
192,192,149070,1,0,0:0:0:0:
64,192,149070,1,0,0:0:0:0:
64,192,149184,1,0,0:0:0:0:
192,192,149184,1,0,0:0:0:0:
448,192,149297,1,0,0:0:0:0:
320,192,149297,1,0,0:0:0:0:
192,192,149297,1,0,0:0:0:0:
64,192,149297,1,0,0:0:0:0:
320,192,149410,1,0,0:0:0:0:
448,192,149410,1,0,0:0:0:0:
448,192,149524,1,0,0:0:0:0:
192,192,149524,1,0,0:0:0:0:
64,192,149524,1,0,0:0:0:0:
64,192,149637,1,0,0:0:0:0:
192,192,149637,1,0,0:0:0:0:
64,192,149750,1,0,0:0:0:0:
192,192,149750,1,0,0:0:0:0:
320,192,149750,1,0,0:0:0:0:
448,192,149750,1,0,0:0:0:0:
320,192,149864,1,0,0:0:0:0:
448,192,149864,1,0,0:0:0:0:
64,192,149864,1,0,0:0:0:0:
448,192,149977,1,0,0:0:0:0:
320,192,149977,1,0,0:0:0:0:
192,192,149977,1,0,0:0:0:0:
320,192,150090,1,0,0:0:0:0:
448,192,150090,1,0,0:0:0:0:
448,192,150205,1,0,0:0:0:0:
320,192,150205,1,0,0:0:0:0:
192,192,150205,1,0,0:0:0:0:
64,192,150205,1,0,0:0:0:0:
64,192,150431,1,0,0:0:0:0:
192,192,150658,1,0,0:0:0:0:
320,192,150658,1,0,0:0:0:0:
448,192,150658,1,0,0:0:0:0:
64,192,150885,1,0,0:0:0:0:
448,192,151111,1,0,0:0:0:0:
320,192,151338,1,0,0:0:0:0:
192,192,151565,1,0,0:0:0:0:
448,192,151791,1,0,0:0:0:0:
448,192,152018,1,0,0:0:0:0:
320,192,152018,1,0,0:0:0:0:
448,192,152245,1,0,0:0:0:0:
320,192,152245,1,0,0:0:0:0:
192,192,152245,1,0,0:0:0:0:
192,192,152471,1,0,0:0:0:0:
64,192,152471,1,0,0:0:0:0:
320,192,152471,1,0,0:0:0:0:
448,192,152471,1,0,0:0:0:0:
448,192,152699,1,0,0:0:0:0:
320,192,152926,1,0,0:0:0:0:
64,192,152926,1,0,0:0:0:0:
192,192,153152,1,0,0:0:0:0:
320,192,153379,1,0,0:0:0:0:
448,192,153379,1,0,0:0:0:0:
64,192,153606,1,0,0:0:0:0:
192,192,153606,1,0,0:0:0:0:
192,192,153832,1,0,0:0:0:0:
320,192,153832,1,0,0:0:0:0:
448,192,154059,1,0,0:0:0:0:
320,192,154059,1,0,0:0:0:0:
192,192,154286,1,0,0:0:0:0:
64,192,154286,1,0,0:0:0:0:
448,192,154512,1,0,0:0:0:0:
320,192,154739,1,0,0:0:0:0:
192,192,154739,1,0,0:0:0:0:
64,192,154967,1,0,0:0:0:0:
192,192,154967,1,0,0:0:0:0:
320,192,155193,1,0,0:0:0:0:
448,192,155193,128,0,155873:0:0:0:0:
192,192,155420,1,0,0:0:0:0:
320,192,155647,1,0,0:0:0:0:
192,192,155873,1,0,0:0:0:0:
64,192,155873,1,0,0:0:0:0:
320,192,156100,1,0,0:0:0:0:
448,192,156100,1,0,0:0:0:0:
320,192,156327,1,0,0:0:0:0:
192,192,156327,1,0,0:0:0:0:
192,192,156553,1,0,0:0:0:0:
64,192,156553,1,0,0:0:0:0:
448,192,156780,1,0,0:0:0:0:
320,192,156780,1,0,0:0:0:0:
192,192,157007,1,0,0:0:0:0:
64,192,157007,128,0,157688:0:0:0:0:
448,192,157233,1,0,0:0:0:0:
192,192,157461,1,0,0:0:0:0:
448,192,157688,1,0,0:0:0:0:
320,192,157688,1,0,0:0:0:0:
192,192,157914,1,0,0:0:0:0:
320,192,157914,1,0,0:0:0:0:
192,192,158141,1,0,0:0:0:0:
64,192,158141,1,0,0:0:0:0:
448,192,158368,1,0,0:0:0:0:
320,192,158368,1,0,0:0:0:0:
192,192,158594,1,0,0:0:0:0:
320,192,158594,1,0,0:0:0:0:
448,192,158821,128,0,159274:0:0:0:0:
64,192,158821,1,0,0:0:0:0:
192,192,159274,1,0,0:0:0:0:
320,192,159501,1,0,0:0:0:0:
64,192,159729,1,0,0:0:0:0:
64,192,160182,1,0,0:0:0:0:
64,192,160635,1,0,0:0:0:0:
192,192,160862,1,0,0:0:0:0:
320,192,161089,1,0,0:0:0:0:
448,192,161315,1,0,0:0:0:0:
192,192,161542,1,0,0:0:0:0:
64,192,161542,1,0,0:0:0:0:
64,192,161769,1,0,0:0:0:0:
320,192,161769,1,0,0:0:0:0:
448,192,161995,1,0,0:0:0:0:
192,192,161995,1,0,0:0:0:0:
320,192,162223,1,0,0:0:0:0:
448,192,162223,1,0,0:0:0:0:
64,192,162450,128,0,162903:0:0:0:0:
192,192,162450,1,0,0:0:0:0:
448,192,162903,1,0,0:0:0:0:
448,192,163130,1,0,0:0:0:0:
320,192,163356,1,0,0:0:0:0:
192,192,163356,1,0,0:0:0:0:
64,192,163583,1,0,0:0:0:0:
192,192,163583,1,0,0:0:0:0:
320,192,163810,1,0,0:0:0:0:
448,192,163810,1,0,0:0:0:0:
448,192,164036,1,0,0:0:0:0:
192,192,164036,1,0,0:0:0:0:
64,192,164320,128,0,165113:0:0:0:0:
320,192,164830,1,0,0:0:0:0:
448,192,165113,1,0,0:0:0:0:
320,192,165397,1,0,0:0:0:0:
64,192,165681,1,0,0:0:0:0:
192,192,165964,1,0,0:0:0:0:
320,192,166248,1,0,0:0:0:0:
448,192,166530,128,0,170612:0:0:0:0:
64,192,167967,1,0,0:0:0:0:
192,192,168042,1,0,0:0:0:0:
320,192,168118,1,0,0:0:0:0:
