osu file format v14

[General]
AudioFilename: audio.mp3
AudioLeadIn: 0
PreviewTime: 45850
Countdown: 0
SampleSet: Normal
StackLeniency: 0.7
Mode: 1
LetterboxInBreaks: 0
WidescreenStoryboard: 0

[Editor]
DistanceSpacing: 1.3
BeatDivisor: 4
GridSize: 32
TimelineZoom: 1

[Metadata]
Title:Apple Soundtrack Remix
TitleUnicode:Apple Soundtrack Remix
Artist:Mike Solomon
ArtistUnicode:Mike Solomon
Creator:Fatal3ty
Version:Futsuu
Source:
Tags:
BeatmapID:969363
BeatmapSetID:451551

[Difficulty]
HPDrainRate:8
CircleSize:5
OverallDifficulty:4
ApproachRate:3
SliderMultiplier:1.4
SliderTickRate:1

[Events]
//Background and Video events
0,0,"applepics.jpg",0,0
//Break Periods
//Storyboard Layer 0 (Background)
//Storyboard Layer 1 (Fail)
//Storyboard Layer 2 (Pass)
//Storyboard Layer 3 (Foreground)
//Storyboard Sound Samples

[TimingPoints]
1850,500,4,1,0,50,1,0
45850,-100,4,1,0,50,0,1
53850,-100,4,1,0,50,0,0

[HitObjects]
256,192,5850,5,0,0:0:0:0:
256,192,6350,1,2,0:0:0:0:
256,192,6600,1,0,0:0:0:0:
256,192,6850,1,0,0:0:0:0:
256,192,7850,1,0,0:0:0:0:
256,192,8350,1,2,0:0:0:0:
256,192,8600,1,0,0:0:0:0:
256,192,8850,1,0,0:0:0:0:
256,192,9850,1,2,0:0:0:0:
256,192,10100,1,0,0:0:0:0:
256,192,10350,1,2,0:0:0:0:
256,192,10850,1,0,0:0:0:0:
256,192,11350,1,2,0:0:0:0:
256,192,11850,1,0,0:0:0:0:
256,192,12350,1,0,0:0:0:0:
256,192,12600,1,2,0:0:0:0:
256,192,12850,1,0,0:0:0:0:
256,192,13850,1,2,0:0:0:0:
256,192,14100,1,0,0:0:0:0:
256,192,14350,1,2,0:0:0:0:
256,192,14850,1,0,0:0:0:0:
256,192,15350,1,2,0:0:0:0:
256,192,15850,1,0,0:0:0:0:
256,192,16850,1,0,0:0:0:0:
256,192,17850,1,2,0:0:0:0:
256,192,18100,1,0,0:0:0:0:
256,192,18350,1,2,0:0:0:0:
256,192,18850,1,0,0:0:0:0:
256,192,19350,1,2,0:0:0:0:
256,192,19850,1,0,0:0:0:0:
320,256,20850,1,0,0:0:0:0:
256,192,21850,1,2,0:0:0:0:
256,192,22100,1,0,0:0:0:0:
256,192,22350,1,2,0:0:0:0:
256,192,22850,1,2,0:0:0:0:
256,192,23350,1,2,0:0:0:0:
256,192,23850,1,0,0:0:0:0:
256,192,24850,1,0,0:0:0:0:
256,192,25850,1,6,0:0:0:0:
256,192,26350,1,4,0:0:0:0:
256,192,27350,1,4,0:0:0:0:
256,192,28350,1,4,0:0:0:0:
256,192,29350,1,4,0:0:0:0:
256,192,29850,1,2,0:0:0:0:
256,192,30350,1,4,0:0:0:0:
256,192,31350,1,4,0:0:0:0:
256,192,31850,1,2,0:0:0:0:
256,192,32350,1,4,0:0:0:0:
256,192,33350,1,4,0:0:0:0:
256,192,33850,1,0,0:0:0:0:
256,192,34100,1,0,0:0:0:0:
256,192,34350,1,2,0:0:0:0:
256,192,35350,1,2,0:0:0:0:
256,192,35850,1,0,0:0:0:0:
256,192,36350,1,2,0:0:0:0:
256,192,37350,1,2,0:0:0:0:
256,192,37850,1,0,0:0:0:0:
256,192,38350,1,2,0:0:0:0:
256,192,38850,1,0,0:0:0:0:
256,192,39350,1,2,0:0:0:0:
256,192,39850,1,0,0:0:0:0:
256,192,40850,1,2,0:0:0:0:
256,192,41850,1,2,0:0:0:0:
256,192,42100,1,0,0:0:0:0:
256,192,42350,1,2,0:0:0:0:
256,192,42850,1,0,0:0:0:0:
256,192,43350,1,2,0:0:0:0:
256,192,43850,1,0,0:0:0:0:
256,192,44850,1,0,0:0:0:0:
256,192,45850,1,2,0:0:0:0:
256,192,46100,1,0,0:0:0:0:
256,192,46350,1,2,0:0:0:0:
256,192,46850,1,0,0:0:0:0:
256,192,47350,1,2,0:0:0:0:
256,192,47850,1,0,0:0:0:0:
256,192,48850,1,0,0:0:0:0:
256,192,49850,1,2,0:0:0:0:
256,192,50100,1,0,0:0:0:0:
256,192,50350,1,2,0:0:0:0:
256,192,50850,1,0,0:0:0:0:
256,192,51350,1,2,0:0:0:0:
256,192,51850,1,0,0:0:0:0:
256,192,52350,1,2,0:0:0:0:
256,192,52600,1,0,0:0:0:0:
256,192,52850,1,0,0:0:0:0:
256,192,53850,1,2,0:0:0:0:
256,192,54100,1,0,0:0:0:0:
256,192,54350,1,2,0:0:0:0:
256,192,54850,1,2,0:0:0:0:
256,192,55350,1,2,0:0:0:0:
256,192,56350,1,2,0:0:0:0:
256,192,56600,1,0,0:0:0:0:
256,192,56850,1,2,0:0:0:0:
256,192,57850,1,0,0:0:0:0:
256,192,58350,1,0,0:0:0:0:
256,192,58850,1,0,0:0:0:0:
256,192,59850,1,2,0:0:0:0:
256,192,60350,1,2,0:0:0:0:
256,192,60850,1,2,0:0:0:0:
256,192,61850,1,0,0:0:0:0:
256,192,62350,1,0,0:0:0:0:
256,192,62850,1,0,0:0:0:0:
256,192,63850,12,0,65350,0:0:0:0:
