osu file format v14

[General]
AudioFilename: audio.mp3
AudioLeadIn: 0
PreviewTime: 295
Countdown: 0
SampleSet: Normal
StackLeniency: 1
Mode: 1
LetterboxInBreaks: 0
WidescreenStoryboard: 1

[Editor]
DistanceSpacing: 1
BeatDivisor: 4
GridSize: 32
TimelineZoom: 1.6

[Metadata]
Title:Rocket Jump Waltz
TitleUnicode:Rocket Jump Waltz
Artist:Mike Morasky
ArtistUnicode:Mike Morasky
Creator:Axer
Version:Futsuu
Source:Team Fortress 2
Tags:valve studio orchestra soldier official soundtrack video game instrumental fight songs the music of tf2
BeatmapID:2398251
BeatmapSetID:1148711

[Difficulty]
HPDrainRate:9
CircleSize:2
OverallDifficulty:2
ApproachRate:10
SliderMultiplier:1.4
SliderTickRate:1

[Events]
//Background and Video events
0,0,"In-Memoriam-of-Rick-May.jpg",0,0
//Break Periods
//Storyboard Layer 0 (Background)
//Storyboard Layer 1 (Fail)
//Storyboard Layer 2 (Pass)
//Storyboard Layer 3 (Foreground)
//Storyboard Layer 4 (Overlay)
//Storyboard Sound Samples

[TimingPoints]
295,550.45871559633,4,1,0,44,1,0
295,-99.0909090909091,4,1,0,44,0,0
1395,524.017467248908,4,1,0,44,1,8
1395,-104.090909090909,4,1,0,44,0,8
2441,554.272517321016,4,1,0,44,1,0
2441,-98.4090909090909,4,1,0,44,0,0
3549,529.801324503311,4,1,0,44,1,8
3549,-102.954545454545,4,1,0,44,0,8
4608,526.315789473684,4,1,0,44,1,0
4608,-103.636363636364,4,1,0,44,0,0
5125,550.45871559633,4,1,0,44,1,8
5125,-99.0909090909091,4,1,0,44,0,8
5675,545.454545454546,4,1,0,44,1,8
5675,-99.9999999999999,4,1,0,44,0,8
6763,539.325842696629,4,1,0,44,1,0
6763,-101.136363636364,4,1,0,44,0,0
8625,594.059405940594,4,1,0,44,1,8
8625,-91.8181818181818,4,1,0,44,0,8
8922,535.714285714286,4,1,0,44,1,0
8922,-101.818181818182,4,1,0,44,0,0
9993,529.801324503311,4,1,0,44,1,8
9993,-102.954545454545,4,1,0,44,0,8
10522,530.973451327434,4,1,0,44,1,8
10522,-102.727272727273,4,1,0,44,0,8
11052,566.037735849057,4,1,0,44,1,0
11052,-96.3636363636363,4,1,0,44,0,0
11606,546.697038724374,4,1,0,44,1,8
11606,-99.7727272727272,4,1,0,44,0,8
12699,516.129032258064,4,1,0,44,1,8
12699,-105.681818181818,4,1,0,44,0,8
13215,560.747663551402,4,1,0,44,1,0
13215,-97.2727272727273,4,1,0,44,0,0
14336,521.739130434783,4,1,0,44,1,8
14336,-104.545454545454,4,1,0,44,0,8
14852,548.446069469835,4,1,0,44,1,8
14852,-99.4545454545455,4,1,0,44,0,8
15400,540.540540540541,4,1,0,44,1,0
15400,-100.909090909091,4,1,0,44,0,0
16481,606.060606060606,4,1,0,44,1,8
16481,-90,4,1,0,44,0,8
17052,550.45871559633,4,1,0,44,1,8
17052,-99.0909090909091,4,1,0,44,0,8
17582,552.995391705069,4,1,0,55,1,0
17582,-98.6363636363637,4,1,0,55,0,0
18687,512.820512820513,4,1,0,55,1,8
18687,-106.363636363636,4,1,0,55,0,8
19189,531.820599184542,4,1,0,55,1,8
19189,-102.563636363636,4,1,0,55,0,8
19720,555.555555555556,4,1,0,55,1,0
19720,-98.1818181818181,4,1,0,55,0,0
20275,516.129032258065,4,1,0,55,1,8
20275,-105.681818181818,4,1,0,55,0,8
20791,566.037735849057,4,1,0,55,1,8
20791,-96.3636363636363,4,1,0,55,0,8
21312,558.139534883721,4,1,0,55,1,8
21312,-97.7272727272727,4,1,0,55,0,8
21870,543.478260869565,4,1,0,55,1,0
21870,-100.363636363636,4,1,0,55,0,0
22413,545.454545454546,4,1,0,55,1,8
22413,-99.9999999999999,4,1,0,55,0,8
22958,489.795918367347,4,1,0,55,1,8
22958,-111.363636363636,4,1,0,55,0,8
23448,571.428571428571,4,1,0,55,1,8
23448,-95.4545454545455,4,1,0,55,0,8
24019,550.45871559633,4,1,0,55,1,0
24019,-99.0909090909091,4,1,0,55,0,0
25119,571.428571428571,4,1,0,55,1,8
25119,-95.4545454545455,4,1,0,55,0,8
25690,506.329113924051,4,1,0,55,1,8
25690,-107.727272727273,4,1,0,55,0,8
26212,540.540540540541,4,1,0,55,1,0
26212,-100.909090909091,4,1,0,55,0,0
27293,526.315789473685,4,1,0,55,1,8
27293,-103.636363636363,4,1,0,55,0,8
27819,564.705882352941,4,1,0,55,1,8
27819,-96.5909090909091,4,1,0,55,0,8
28397,521.739130434783,4,1,0,55,1,0
28397,-104.545454545454,4,1,0,55,0,0
28918,550.45871559633,4,1,0,44,1,8
28918,-99.0909090909091,4,1,0,44,0,8
29468,552.995391705069,4,1,0,55,1,8
29468,-98.6363636363637,4,1,0,55,0,8
30573,526.315789473684,4,1,0,55,1,0
30573,-103.636363636364,4,1,0,55,0,0
31625,534.521158129176,4,1,0,55,1,8
31625,-102.045454545455,4,1,0,55,0,8
32693,545.454545454546,4,1,0,55,1,0
32693,-99.9999999999999,4,1,0,55,0,0
33238,538.116591928251,4,1,0,55,1,8
33238,-101.363636363636,4,1,0,55,0,8
34324,530.973451327434,4,1,0,55,1,8
34324,-102.727272727273,4,1,0,55,0,8
34854,560.747663551402,4,1,0,55,1,0
34854,-97.2727272727273,4,1,0,55,0,0
35385,588.235294117647,4,1,0,66,1,8
35385,-92.7272727272727,4,1,0,66,0,8
35973,515.021459227468,4,1,0,66,1,8
35973,-105.909090909091,4,1,0,66,0,8
36745,588.235294117647,4,1,0,66,1,8
36745,-92.7272727272727,4,1,0,66,0,8
37039,588.235294117647,4,1,0,66,1,0
37039,-92.7272727272727,4,1,0,66,0,0

[HitObjects]
256,192,295,5,0,0:0:0:0:
256,192,570,1,8,0:0:0:0:
256,192,1120,1,0,0:0:0:0:
256,192,1395,1,8,0:0:0:0:
256,192,1919,1,0,0:0:0:0:
256,192,2181,1,8,0:0:0:0:
256,192,2441,1,0,0:0:0:0:
256,192,2718,1,0,0:0:0:0:
256,192,3272,1,0,0:0:0:0:
256,192,3549,1,0,0:0:0:0:
256,192,4078,1,0,0:0:0:0:
256,192,4343,1,8,0:0:0:0:
256,192,4608,1,0,0:0:0:0:
256,192,4871,1,8,0:0:0:0:
256,192,5400,1,0,0:0:0:0:
256,192,5675,1,8,0:0:0:0:
256,192,6220,1,0,0:0:0:0:
256,192,6493,1,8,0:0:0:0:
256,192,6763,1,0,0:0:0:0:
256,192,7032,1,0,0:0:0:0:
256,192,7571,1,0,0:0:0:0:
256,192,7841,1,0,0:0:0:0:
256,192,8625,1,8,0:0:0:0:
256,192,8922,1,0,0:0:0:0:
256,192,9189,1,8,0:0:0:0:
256,192,9725,1,0,0:0:0:0:
256,192,9993,1,8,0:0:0:0:
256,192,10522,1,0,0:0:0:0:
256,192,11052,1,8,0:0:0:0:
256,192,11335,1,0,0:0:0:0:
256,192,11879,1,0,0:0:0:0:
256,192,12152,1,8,0:0:0:0:
256,192,12699,1,0,0:0:0:0:
256,192,12957,1,0,0:0:0:0:
256,192,13215,1,8,0:0:0:0:
256,192,13495,1,8,0:0:0:0:
256,192,14056,1,0,0:0:0:0:
256,192,14336,1,8,0:0:0:0:
256,192,14596,1,8,0:0:0:0:
256,192,14852,1,0,0:0:0:0:
256,192,15400,1,0,0:0:0:0:
256,192,15670,1,8,0:0:0:0:
256,192,16210,1,0,0:0:0:0:
256,192,16481,1,0,0:0:0:0:
256,192,17052,1,8,0:0:0:0:
256,192,17582,1,0,0:0:0:0:
256,192,18411,1,0,0:0:0:0:
256,192,18687,1,8,0:0:0:0:
256,192,19189,1,0,0:0:0:0:
256,192,19454,1,8,0:0:0:0:
256,192,19720,1,0,0:0:0:0:
256,192,19997,1,0,0:0:0:0:
256,192,20533,1,0,0:0:0:0:
256,192,20791,1,0,0:0:0:0:
256,192,21312,1,8,0:0:0:0:
256,192,21870,1,0,0:0:0:0:
256,192,22141,1,8,0:0:0:0:
256,192,22685,1,0,0:0:0:0:
256,192,22958,1,8,0:0:0:0:
256,192,23202,1,0,0:0:0:0:
256,192,23448,1,8,0:0:0:0:
256,192,24019,1,0,0:0:0:0:
256,192,24294,1,0,0:0:0:0:
256,192,24844,1,0,0:0:0:0:
256,192,25119,1,0,0:0:0:0:
256,192,25690,1,0,0:0:0:0:
256,192,25943,1,8,0:0:0:0:
256,192,26212,1,0,0:0:0:0:
256,192,26482,1,8,0:0:0:0:
256,192,27556,1,8,0:0:0:0:
256,192,27819,1,0,0:0:0:0:
256,192,28101,1,8,0:0:0:0:
256,192,28397,1,0,0:0:0:0:
256,192,28657,1,0,0:0:0:0:
256,192,29193,1,0,0:0:0:0:
256,192,29468,1,0,0:0:0:0:
256,192,30020,1,0,0:0:0:0:
256,192,30297,1,8,0:0:0:0:
256,192,30573,1,0,0:0:0:0:
256,192,30836,1,8,0:0:0:0:
256,192,31362,1,0,0:0:0:0:
256,192,31625,1,8,0:0:0:0:
256,192,31892,1,8,0:0:0:0:
256,192,32159,1,0,0:0:0:0:
256,192,32694,1,8,0:0:0:0:
256,192,33507,1,0,0:0:0:0:
256,192,33776,1,8,0:0:0:0:
256,192,34324,1,0,0:0:0:0:
256,192,34589,1,0,0:0:0:0:
256,192,34854,1,8,0:0:0:0:
256,192,35134,1,12,0:0:0:0:
256,192,35973,1,12,0:0:0:0:
256,192,36230,1,4,0:0:0:0:
256,192,36488,1,12,0:0:0:0:
256,192,36745,1,12,0:0:0:0:
256,192,37039,1,4,0:0:0:0:
