osu file format v14

[General]
AudioFilename: audio.mp3
AudioLeadIn: 0
PreviewTime: 16990
Countdown: 0
SampleSet: Normal
StackLeniency: 0.2
Mode: 1
LetterboxInBreaks: 0
WidescreenStoryboard: 0

[Editor]
DistanceSpacing: 0.5
BeatDivisor: 4
GridSize: 32
TimelineZoom: 3.2

[Metadata]
Title:Faster Than a Speeding Bullet
TitleUnicode:Faster Than a Speeding Bullet
Artist:Mike Morasky
ArtistUnicode:Mike Morasky
Creator:Axer
Version:Tatsujin
Source:Team Fortress 2
Tags:Meet the Scout TF2 The Art of War original soundtrack OST Valve Studio Orchestra instrumental video game orchestral novelty
BeatmapID:2241389
BeatmapSetID:1070783

[Difficulty]
HPDrainRate:7
CircleSize:2
OverallDifficulty:6
ApproachRate:10
SliderMultiplier:1.4
SliderTickRate:1

[Events]
//Background and Video events
0,0,"Bonk.jpg",0,0
//Break Periods
2,3619,7969
2,9690,10826
2,12190,15112
//Storyboard Layer 0 (Background)
//Storyboard Layer 1 (Fail)
//Storyboard Layer 2 (Pass)
//Storyboard Layer 3 (Foreground)
//Storyboard Layer 4 (Overlay)
//Storyboard Sound Samples

[TimingPoints]
2705,357.142857142857,4,1,0,50,1,0
2705,-111.111111111111,4,1,0,50,0,0
16990,357.142857142857,5,1,0,50,1,0
16990,-90.9090909090909,5,1,0,50,0,0
28414,-90.9090909090909,5,1,0,50,0,0
28503,-90.7781228355091,5,1,0,50,0,0
28592,-90.6475315770676,5,1,0,50,0,0
28682,-90.5173974437887,5,1,0,50,0,0
28771,-90.3875547183659,5,1,0,50,0,0
28860,-90.2580839652904,5,1,0,50,0,0
28949,-90.1289835884134,5,1,0,50,0,0
29039,-90.0003330012321,5,1,0,50,0,0
29128,-89.8719683938262,5,1,0,50,0,0
29217,-89.7439694296143,5,1,0,50,0,0
29307,-89.6163345485308,5,1,0,50,0,0
29396,-89.4890621993727,5,1,0,50,0,0
29485,-89.3622306957475,5,1,0,50,0,0
29530,-89.2988699228011,5,1,0,50,0,0
29574,-89.235678565947,5,1,0,50,0,0
29619,-89.1725765791794,5,1,0,50,0,0
29664,-89.1094843679687,5,1,0,50,0,0
29708,-89.0465606656409,5,1,0,50,0,0
29753,-88.9836465854305,5,1,0,50,0,0
29798,-88.9209004130376,5,1,0,50,0,0
29842,-88.8582426683064,5,1,0,50,0,0
29887,-88.7955943177923,5,1,0,50,0,0
29932,-88.7331129794361,5,1,0,50,0,0
29976,-88.6706408847911,5,1,0,50,0,0
30021,-88.6083352088764,5,1,0,50,0,0
30066,-88.5461170314029,5,1,0,50,0,0
30110,-88.4839078740945,5,1,0,50,0,0
30155,-88.4218642512171,5,1,0,50,0,0
30199,-88.359829500873,5,1,0,50,0,0
30289,-88.2361764794119,5,1,0,50,0,0
30378,-88.1127914220435,5,1,0,50,0,0
30467,-87.9897509538089,5,1,0,50,0,0
30557,-87.8670536331709,5,1,0,50,0,0
30601,-87.8058717542559,5,1,0,50,0,0
30646,-87.7447750180096,5,1,0,50,0,0
30691,-87.6836863624686,5,1,0,50,0,0
30735,-87.6227594860399,5,1,0,50,0,0
30780,-87.5618405498884,5,1,0,50,0,0
30824,-87.5010828259,5,1,0,50,0,0
30869,-87.4404093610205,5,1,0,50,0,0
30914,-87.3797436278322,5,1,0,50,0,0
31003,-87.258740489888,5,1,0,50,0,0
31092,-87.1381479483759,5,1,0,50,0,0
31182,-87.0178125462282,5,1,0,50,0,0
31271,-86.8978090455405,5,1,0,50,0,0
31360,-86.7781360750596,5,1,0,50,0,0
31449,-86.6588673686035,5,1,0,50,0,0
31539,-86.539851168764,5,1,0,50,0,0
31628,-86.4211614312727,5,1,0,50,0,0
31717,-86.3027968147364,5,1,0,50,0,0
31807,-86.1847559851004,5,1,0,50,0,0
31896,-86.0671116910122,5,1,0,50,0,0
31985,-85.9497142601749,5,1,0,50,0,0
32074,-85.8326366584325,5,1,0,50,0,0
32164,-85.7158775805837,5,1,0,50,0,0
32253,-85.5995090012164,5,1,0,50,0,0
32342,-85.4833828852009,5,1,0,50,0,0
32432,-85.3675714206444,5,1,0,50,0,0
32521,-85.2520733304234,5,1,0,50,0,0
32610,-85.1368873443166,5,1,0,50,0,0
32699,-85.0220844864454,5,1,0,50,0,0
32789,-84.9075187305986,5,1,0,50,0,0
32878,-84.7932613099372,5,1,0,50,0,0
32967,-84.6793109813824,5,1,0,50,0,0
33057,-84.5657380221089,5,1,0,50,0,0
33146,-84.4523979836145,5,1,0,50,0,0
33235,-84.3393613486201,5,1,0,50,0,0
33324,-84.2266269004685,5,1,0,50,0,0
33414,-84.1141934289992,5,1,0,50,0,0
33503,-84.0021302940243,5,1,0,50,0,0
33592,-83.8902949834443,5,1,0,50,0,0
33682,-83.7787570583603,5,1,0,50,0,0
33771,-83.6675153341639,5,1,0,50,0,0
33860,-83.5566384495899,5,1,0,50,0,0
33949,-83.4459854136418,5,1,0,50,0,0
34039,-83.3356250630226,5,1,0,50,0,0
34128,-83.2255562380051,5,1,0,50,0,0
34217,-83.1158468673637,5,1,0,50,0,0
34307,-83.0063574569176,5,1,0,50,0,0
34396,-82.8971561301618,5,1,0,50,0,0
34485,-82.7882417516005,5,1,0,50,0,0
34574,-82.6796131916977,5,1,0,50,0,0
34664,-82.5713375070392,5,1,0,50,0,0
34753,-82.4632770411517,5,1,0,50,0,0
34842,-82.355499041382,5,1,0,50,0,0
34932,-82.2480024016417,5,1,0,50,0,0
35021,-82.1408534927523,5,1,0,50,0,0
35110,-82.0339161022733,5,1,0,50,0,0
35199,-81.9272567886973,5,1,0,50,0,0
35244,-81.8740645888121,5,1,0,50,0,0
35289,-81.820874468778,5,1,0,50,0,0
35333,-81.767820274331,5,1,0,50,0,0
35378,-81.7147680648881,5,1,0,50,0,0
35423,-81.6618513394994,5,1,0,50,0,0
35467,-81.6090031052226,5,1,0,50,0,0
35512,-81.5561567150485,5,1,0,50,0,0
35557,-81.5034451506265,5,1,0,50,0,0
35601,-81.4507353372386,5,1,0,50,0,0
35646,-81.398159913197,5,1,0,50,0,0
35691,-81.3456523189205,5,1,0,50,0,0
35735,-81.2931463374186,5,1,0,50,0,0
35780,-81.2407740945919,5,1,0,50,0,0
35824,-81.1884692888377,5,1,0,50,0,0
35869,-81.1361659591593,5,1,0,50,0,0
35914,-81.0839957220084,5,1,0,50,0,0
36003,-80.979790683437,5,1,0,50,0,0
36092,-80.8758531391558,5,1,0,50,0,0
36182,-80.7721820604984,5,1,0,50,0,0
36271,-80.6688414986335,5,1,0,50,0,0
36316,-80.6172053239602,5,1,0,50,0,0
36360,-80.5657001199623,5,1,0,50,0,0
36405,-80.5141958604431,5,1,0,50,0,0
36449,-80.4628221530242,5,1,0,50,0,0
36494,-80.4115139638615,5,1,0,50,0,0
36539,-80.3602065900191,5,1,0,50,0,0
36583,-80.3090291441467,5,1,0,50,0,0
36628,-80.257916841562,5,1,0,50,0,0
36717,-80.155822919756,5,1,0,50,0,0
36807,-80.0539884097836,5,1,0,50,0,0
36896,-79.9524123241846,5,1,0,50,0,0
36985,-79.8510936805046,5,1,0,50,0,0
37074,-79.7500951019884,5,1,0,50,0,0
37164,-79.6492882539602,5,1,0,50,0,0
37253,-79.5487359308117,5,1,0,50,0,0
37342,-79.4484371697924,5,1,0,50,0,0
37432,-79.3484539747228,5,1,0,50,0,0
37521,-79.2486593108061,5,1,0,50,0,0
37610,-79.1491153503377,5,1,0,50,0,0
37699,-79.0498211497796,5,1,0,50,0,0
37789,-78.9507757703227,5,1,0,50,0,0
37878,-78.8520404542508,5,1,0,50,0,0
37967,-78.7534897640152,5,1,0,50,0,0
38057,-78.6551851071126,5,1,0,50,0,0
38146,-78.5571255633528,5,1,0,50,0,0
38235,-78.4593717758102,5,1,0,50,0,0
38324,-78.3617995630546,5,1,0,50,0,0
38414,-78.264469730825,5,1,0,50,0,0
38503,-78.1673813770904,5,1,0,50,0,0
38592,-78.0705336042901,5,1,0,50,0,0
38682,-77.9739863186844,5,1,0,50,0,0
38771,-77.8776168826213,5,1,0,50,0,0
38860,-77.7814853619134,5,1,0,50,0,0
38949,-77.6855908766042,5,1,0,50,0,0
39039,-77.5899927530947,5,1,0,50,0,0
39128,-77.4945695680375,5,1,0,50,0,0
39217,-77.3993808049536,5,1,0,50,0,0
39307,-77.3044256010612,5,1,0,50,0,0
39396,-77.2097030978077,5,1,0,50,0,0
39485,-77.1152719084488,5,1,0,50,0,0
39574,-77.0210121023116,5,1,0,50,0,0
39664,-76.9269824468011,5,1,0,50,0,0
39753,-76.8331821000199,5,1,0,50,0,0
39842,-76.7396691138947,5,1,0,50,0,0
39932,-76.6463247320828,5,1,0,50,0,0
40021,-76.5532071583373,5,1,0,50,0,0
40110,-76.4603155670144,5,1,0,50,0,0
40199,-76.3676491364728,5,1,0,50,0,0
40289,-76.275265228166,5,1,0,50,0,0
40378,-76.1830465295575,5,1,0,50,0,0
40467,-76.0910505510894,5,1,0,50,0,0
40557,-75.9992764868879,5,1,0,50,0,0
40646,-75.9077811548306,5,1,0,50,0,0
40735,-75.8164483784757,5,1,0,50,0,0
40824,-75.7253351224706,5,1,0,50,0,0
40914,-75.6344405963322,5,1,0,50,0,0
40958,-75.5891036795264,5,1,0,50,0,0
41003,-75.5437640133682,5,1,0,50,0,0
41048,-75.4985357059,5,1,0,50,0,0
41092,-75.4533615227092,5,1,0,50,0,0
41137,-75.4081845027132,5,1,0,50,0,0
41182,-75.3631183449656,5,1,0,50,0,0
41226,-75.3181060207788,5,1,0,50,0,0
41271,-75.2730907733256,5,1,0,50,0,0
41316,-75.2281858948656,5,1,0,50,0,0
41360,-75.1832780360323,5,1,0,50,0,0
41405,-75.1384802190437,5,1,0,50,0,0
41449,-75.093735755657,5,1,0,50,0,0
41494,-75.0489882270652,5,1,0,50,0,0
41539,-75.0043502523146,5,1,0,50,0,0
41583,-74.9597091563285,5,1,0,50,0,0
41628,-74.9151772905128,5,1,0,50,0,0
41717,-74.8262161130774,5,1,0,50,0,0
41807,-74.7374659664264,5,1,0,50,0,0
41896,-74.6489818252124,5,1,0,50,0,0
41985,-74.5606513618503,5,1,0,50,0,0
42030,-74.5165922370105,5,1,0,50,0,0
42074,-74.4725296903358,5,1,0,50,0,0
42119,-74.4285746183675,5,1,0,50,0,0
42164,-74.3846160712426,5,1,0,50,0,0
42208,-74.3407646839737,5,1,0,50,0,0
42253,-74.296964968981,5,1,0,50,0,0
42298,-74.2531616996252,5,1,0,50,0,0
42342,-74.2094651204383,5,1,0,50,0,0
42432,-74.1221711273389,5,1,0,50,0,0
42521,-74.0350822640817,5,1,0,50,0,0
42610,-73.9481978084712,5,1,0,50,0,0
42699,-73.8615715969758,5,1,0,50,0,0
42789,-73.7750936759252,5,1,0,50,0,0
42878,-73.6888180166212,5,1,0,50,0,0
42967,-73.602743910293,5,1,0,50,0,0
43057,-73.5169246988195,5,1,0,50,0,0
43146,-73.4312514594461,5,1,0,50,0,0
43235,-73.3457776669442,5,1,0,50,0,0
43324,-73.2605026256564,5,1,0,50,0,0
43414,-73.1754256431571,5,1,0,50,0,0
43503,-73.0905994525514,5,1,0,50,0,0
43592,-73.005916399465,5,1,0,50,0,0
43682,-72.9214293475209,5,1,0,50,0,0
43771,-72.8371376170311,5,1,0,50,0,0
43860,-72.753093461534,5,1,0,50,0,0
43949,-72.6691902254126,5,1,0,50,0,0
44039,-72.5854802908645,5,1,0,50,0,0
44128,-72.501962990648,5,1,0,50,0,0
44217,-72.4186376605883,5,1,0,50,0,0
44307,-72.3355559638496,5,1,0,50,0,0
44396,-72.2526124738355,5,1,0,50,0,0
44485,-72.1698589800956,5,1,0,50,0,0
44574,-72.087294830548,5,1,0,50,0,0
44664,-72.0049712232133,5,1,0,50,0,0
44753,-71.9227836994203,5,1,0,50,0,0
44842,-71.8407835817947,5,1,0,50,0,0
44932,-71.7589702300736,5,1,0,50,0,0
45021,-71.6773943833594,5,1,0,50,0,0
45110,-71.5959525376111,5,1,0,50,0,0
45199,-71.5146955547896,5,1,0,50,0,0
45289,-71.4336228061841,5,1,0,50,0,0
45378,-71.3527336659322,5,1,0,50,0,0
45467,-71.2720783080579,5,1,0,50,0,0
45557,-71.191554403518,5,1,0,50,0,0
45646,-71.1112122470574,5,1,0,50,0,0
45735,-71.0310512240426,5,1,0,50,0,0
45824,-70.9511210631884,5,1,0,50,0,0
45914,-70.8713203610469,5,1,0,50,0,0
46003,-70.7916989653793,5,1,0,50,0,0
46092,-70.7122562725307,5,1,0,50,0,0
46182,-70.6329916815526,5,1,0,50,0,0
46271,-70.5539543727577,5,1,0,50,0,0
46360,-70.4750440821401,5,1,0,50,0,0
46449,-70.3963101070094,5,1,0,50,0,0
46539,-70.3177518570918,5,1,0,50,0,0
46628,-70.2394180804691,5,1,0,50,0,0
46717,-70.1612094108633,5,1,0,50,0,0
46807,-70.0831747117479,5,1,0,50,0,0
46896,-70.0053134032873,5,1,0,50,0,0
46985,-69.92762490822,5,1,0,50,0,0
47030,-69.8888697082769,5,1,0,50,0,0
47074,-69.8501574422549,5,1,0,50,0,0
47119,-69.8114393024441,5,1,0,50,0,0
47164,-69.7728127444229,5,1,0,50,0,0
47208,-69.7341802781975,5,1,0,50,0,0
47253,-69.6956391438588,5,1,0,50,0,0
47298,-69.6571405883103,5,1,0,50,0,0
47342,-69.6186360734532,5,1,0,50,0,0
47432,-69.5418513292577,5,1,0,50,0,0
47521,-69.4651875212737,5,1,0,50,0,0
47610,-69.3886925574382,5,1,0,50,0,0
47699,-69.312365880572,5,1,0,50,0,0
47789,-69.2362069359447,5,1,0,50,0,0
47878,-69.1602630026482,5,1,0,50,0,0
47967,-69.0844377632117,5,1,0,50,0,0
48057,-69.0087786067266,5,1,0,50,0,0
48146,-68.9332849881228,5,1,0,50,0,0
48235,-68.8580037789272,5,1,0,50,0,0
48324,-68.7828395069371,5,1,0,50,0,0
48414,-68.7078391522002,5,1,0,50,0,0
48503,-68.6330021790978,5,1,0,50,0,0
48592,-68.5583280543421,5,1,0,50,0,0
48682,-68.4838631473266,5,1,0,50,0,0
48771,-68.4095130268815,5,1,0,50,0,0
48860,-68.3353241691108,5,1,0,50,0,0
48949,-68.2612960499236,5,1,0,50,0,0
49039,-68.1874746427829,5,1,0,50,0,0
49128,-68.1137663370869,5,1,0,50,0,0
49217,-68.0402172115894,5,1,0,50,0,0
49307,-67.9668267511993,5,1,0,50,0,0
49396,-67.8935944430451,5,1,0,50,0,0
49485,-67.8205657727238,5,1,0,50,0,0
49530,-67.7840643731703,5,1,0,50,0,0
49574,-67.7476481403948,5,1,0,50,0,0
49619,-67.7112251669082,5,1,0,50,0,0
49664,-67.674887135207,5,1,0,50,0,0
49708,-67.6385880850569,5,1,0,50,0,0
49753,-67.6022822530489,5,1,0,50,0,0
49798,-67.5660610270176,5,1,0,50,0,0
49842,-67.5298785947843,5,1,0,50,0,0
49932,-67.4575843573957,5,1,0,50,0,0
49976,-67.4214725254128,5,1,0,50,0,0
50021,-67.3854447439353,5,1,0,50,0,0
50066,-67.349455445978,5,1,0,50,0,0
50110,-67.3134592588654,5,1,0,50,0,0
50155,-67.2775467915338,5,1,0,50,0,0
50199,-67.2416274087632,5,1,0,50,0,0
50244,-67.2057915262906,5,1,0,50,0,0
50289,-67.1699938203606,5,1,0,50,0,0
50333,-67.1341891599767,5,1,0,50,0,0
50378,-67.0984676722938,5,1,0,50,0,0
50423,-67.062784178548,5,1,0,50,0,0
50467,-67.0270936918121,5,1,0,50,0,0
50512,-66.9914860520376,5,1,0,50,0,0
50557,-66.9558713938405,5,1,0,50,0,0
50601,-66.920339366425,5,1,0,50,0,0
50646,-66.8848450311583,5,1,0,50,0,0
50691,-66.8493436397195,5,1,0,50,0,0
50735,-66.813924556389,5,1,0,50,0,0
50780,-66.7784983919738,5,1,0,50,0,0
50824,-66.7431543215191,5,1,0,50,0,0
50869,-66.7078476446126,5,1,0,50,0,0
50914,-66.6725338496454,5,1,0,50,0,0
51092,-57.1428571428571,5,1,0,50,0,0
51449,-90.9090909090909,5,1,0,50,0,0
66985,-90.9090909090909,5,1,0,50,0,0
67074,-90.6150861432316,5,1,0,50,0,0
67164,-90.3229769008019,5,1,0,50,0,0
67253,-90.0328259683481,5,1,0,50,0,0
67342,-89.7444526710193,5,1,0,50,0,0
67432,-89.457920783222,5,1,0,50,0,0
67521,-89.1732127235907,5,1,0,50,0,0
67610,-88.8903901488114,5,1,0,50,0,0
67699,-88.6092773913429,5,1,0,50,0,0
67789,-88.3299370472539,5,1,0,50,0,0
67878,-88.0523524066469,5,1,0,50,0,0
67967,-87.7765069690158,5,1,0,50,0,0
68057,-87.5024610067158,5,1,0,50,0,0
68101,-87.3660023938285,5,1,0,50,0,0
68146,-87.230044818797,5,1,0,50,0,0
68191,-87.0945097362953,5,1,0,50,0,0
68235,-86.9593195607163,5,1,0,50,0,0
68280,-86.8246238106112,5,1,0,50,0,0
68324,-86.690269537386,5,1,0,50,0,0
68369,-86.5564053471085,5,1,0,50,0,0
68414,-86.4229539365655,5,1,0,50,0,0
68458,-86.2898389400156,5,1,0,50,0,0
68503,-86.1572076104385,5,1,0,50,0,0
68548,-86.024909372758,5,1,0,50,0,0
68592,-85.8930905880069,5,1,0,50,0,0
68637,-85.7616751656487,5,1,0,50,0,0
68682,-85.6305879310537,5,1,0,50,0,0
68726,-85.4999739225079,5,1,0,50,0,0
68771,-85.3697577633123,5,1,0,50,0,0
68860,-85.1104393060435,5,1,0,50,0,0
68949,-84.8526914849476,5,1,0,50,0,0
69039,-84.5965000735989,5,1,0,50,0,0
69128,-84.3418510168675,5,1,0,50,0,0
69173,-84.2151359863908,5,1,0,50,0,0
69217,-84.0888011375533,5,1,0,50,0,0
69262,-83.9627742644021,5,1,0,50,0,0
69307,-83.8371948745293,5,1,0,50,0,0
69351,-83.7119905706814,5,1,0,50,0,0
69396,-83.5870898068052,5,1,0,50,0,0
69441,-83.4626308589724,5,1,0,50,0,0
69485,-83.3384725391399,5,1,0,50,0,0
69574,-83.0913988769367,5,1,0,50,0,0
69664,-82.8457172492239,5,1,0,50,0,0
69753,-82.6014841834678,5,1,0,50,0,0
69842,-82.3586869060394,5,1,0,50,0,0
69932,-82.1173127930562,5,1,0,50,0,0
70021,-81.8774164072517,5,1,0,50,0,0
70110,-81.6388509495007,5,1,0,50,0,0
70199,-81.4016716647293,5,1,0,50,0,0
70289,-81.1658665064994,5,1,0,50,0,0
70378,-80.9314890665605,5,1,0,50,0,0
70467,-80.6983962000739,5,1,0,50,0,0
70557,-80.466642151163,5,1,0,50,0,0
70646,-80.2362154181912,5,1,0,50,0,0
70735,-80.0071686423103,5,1,0,50,0,0
70824,-79.779362195911,5,1,0,50,0,0
70914,-79.552849344405,5,1,0,50,0,0
71003,-79.3276191005041,5,1,0,50,0,0
71092,-79.103660600998,5,1,0,50,0,0
71182,-78.8810253271196,5,1,0,50,0,0
71271,-78.6595778655094,5,1,0,50,0,0
71360,-78.4393702887353,5,1,0,50,0,0
71449,-78.2203922126906,5,1,0,50,0,0
71539,-78.0026942130581,5,1,0,50,0,0
71628,-77.786144109722,5,1,0,50,0,0
71717,-77.5707930450027,5,1,0,50,0,0
71807,-77.3566310877735,5,1,0,50,0,0
71896,-77.1436484162795,5,1,0,50,0,0
71985,-76.9318945017544,5,1,0,50,0,0
72074,-76.7212410427951,5,1,0,50,0,0
72164,-76.5117380482927,5,1,0,50,0,0
72253,-76.3033761191798,5,1,0,50,0,0
72342,-76.096203864774,5,1,0,50,0,0
72432,-75.8900959630263,5,1,0,50,0,0
72521,-75.6851015391322,5,1,0,50,0,0
72610,-75.481211594216,5,1,0,50,0,0
72699,-75.2784738945544,5,1,0,50,0,0
72789,-75.0767659932281,5,1,0,50,0,0
72878,-74.8761361517709,5,1,0,50,0,0
72967,-74.6765757504249,5,1,0,50,0,0
73057,-74.4780762610814,5,1,0,50,0,0
73146,-74.2806844222263,5,1,0,50,0,0
73235,-74.0842812417118,5,1,0,50,0,0
73324,-73.8889139290208,5,1,0,50,0,0
73414,-73.694574310661,5,1,0,50,0,0
73503,-73.5013083232882,5,1,0,50,0,0
73592,-73.3089996327219,5,1,0,50,0,0
73682,-73.1176946283354,5,1,0,50,0,0
73771,-72.9273854730107,5,1,0,50,0,0
73860,-72.7380644110108,5,1,0,50,0,0
73949,-72.5497764015891,5,1,0,50,0,0
74039,-72.3624083077834,5,1,0,50,0,0
74128,-72.1760055200209,5,1,0,50,0,0
74173,-72.083189767647,5,1,0,50,0,0
74217,-71.9905605976944,5,1,0,50,0,0
74262,-71.8982208785244,5,1,0,50,0,0
74307,-71.806117737619,5,1,0,50,0,0
74351,-71.7141988376563,5,1,0,50,0,0
74396,-71.6225662651983,5,1,0,50,0,0
74441,-71.5311163932867,5,1,0,50,0,0
74485,-71.4399507921619,5,1,0,50,0,0
74574,-71.258264177188,5,1,0,50,0,0
74664,-71.0775498715629,5,1,0,50,0,0
74753,-70.8976995823417,5,1,0,50,0,0
74842,-70.7187571602742,5,1,0,50,0,0
74932,-70.5407157484264,5,1,0,50,0,0
75021,-70.363568558743,5,1,0,50,0,0
75110,-70.1873581338024,5,1,0,50,0,0
75199,-70.0119790496154,5,1,0,50,0,0
75289,-69.837474229972,5,1,0,50,0,0
75378,-69.6638371538143,5,1,0,50,0,0
75467,-69.4911096548863,5,1,0,50,0,0
75557,-69.3191885218515,5,1,0,50,0,0
75646,-69.1481159558586,5,1,0,50,0,0
75735,-68.9778856898478,5,1,0,50,0,0
75824,-68.8084915183213,5,1,0,50,0,0
75914,-68.6399744110175,5,1,0,50,0,0
76003,-68.4722338244619,5,1,0,50,0,0
76092,-68.305311079463,5,1,0,50,0,0
76182,-68.1392002093236,5,1,0,50,0,0
76271,-67.9739415097828,5,1,0,50,0,0
76360,-67.8094364968018,5,1,0,50,0,0
76449,-67.645725804815,5,1,0,50,0,0
76539,-67.4828036945485,5,1,0,50,0,0
76628,-67.3206644818867,5,1,0,50,0,0
76673,-67.2399093068103,5,1,0,50,0,0
76717,-67.1593476409608,5,1,0,50,0,0
76762,-67.0789337937631,5,1,0,50,0,0
76807,-66.9987571730544,5,1,0,50,0,0
76851,-66.918771986999,5,1,0,50,0,0
76896,-66.8389328763333,5,1,0,50,0,0
76941,-66.759328614784,5,1,0,50,0,0
76985,-66.6798692807843,5,1,0,50,0,0
77164,-57.1428571428571,5,1,0,50,0,0
77342,-100,5,1,0,50,0,0

[HitObjects]
256,192,2705,5,8,0:0:0:0:
256,192,2794,1,0,0:0:0:0:
256,192,2883,1,8,0:0:0:0:
256,192,2972,1,0,0:0:0:0:
256,192,3062,1,8,0:0:0:0:
256,192,3240,1,0,0:0:0:0:
256,192,3419,1,8,0:0:0:0:
256,192,8419,5,0,0:0:0:0:
256,192,8508,1,8,0:0:0:0:
256,192,8597,1,8,0:0:0:0:
256,192,8687,1,0,0:0:0:0:
256,192,8776,1,8,0:0:0:0:
256,192,8954,1,0,0:0:0:0:
256,192,9133,1,8,0:0:0:0:
256,192,9490,1,0,0:0:0:0:
256,192,11276,5,8,0:0:0:0:
256,192,11365,1,0,0:0:0:0:
256,192,11454,1,8,0:0:0:0:
256,192,11544,1,0,0:0:0:0:
256,192,11633,1,8,0:0:0:0:
256,192,11812,1,0,0:0:0:0:
256,192,11990,1,8,0:0:0:0:
256,192,15562,5,0,0:0:0:0:
256,192,15651,1,8,0:0:0:0:
256,192,15740,1,8,0:0:0:0:
256,192,15829,1,0,0:0:0:0:
256,192,15919,1,8,0:0:0:0:
256,192,16097,1,0,0:0:0:0:
256,192,16276,1,8,0:0:0:0:
256,192,16633,1,0,0:0:0:0:
256,192,16990,1,8,0:0:0:0:
256,192,17079,1,0,0:0:0:0:
256,192,17168,1,0,0:0:0:0:
256,192,17257,1,0,0:0:0:0:
256,192,17347,1,0,0:0:0:0:
256,192,17436,1,0,0:0:0:0:
256,192,17525,1,8,0:0:0:0:
256,192,17615,1,0,0:0:0:0:
256,192,17704,1,0,0:0:0:0:
256,192,17793,1,0,0:0:0:0:
256,192,17882,1,0,0:0:0:0:
256,192,17972,1,0,0:0:0:0:
256,192,18061,1,8,0:0:0:0:
256,192,18150,1,0,0:0:0:0:
256,192,18240,1,0,0:0:0:0:
256,192,18329,1,0,0:0:0:0:
256,192,18418,1,8,0:0:0:0:
256,192,18507,1,0,0:0:0:0:
256,192,18597,1,0,0:0:0:0:
256,192,18686,1,0,0:0:0:0:
256,192,18775,1,8,0:0:0:0:
256,192,18865,1,0,0:0:0:0:
256,192,18954,1,0,0:0:0:0:
256,192,19043,1,0,0:0:0:0:
256,192,19132,1,0,0:0:0:0:
256,192,19222,1,0,0:0:0:0:
256,192,19311,1,8,0:0:0:0:
256,192,19400,1,0,0:0:0:0:
256,192,19490,1,0,0:0:0:0:
256,192,19579,1,0,0:0:0:0:
256,192,19668,1,0,0:0:0:0:
256,192,19757,1,0,0:0:0:0:
256,192,19847,1,8,0:0:0:0:
256,192,19891,1,8,0:0:0:0:
256,192,19936,1,0,0:0:0:0:
256,192,19981,1,0,0:0:0:0:
256,192,20025,1,8,0:0:0:0:
256,192,20070,1,8,0:0:0:0:
256,192,20115,1,0,0:0:0:0:
256,192,20159,1,0,0:0:0:0:
256,192,20204,1,8,0:0:0:0:
256,192,20293,1,0,0:0:0:0:
256,192,20382,1,0,0:0:0:0:
256,192,20472,1,0,0:0:0:0:
256,192,20561,1,8,0:0:0:0:
256,192,20650,1,0,0:0:0:0:
256,192,20740,1,0,0:0:0:0:
256,192,20829,1,0,0:0:0:0:
256,192,20918,1,0,0:0:0:0:
256,192,21007,1,0,0:0:0:0:
256,192,21097,1,8,0:0:0:0:
256,192,21186,1,0,0:0:0:0:
256,192,21275,1,0,0:0:0:0:
256,192,21365,1,0,0:0:0:0:
256,192,21454,1,0,0:0:0:0:
256,192,21543,1,0,0:0:0:0:
256,192,21632,1,8,0:0:0:0:
256,192,21722,1,0,0:0:0:0:
256,192,21811,1,0,0:0:0:0:
256,192,21900,1,0,0:0:0:0:
256,192,21990,1,8,0:0:0:0:
256,192,22079,1,0,0:0:0:0:
256,192,22168,1,0,0:0:0:0:
256,192,22257,1,0,0:0:0:0:
256,192,22347,1,8,0:0:0:0:
256,192,22391,1,8,0:0:0:0:
256,192,22436,1,0,0:0:0:0:
256,192,22481,1,0,0:0:0:0:
256,192,22525,1,8,0:0:0:0:
256,192,22570,1,8,0:0:0:0:
256,192,22614,1,0,0:0:0:0:
256,192,22659,1,0,0:0:0:0:
256,192,22704,1,8,0:0:0:0:
256,192,22748,1,8,0:0:0:0:
256,192,22793,1,0,0:0:0:0:
256,192,22838,1,0,0:0:0:0:
256,192,22882,1,8,0:0:0:0:
256,192,22927,1,8,0:0:0:0:
256,192,22972,1,0,0:0:0:0:
256,192,23016,1,0,0:0:0:0:
256,192,23061,1,8,0:0:0:0:
256,192,23150,1,0,0:0:0:0:
256,192,23239,1,8,0:0:0:0:
256,192,23329,1,0,0:0:0:0:
256,192,23418,1,8,0:0:0:0:
256,192,23463,1,8,0:0:0:0:
256,192,23507,1,0,0:0:0:0:
256,192,23552,1,0,0:0:0:0:
256,192,23597,1,8,0:0:0:0:
256,192,23641,1,8,0:0:0:0:
256,192,23686,1,0,0:0:0:0:
256,192,23731,1,0,0:0:0:0:
256,192,23775,1,8,0:0:0:0:
256,192,23864,1,0,0:0:0:0:
256,192,23954,1,0,0:0:0:0:
256,192,24043,1,0,0:0:0:0:
256,192,24132,1,8,0:0:0:0:
256,192,24222,1,0,0:0:0:0:
256,192,24311,1,0,0:0:0:0:
256,192,24400,1,0,0:0:0:0:
256,192,24489,1,0,0:0:0:0:
256,192,24579,1,0,0:0:0:0:
256,192,24668,1,8,0:0:0:0:
256,192,24757,1,0,0:0:0:0:
256,192,24847,1,0,0:0:0:0:
256,192,24936,1,0,0:0:0:0:
256,192,25025,1,0,0:0:0:0:
256,192,25114,1,0,0:0:0:0:
256,192,25204,1,8,0:0:0:0:
256,192,25293,1,0,0:0:0:0:
256,192,25382,1,0,0:0:0:0:
256,192,25472,1,0,0:0:0:0:
256,192,25561,1,8,0:0:0:0:
256,192,25650,1,0,0:0:0:0:
256,192,25739,1,0,0:0:0:0:
256,192,25829,1,0,0:0:0:0:
256,192,25918,1,8,0:0:0:0:
256,192,26007,1,0,0:0:0:0:
256,192,26097,1,0,0:0:0:0:
256,192,26186,1,0,0:0:0:0:
256,192,26275,1,0,0:0:0:0:
256,192,26364,1,0,0:0:0:0:
256,192,26454,1,8,0:0:0:0:
256,192,26543,1,0,0:0:0:0:
256,192,26632,1,0,0:0:0:0:
256,192,26722,1,0,0:0:0:0:
256,192,26811,1,0,0:0:0:0:
256,192,26900,1,0,0:0:0:0:
256,192,26989,1,8,0:0:0:0:
256,192,27034,1,8,0:0:0:0:
256,192,27079,1,0,0:0:0:0:
256,192,27123,1,0,0:0:0:0:
256,192,27168,1,8,0:0:0:0:
256,192,27213,1,8,0:0:0:0:
256,192,27257,1,0,0:0:0:0:
256,192,27302,1,0,0:0:0:0:
256,192,27347,1,8,0:0:0:0:
256,192,27436,1,0,0:0:0:0:
256,192,27525,1,0,0:0:0:0:
256,192,27614,1,0,0:0:0:0:
256,192,27704,1,8,0:0:0:0:
256,192,27793,1,0,0:0:0:0:
256,192,27882,1,0,0:0:0:0:
256,192,27972,1,0,0:0:0:0:
256,192,28061,1,0,0:0:0:0:
256,192,28150,1,0,0:0:0:0:
256,192,28239,1,8,0:0:0:0:
256,192,28329,1,0,0:0:0:0:
256,192,28418,1,0,0:0:0:0:
256,192,28507,1,0,0:0:0:0:
256,192,28597,1,0,0:0:0:0:
256,192,28686,1,0,0:0:0:0:
256,192,28775,1,8,0:0:0:0:
256,192,28864,1,0,0:0:0:0:
256,192,28954,1,0,0:0:0:0:
256,192,29043,1,0,0:0:0:0:
256,192,29132,1,8,0:0:0:0:
256,192,29222,1,0,0:0:0:0:
256,192,29311,1,0,0:0:0:0:
256,192,29400,1,0,0:0:0:0:
256,192,29489,1,8,0:0:0:0:
256,192,29534,1,8,0:0:0:0:
256,192,29579,1,0,0:0:0:0:
256,192,29623,1,0,0:0:0:0:
256,192,29668,1,8,0:0:0:0:
256,192,29713,1,8,0:0:0:0:
256,192,29757,1,0,0:0:0:0:
256,192,29802,1,0,0:0:0:0:
256,192,29847,1,8,0:0:0:0:
256,192,29891,1,8,0:0:0:0:
256,192,29936,1,0,0:0:0:0:
256,192,29981,1,0,0:0:0:0:
256,192,30025,1,8,0:0:0:0:
256,192,30070,1,8,0:0:0:0:
256,192,30114,1,0,0:0:0:0:
256,192,30159,1,0,0:0:0:0:
256,192,30204,1,8,0:0:0:0:
256,192,30293,1,0,0:0:0:0:
256,192,30382,1,8,0:0:0:0:
256,192,30472,1,0,0:0:0:0:
256,192,30561,1,8,0:0:0:0:
256,192,30606,1,8,0:0:0:0:
256,192,30650,1,0,0:0:0:0:
256,192,30695,1,0,0:0:0:0:
256,192,30739,1,8,0:0:0:0:
256,192,30784,1,8,0:0:0:0:
256,192,30829,1,0,0:0:0:0:
256,192,30873,1,0,0:0:0:0:
256,192,30918,1,8,0:0:0:0:
256,192,31007,1,0,0:0:0:0:
256,192,31097,1,0,0:0:0:0:
256,192,31186,1,0,0:0:0:0:
256,192,31275,1,0,0:0:0:0:
256,192,31364,1,0,0:0:0:0:
256,192,31454,1,8,0:0:0:0:
256,192,31543,1,0,0:0:0:0:
256,192,31632,1,8,0:0:0:0:
256,192,31722,1,0,0:0:0:0:
256,192,31811,1,0,0:0:0:0:
256,192,31900,1,0,0:0:0:0:
256,192,31989,1,8,0:0:0:0:
256,192,32079,1,0,0:0:0:0:
256,192,32168,1,0,0:0:0:0:
256,192,32257,1,0,0:0:0:0:
256,192,32347,1,8,0:0:0:0:
256,192,32436,1,0,0:0:0:0:
256,192,32525,1,0,0:0:0:0:
256,192,32614,1,0,0:0:0:0:
256,192,32704,1,8,0:0:0:0:
256,192,32793,1,0,0:0:0:0:
256,192,32882,1,0,0:0:0:0:
256,192,32972,1,0,0:0:0:0:
256,192,33061,1,0,0:0:0:0:
256,192,33150,1,0,0:0:0:0:
256,192,33239,1,8,0:0:0:0:
256,192,33329,1,0,0:0:0:0:
256,192,33418,1,0,0:0:0:0:
256,192,33507,1,0,0:0:0:0:
256,192,33597,1,0,0:0:0:0:
256,192,33686,1,0,0:0:0:0:
256,192,33775,1,8,0:0:0:0:
256,192,33864,1,0,0:0:0:0:
256,192,33954,1,0,0:0:0:0:
256,192,34043,1,0,0:0:0:0:
256,192,34132,1,0,0:0:0:0:
256,192,34222,1,0,0:0:0:0:
256,192,34311,1,0,0:0:0:0:
256,192,34400,1,0,0:0:0:0:
256,192,34489,1,8,0:0:0:0:
256,192,34579,1,0,0:0:0:0:
256,192,34668,1,0,0:0:0:0:
256,192,34757,1,0,0:0:0:0:
256,192,34847,1,8,0:0:0:0:
256,192,34936,1,0,0:0:0:0:
256,192,35025,1,0,0:0:0:0:
256,192,35114,1,0,0:0:0:0:
256,192,35204,1,8,0:0:0:0:
256,192,35248,1,8,0:0:0:0:
256,192,35293,1,0,0:0:0:0:
256,192,35338,1,0,0:0:0:0:
256,192,35382,1,8,0:0:0:0:
256,192,35427,1,8,0:0:0:0:
256,192,35472,1,0,0:0:0:0:
256,192,35516,1,0,0:0:0:0:
256,192,35561,1,8,0:0:0:0:
256,192,35606,1,8,0:0:0:0:
256,192,35650,1,0,0:0:0:0:
256,192,35695,1,0,0:0:0:0:
256,192,35739,1,8,0:0:0:0:
256,192,35784,1,8,0:0:0:0:
256,192,35829,1,0,0:0:0:0:
256,192,35873,1,0,0:0:0:0:
256,192,35918,1,8,0:0:0:0:
256,192,36007,1,0,0:0:0:0:
256,192,36097,1,8,0:0:0:0:
256,192,36186,1,0,0:0:0:0:
256,192,36275,1,8,0:0:0:0:
256,192,36320,1,8,0:0:0:0:
256,192,36364,1,0,0:0:0:0:
256,192,36409,1,0,0:0:0:0:
256,192,36454,1,8,0:0:0:0:
256,192,36498,1,8,0:0:0:0:
256,192,36543,1,0,0:0:0:0:
256,192,36588,1,0,0:0:0:0:
256,192,36632,1,8,0:0:0:0:
256,192,36722,1,0,0:0:0:0:
256,192,36811,1,0,0:0:0:0:
256,192,36900,1,0,0:0:0:0:
256,192,36989,1,0,0:0:0:0:
256,192,37079,1,0,0:0:0:0:
256,192,37168,1,8,0:0:0:0:
256,192,37257,1,0,0:0:0:0:
256,192,37347,1,8,0:0:0:0:
256,192,37436,1,0,0:0:0:0:
256,192,37525,1,0,0:0:0:0:
256,192,37614,1,0,0:0:0:0:
256,192,37704,1,8,0:0:0:0:
256,192,37793,1,0,0:0:0:0:
256,192,37882,1,0,0:0:0:0:
256,192,37972,1,0,0:0:0:0:
256,192,38061,1,8,0:0:0:0:
256,192,38150,1,0,0:0:0:0:
256,192,38239,1,0,0:0:0:0:
256,192,38329,1,0,0:0:0:0:
256,192,38418,1,8,0:0:0:0:
256,192,38507,1,0,0:0:0:0:
256,192,38597,1,0,0:0:0:0:
256,192,38686,1,0,0:0:0:0:
256,192,38775,1,0,0:0:0:0:
256,192,38864,1,0,0:0:0:0:
256,192,38954,1,8,0:0:0:0:
256,192,39043,1,0,0:0:0:0:
256,192,39132,1,0,0:0:0:0:
256,192,39222,1,0,0:0:0:0:
256,192,39311,1,0,0:0:0:0:
256,192,39400,1,0,0:0:0:0:
256,192,39489,1,8,0:0:0:0:
256,192,39579,1,0,0:0:0:0:
256,192,39668,1,0,0:0:0:0:
256,192,39757,1,0,0:0:0:0:
256,192,39847,1,0,0:0:0:0:
256,192,39936,1,0,0:0:0:0:
256,192,40025,1,0,0:0:0:0:
256,192,40114,1,0,0:0:0:0:
256,192,40204,1,8,0:0:0:0:
256,192,40293,1,0,0:0:0:0:
256,192,40382,1,0,0:0:0:0:
256,192,40472,1,0,0:0:0:0:
256,192,40561,1,8,0:0:0:0:
256,192,40650,1,0,0:0:0:0:
256,192,40739,1,0,0:0:0:0:
256,192,40829,1,0,0:0:0:0:
256,192,40918,1,8,0:0:0:0:
256,192,40963,1,8,0:0:0:0:
256,192,41007,1,0,0:0:0:0:
256,192,41052,1,0,0:0:0:0:
256,192,41097,1,8,0:0:0:0:
256,192,41141,1,8,0:0:0:0:
256,192,41186,1,0,0:0:0:0:
256,192,41231,1,0,0:0:0:0:
256,192,41275,1,8,0:0:0:0:
256,192,41320,1,8,0:0:0:0:
256,192,41364,1,0,0:0:0:0:
256,192,41409,1,0,0:0:0:0:
256,192,41454,1,8,0:0:0:0:
256,192,41498,1,8,0:0:0:0:
256,192,41543,1,0,0:0:0:0:
256,192,41588,1,0,0:0:0:0:
256,192,41632,1,8,0:0:0:0:
256,192,41722,1,0,0:0:0:0:
256,192,41811,1,8,0:0:0:0:
256,192,41900,1,0,0:0:0:0:
256,192,41989,1,8,0:0:0:0:
256,192,42034,1,8,0:0:0:0:
256,192,42079,1,0,0:0:0:0:
256,192,42123,1,0,0:0:0:0:
256,192,42168,1,8,0:0:0:0:
256,192,42213,1,8,0:0:0:0:
256,192,42257,1,0,0:0:0:0:
256,192,42302,1,0,0:0:0:0:
256,192,42347,1,8,0:0:0:0:
256,192,42436,1,0,0:0:0:0:
256,192,42525,1,0,0:0:0:0:
256,192,42614,1,0,0:0:0:0:
256,192,42704,1,0,0:0:0:0:
256,192,42793,1,0,0:0:0:0:
256,192,42882,1,8,0:0:0:0:
256,192,42972,1,0,0:0:0:0:
256,192,43061,1,8,0:0:0:0:
256,192,43150,1,0,0:0:0:0:
256,192,43239,1,0,0:0:0:0:
256,192,43329,1,0,0:0:0:0:
256,192,43418,1,8,0:0:0:0:
256,192,43507,1,0,0:0:0:0:
256,192,43597,1,0,0:0:0:0:
256,192,43686,1,0,0:0:0:0:
256,192,43775,1,8,0:0:0:0:
256,192,43864,1,0,0:0:0:0:
256,192,43954,1,0,0:0:0:0:
256,192,44043,1,0,0:0:0:0:
256,192,44132,1,8,0:0:0:0:
256,192,44222,1,0,0:0:0:0:
256,192,44311,1,0,0:0:0:0:
256,192,44400,1,0,0:0:0:0:
256,192,44489,1,0,0:0:0:0:
256,192,44579,1,0,0:0:0:0:
256,192,44668,1,8,0:0:0:0:
256,192,44757,1,0,0:0:0:0:
256,192,44847,1,0,0:0:0:0:
256,192,44936,1,0,0:0:0:0:
256,192,45025,1,0,0:0:0:0:
256,192,45114,1,0,0:0:0:0:
256,192,45204,1,8,0:0:0:0:
256,192,45293,1,0,0:0:0:0:
256,192,45382,1,0,0:0:0:0:
256,192,45472,1,0,0:0:0:0:
256,192,45561,1,8,0:0:0:0:
256,192,45650,1,0,0:0:0:0:
256,192,45739,1,0,0:0:0:0:
256,192,45829,1,0,0:0:0:0:
256,192,45918,1,8,0:0:0:0:
256,192,46007,1,0,0:0:0:0:
256,192,46097,1,0,0:0:0:0:
256,192,46186,1,0,0:0:0:0:
256,192,46275,1,0,0:0:0:0:
256,192,46364,1,0,0:0:0:0:
256,192,46454,1,8,0:0:0:0:
256,192,46543,1,0,0:0:0:0:
256,192,46632,1,0,0:0:0:0:
256,192,46722,1,0,0:0:0:0:
256,192,46811,1,0,0:0:0:0:
256,192,46900,1,0,0:0:0:0:
256,192,46989,1,8,0:0:0:0:
256,192,47034,1,8,0:0:0:0:
256,192,47079,1,0,0:0:0:0:
256,192,47123,1,0,0:0:0:0:
256,192,47168,1,8,0:0:0:0:
256,192,47213,1,8,0:0:0:0:
256,192,47257,1,0,0:0:0:0:
256,192,47302,1,0,0:0:0:0:
256,192,47347,1,8,0:0:0:0:
256,192,47436,1,0,0:0:0:0:
256,192,47525,1,0,0:0:0:0:
256,192,47614,1,0,0:0:0:0:
256,192,47704,1,8,0:0:0:0:
256,192,47793,1,0,0:0:0:0:
256,192,47882,1,0,0:0:0:0:
256,192,47972,1,0,0:0:0:0:
256,192,48061,1,0,0:0:0:0:
256,192,48150,1,0,0:0:0:0:
256,192,48239,1,8,0:0:0:0:
256,192,48329,1,0,0:0:0:0:
256,192,48418,1,0,0:0:0:0:
256,192,48507,1,0,0:0:0:0:
256,192,48597,1,0,0:0:0:0:
256,192,48686,1,0,0:0:0:0:
256,192,48775,1,8,0:0:0:0:
256,192,48864,1,0,0:0:0:0:
256,192,48954,1,0,0:0:0:0:
256,192,49043,1,0,0:0:0:0:
256,192,49132,1,8,0:0:0:0:
256,192,49222,1,0,0:0:0:0:
256,192,49311,1,0,0:0:0:0:
256,192,49400,1,0,0:0:0:0:
256,192,49489,1,8,0:0:0:0:
256,192,49534,1,8,0:0:0:0:
256,192,49579,1,0,0:0:0:0:
256,192,49623,1,0,0:0:0:0:
256,192,49668,1,8,0:0:0:0:
256,192,49713,1,8,0:0:0:0:
256,192,49757,1,0,0:0:0:0:
256,192,49802,1,0,0:0:0:0:
256,192,49847,1,8,0:0:0:0:
256,192,49936,1,0,0:0:0:0:
256,192,49981,1,0,0:0:0:0:
256,192,50025,1,8,0:0:0:0:
256,192,50070,1,8,0:0:0:0:
256,192,50114,1,0,0:0:0:0:
256,192,50159,1,0,0:0:0:0:
256,192,50204,1,8,0:0:0:0:
256,192,50248,1,8,0:0:0:0:
256,192,50293,1,0,0:0:0:0:
256,192,50338,1,0,0:0:0:0:
256,192,50382,1,8,0:0:0:0:
256,192,50427,1,8,0:0:0:0:
256,192,50472,1,0,0:0:0:0:
256,192,50516,1,0,0:0:0:0:
256,192,50561,1,8,0:0:0:0:
256,192,50606,1,8,0:0:0:0:
256,192,50650,1,0,0:0:0:0:
256,192,50695,1,0,0:0:0:0:
256,192,50739,1,8,0:0:0:0:
256,192,50784,1,8,0:0:0:0:
256,192,50829,1,0,0:0:0:0:
256,192,50873,1,0,0:0:0:0:
256,192,50918,1,8,0:0:0:0:
256,192,51097,12,0,52525,0:0:0:0:
256,192,52704,5,8,0:0:0:0:
256,192,52793,1,0,0:0:0:0:
256,192,52882,1,0,0:0:0:0:
256,192,52972,1,0,0:0:0:0:
256,192,53061,1,0,0:0:0:0:
256,192,53150,1,0,0:0:0:0:
256,192,53239,1,8,0:0:0:0:
256,192,53329,1,0,0:0:0:0:
256,192,53418,1,0,0:0:0:0:
256,192,53507,1,0,0:0:0:0:
256,192,53597,1,0,0:0:0:0:
256,192,53686,1,0,0:0:0:0:
256,192,53775,1,8,0:0:0:0:
256,192,53864,1,0,0:0:0:0:
256,192,53954,1,0,0:0:0:0:
256,192,54043,1,0,0:0:0:0:
256,192,54132,1,8,0:0:0:0:
256,192,54222,1,0,0:0:0:0:
256,192,54311,1,0,0:0:0:0:
256,192,54400,1,0,0:0:0:0:
256,192,54489,1,8,0:0:0:0:
256,192,54579,1,0,0:0:0:0:
256,192,54668,1,0,0:0:0:0:
256,192,54757,1,0,0:0:0:0:
256,192,54847,1,0,0:0:0:0:
256,192,54936,1,0,0:0:0:0:
256,192,55025,1,8,0:0:0:0:
256,192,55114,1,0,0:0:0:0:
256,192,55204,1,0,0:0:0:0:
256,192,55293,1,0,0:0:0:0:
256,192,55382,1,0,0:0:0:0:
256,192,55472,1,0,0:0:0:0:
256,192,55561,1,8,0:0:0:0:
256,192,55606,1,8,0:0:0:0:
256,192,55650,1,0,0:0:0:0:
256,192,55695,1,0,0:0:0:0:
256,192,55739,1,8,0:0:0:0:
256,192,55784,1,8,0:0:0:0:
256,192,55829,1,0,0:0:0:0:
256,192,55873,1,0,0:0:0:0:
256,192,55918,1,8,0:0:0:0:
256,192,56007,1,0,0:0:0:0:
256,192,56097,1,0,0:0:0:0:
256,192,56186,1,0,0:0:0:0:
256,192,56275,1,8,0:0:0:0:
256,192,56364,1,0,0:0:0:0:
256,192,56454,1,0,0:0:0:0:
256,192,56543,1,0,0:0:0:0:
256,192,56632,1,0,0:0:0:0:
256,192,56722,1,0,0:0:0:0:
256,192,56811,1,8,0:0:0:0:
256,192,56900,1,0,0:0:0:0:
256,192,56989,1,0,0:0:0:0:
256,192,57079,1,0,0:0:0:0:
256,192,57168,1,0,0:0:0:0:
256,192,57257,1,0,0:0:0:0:
256,192,57347,1,8,0:0:0:0:
256,192,57436,1,0,0:0:0:0:
256,192,57525,1,0,0:0:0:0:
256,192,57614,1,0,0:0:0:0:
256,192,57704,1,8,0:0:0:0:
256,192,57793,1,0,0:0:0:0:
256,192,57882,1,0,0:0:0:0:
256,192,57972,1,0,0:0:0:0:
256,192,58061,1,8,0:0:0:0:
256,192,58106,1,8,0:0:0:0:
256,192,58150,1,0,0:0:0:0:
256,192,58195,1,0,0:0:0:0:
256,192,58239,1,8,0:0:0:0:
256,192,58284,1,8,0:0:0:0:
256,192,58329,1,0,0:0:0:0:
256,192,58373,1,0,0:0:0:0:
256,192,58418,1,8,0:0:0:0:
256,192,58463,1,8,0:0:0:0:
256,192,58507,1,0,0:0:0:0:
256,192,58552,1,0,0:0:0:0:
256,192,58597,1,8,0:0:0:0:
256,192,58641,1,8,0:0:0:0:
256,192,58686,1,0,0:0:0:0:
256,192,58731,1,0,0:0:0:0:
256,192,58775,1,8,0:0:0:0:
256,192,58864,1,0,0:0:0:0:
256,192,58954,1,8,0:0:0:0:
256,192,59043,1,0,0:0:0:0:
256,192,59132,1,8,0:0:0:0:
256,192,59177,1,8,0:0:0:0:
256,192,59222,1,0,0:0:0:0:
256,192,59266,1,0,0:0:0:0:
256,192,59311,1,8,0:0:0:0:
256,192,59356,1,8,0:0:0:0:
256,192,59400,1,0,0:0:0:0:
256,192,59445,1,0,0:0:0:0:
256,192,59489,1,8,0:0:0:0:
256,192,59579,1,0,0:0:0:0:
256,192,59668,1,0,0:0:0:0:
256,192,59757,1,0,0:0:0:0:
256,192,59847,1,8,0:0:0:0:
256,192,59936,1,0,0:0:0:0:
256,192,60025,1,0,0:0:0:0:
256,192,60114,1,0,0:0:0:0:
256,192,60204,1,0,0:0:0:0:
256,192,60293,1,0,0:0:0:0:
256,192,60382,1,8,0:0:0:0:
256,192,60472,1,0,0:0:0:0:
256,192,60561,1,0,0:0:0:0:
256,192,60650,1,0,0:0:0:0:
256,192,60739,1,0,0:0:0:0:
256,192,60829,1,0,0:0:0:0:
256,192,60918,1,8,0:0:0:0:
256,192,61007,1,0,0:0:0:0:
256,192,61097,1,0,0:0:0:0:
256,192,61186,1,0,0:0:0:0:
256,192,61275,1,8,0:0:0:0:
256,192,61364,1,0,0:0:0:0:
256,192,61454,1,0,0:0:0:0:
256,192,61543,1,0,0:0:0:0:
256,192,61632,1,8,0:0:0:0:
256,192,61722,1,0,0:0:0:0:
256,192,61811,1,0,0:0:0:0:
256,192,61900,1,0,0:0:0:0:
256,192,61989,1,0,0:0:0:0:
256,192,62079,1,0,0:0:0:0:
256,192,62168,1,8,0:0:0:0:
256,192,62257,1,0,0:0:0:0:
256,192,62347,1,0,0:0:0:0:
256,192,62436,1,0,0:0:0:0:
256,192,62525,1,0,0:0:0:0:
256,192,62614,1,0,0:0:0:0:
256,192,62704,1,8,0:0:0:0:
256,192,62748,1,8,0:0:0:0:
256,192,62793,1,0,0:0:0:0:
256,192,62838,1,0,0:0:0:0:
256,192,62882,1,8,0:0:0:0:
256,192,62927,1,8,0:0:0:0:
256,192,62972,1,0,0:0:0:0:
256,192,63016,1,0,0:0:0:0:
256,192,63061,1,8,0:0:0:0:
256,192,63150,1,0,0:0:0:0:
256,192,63239,1,0,0:0:0:0:
256,192,63329,1,0,0:0:0:0:
256,192,63418,1,8,0:0:0:0:
256,192,63507,1,0,0:0:0:0:
256,192,63597,1,0,0:0:0:0:
256,192,63686,1,0,0:0:0:0:
256,192,63775,1,0,0:0:0:0:
256,192,63864,1,0,0:0:0:0:
256,192,63954,1,8,0:0:0:0:
256,192,64043,1,0,0:0:0:0:
256,192,64132,1,0,0:0:0:0:
256,192,64222,1,0,0:0:0:0:
256,192,64311,1,0,0:0:0:0:
256,192,64400,1,0,0:0:0:0:
256,192,64489,1,8,0:0:0:0:
256,192,64579,1,0,0:0:0:0:
256,192,64668,1,0,0:0:0:0:
256,192,64757,1,0,0:0:0:0:
256,192,64847,1,8,0:0:0:0:
256,192,64936,1,0,0:0:0:0:
256,192,65025,1,0,0:0:0:0:
256,192,65114,1,0,0:0:0:0:
256,192,65204,1,8,0:0:0:0:
256,192,65248,1,8,0:0:0:0:
256,192,65293,1,0,0:0:0:0:
256,192,65338,1,0,0:0:0:0:
256,192,65382,1,8,0:0:0:0:
256,192,65427,1,8,0:0:0:0:
256,192,65472,1,0,0:0:0:0:
256,192,65516,1,0,0:0:0:0:
256,192,65561,1,8,0:0:0:0:
256,192,65606,1,8,0:0:0:0:
256,192,65650,1,0,0:0:0:0:
256,192,65695,1,0,0:0:0:0:
256,192,65739,1,8,0:0:0:0:
256,192,65784,1,8,0:0:0:0:
256,192,65829,1,0,0:0:0:0:
256,192,65873,1,0,0:0:0:0:
256,192,65918,1,8,0:0:0:0:
256,192,66007,1,0,0:0:0:0:
256,192,66097,1,8,0:0:0:0:
256,192,66186,1,0,0:0:0:0:
256,192,66275,1,8,0:0:0:0:
256,192,66320,1,8,0:0:0:0:
256,192,66364,1,0,0:0:0:0:
256,192,66409,1,0,0:0:0:0:
256,192,66454,1,8,0:0:0:0:
256,192,66498,1,8,0:0:0:0:
256,192,66543,1,0,0:0:0:0:
256,192,66588,1,0,0:0:0:0:
256,192,66632,1,8,0:0:0:0:
256,192,66722,1,0,0:0:0:0:
256,192,66811,1,0,0:0:0:0:
256,192,66900,1,0,0:0:0:0:
256,192,66989,1,0,0:0:0:0:
256,192,67079,1,0,0:0:0:0:
256,192,67168,1,0,0:0:0:0:
256,192,67257,1,0,0:0:0:0:
256,192,67347,1,8,0:0:0:0:
256,192,67436,1,0,0:0:0:0:
256,192,67525,1,0,0:0:0:0:
256,192,67614,1,0,0:0:0:0:
256,192,67704,1,8,0:0:0:0:
256,192,67793,1,0,0:0:0:0:
256,192,67882,1,0,0:0:0:0:
256,192,67972,1,0,0:0:0:0:
256,192,68061,1,8,0:0:0:0:
256,192,68106,1,8,0:0:0:0:
256,192,68150,1,0,0:0:0:0:
256,192,68195,1,0,0:0:0:0:
256,192,68239,1,8,0:0:0:0:
256,192,68284,1,8,0:0:0:0:
256,192,68329,1,0,0:0:0:0:
256,192,68373,1,0,0:0:0:0:
256,192,68418,1,8,0:0:0:0:
256,192,68463,1,8,0:0:0:0:
256,192,68507,1,0,0:0:0:0:
256,192,68552,1,0,0:0:0:0:
256,192,68597,1,8,0:0:0:0:
256,192,68641,1,8,0:0:0:0:
256,192,68686,1,0,0:0:0:0:
256,192,68731,1,0,0:0:0:0:
256,192,68775,1,8,0:0:0:0:
256,192,68864,1,0,0:0:0:0:
256,192,68954,1,8,0:0:0:0:
256,192,69043,1,0,0:0:0:0:
256,192,69132,1,8,0:0:0:0:
256,192,69177,1,8,0:0:0:0:
256,192,69222,1,0,0:0:0:0:
256,192,69266,1,0,0:0:0:0:
256,192,69311,1,8,0:0:0:0:
256,192,69356,1,8,0:0:0:0:
256,192,69400,1,0,0:0:0:0:
256,192,69445,1,0,0:0:0:0:
256,192,69489,1,8,0:0:0:0:
256,192,69579,1,0,0:0:0:0:
256,192,69668,1,0,0:0:0:0:
256,192,69757,1,0,0:0:0:0:
256,192,69847,1,0,0:0:0:0:
256,192,69936,1,0,0:0:0:0:
256,192,70025,1,8,0:0:0:0:
256,192,70114,1,0,0:0:0:0:
256,192,70204,1,8,0:0:0:0:
256,192,70293,1,0,0:0:0:0:
256,192,70382,1,0,0:0:0:0:
256,192,70472,1,0,0:0:0:0:
256,192,70561,1,8,0:0:0:0:
256,192,70650,1,0,0:0:0:0:
256,192,70739,1,0,0:0:0:0:
256,192,70829,1,0,0:0:0:0:
256,192,70918,1,8,0:0:0:0:
256,192,71007,1,0,0:0:0:0:
256,192,71097,1,0,0:0:0:0:
256,192,71186,1,0,0:0:0:0:
256,192,71275,1,8,0:0:0:0:
256,192,71364,1,0,0:0:0:0:
256,192,71454,1,0,0:0:0:0:
256,192,71543,1,0,0:0:0:0:
256,192,71632,1,0,0:0:0:0:
256,192,71722,1,0,0:0:0:0:
256,192,71811,1,8,0:0:0:0:
256,192,71900,1,0,0:0:0:0:
256,192,71989,1,0,0:0:0:0:
256,192,72079,1,0,0:0:0:0:
256,192,72168,1,0,0:0:0:0:
256,192,72257,1,0,0:0:0:0:
256,192,72347,1,8,0:0:0:0:
256,192,72436,1,0,0:0:0:0:
256,192,72525,1,0,0:0:0:0:
256,192,72614,1,0,0:0:0:0:
256,192,72704,1,8,0:0:0:0:
256,192,72793,1,0,0:0:0:0:
256,192,72882,1,0,0:0:0:0:
256,192,72972,1,0,0:0:0:0:
256,192,73061,1,8,0:0:0:0:
256,192,73150,1,0,0:0:0:0:
256,192,73239,1,0,0:0:0:0:
256,192,73329,1,0,0:0:0:0:
256,192,73418,1,0,0:0:0:0:
256,192,73507,1,0,0:0:0:0:
256,192,73597,1,8,0:0:0:0:
256,192,73686,1,0,0:0:0:0:
256,192,73775,1,0,0:0:0:0:
256,192,73864,1,0,0:0:0:0:
256,192,73954,1,0,0:0:0:0:
256,192,74043,1,0,0:0:0:0:
256,192,74132,1,8,0:0:0:0:
256,192,74177,1,8,0:0:0:0:
256,192,74222,1,0,0:0:0:0:
256,192,74266,1,0,0:0:0:0:
256,192,74311,1,8,0:0:0:0:
256,192,74356,1,8,0:0:0:0:
256,192,74400,1,0,0:0:0:0:
256,192,74445,1,0,0:0:0:0:
256,192,74489,1,8,0:0:0:0:
256,192,74579,1,0,0:0:0:0:
256,192,74668,1,0,0:0:0:0:
256,192,74757,1,0,0:0:0:0:
256,192,74847,1,8,0:0:0:0:
256,192,74936,1,0,0:0:0:0:
256,192,75025,1,0,0:0:0:0:
256,192,75114,1,0,0:0:0:0:
256,192,75204,1,0,0:0:0:0:
256,192,75293,1,0,0:0:0:0:
256,192,75382,1,8,0:0:0:0:
256,192,75472,1,0,0:0:0:0:
256,192,75561,1,0,0:0:0:0:
256,192,75650,1,0,0:0:0:0:
256,192,75739,1,0,0:0:0:0:
256,192,75829,1,0,0:0:0:0:
256,192,75918,1,8,0:0:0:0:
256,192,76007,1,0,0:0:0:0:
256,192,76097,1,0,0:0:0:0:
256,192,76186,1,0,0:0:0:0:
256,192,76275,1,8,0:0:0:0:
256,192,76364,1,0,0:0:0:0:
256,192,76454,1,0,0:0:0:0:
256,192,76543,1,0,0:0:0:0:
256,192,76632,1,8,0:0:0:0:
256,192,76677,1,8,0:0:0:0:
256,192,76722,1,0,0:0:0:0:
256,192,76766,1,0,0:0:0:0:
256,192,76811,1,8,0:0:0:0:
256,192,76856,1,8,0:0:0:0:
256,192,76900,1,0,0:0:0:0:
256,192,76945,1,0,0:0:0:0:
256,192,76989,1,12,0:0:0:0:
256,192,77168,12,0,79132,0:0:0:0:
