osu file format v14

[General]
AudioFilename: audio.mp3
AudioLeadIn: 0
PreviewTime: 16990
Countdown: 0
SampleSet: Normal
StackLeniency: 0.2
Mode: 1
LetterboxInBreaks: 0
WidescreenStoryboard: 1

[Editor]
DistanceSpacing: 0.5
BeatDivisor: 4
GridSize: 32
TimelineZoom: 2.300001

[Metadata]
Title:Faster Than a Speeding Bullet
TitleUnicode:Faster Than a Speeding Bullet
Artist:Mike Morasky
ArtistUnicode:Mike Morasky
Creator:Axer
Version:Inner Oni
Source:Team Fortress 2
Tags:Meet the Scout TF2 The Art of War original soundtrack OST Valve Studio Orchestra instrumental video game orchestral novelty
BeatmapID:2623731
BeatmapSetID:1070783

[Difficulty]
HPDrainRate:6
CircleSize:2
OverallDifficulty:5.5
ApproachRate:10
SliderMultiplier:1.4
SliderTickRate:1

[Events]
//Background and Video events
0,0,"Bonk.jpg",0,0
//Break Periods
2,3619,7969
2,9690,10826
2,12190,15112
//Storyboard Layer 0 (Background)
//Storyboard Layer 1 (Fail)
//Storyboard Layer 2 (Pass)
//Storyboard Layer 3 (Foreground)
//Storyboard Layer 4 (Overlay)
//Storyboard Sound Samples

[TimingPoints]
2705,357.142857142857,4,1,0,50,1,0
2705,-111.111111111111,4,1,0,50,0,0
16990,357.142857142857,5,1,0,50,1,0

[HitObjects]
256,192,2705,5,8,0:0:0:0:
256,192,2794,1,0,0:0:0:0:
256,192,2883,1,8,0:0:0:0:
256,192,2972,1,0,0:0:0:0:
256,192,3062,1,8,0:0:0:0:
256,192,3240,1,0,0:0:0:0:
256,192,3419,1,8,0:0:0:0:
256,192,8419,5,0,0:0:0:0:
256,192,8508,1,8,0:0:0:0:
256,192,8597,1,8,0:0:0:0:
256,192,8687,1,0,0:0:0:0:
256,192,8776,1,8,0:0:0:0:
256,192,8954,1,0,0:0:0:0:
256,192,9133,1,8,0:0:0:0:
256,192,9490,1,0,0:0:0:0:
256,192,11276,5,8,0:0:0:0:
256,192,11365,1,0,0:0:0:0:
256,192,11454,1,8,0:0:0:0:
256,192,11544,1,0,0:0:0:0:
256,192,11633,1,8,0:0:0:0:
256,192,11812,1,0,0:0:0:0:
256,192,11990,1,8,0:0:0:0:
256,192,15562,5,0,0:0:0:0:
256,192,15651,1,8,0:0:0:0:
256,192,15740,1,8,0:0:0:0:
256,192,15829,1,0,0:0:0:0:
256,192,15919,1,8,0:0:0:0:
256,192,16097,1,0,0:0:0:0:
256,192,16276,1,8,0:0:0:0:
256,192,16633,1,0,0:0:0:0:
256,192,16990,1,8,0:0:0:0:
256,192,17168,1,0,0:0:0:0:
256,192,17257,1,0,0:0:0:0:
256,192,17347,1,0,0:0:0:0:
256,192,17436,1,0,0:0:0:0:
256,192,17525,1,8,0:0:0:0:
256,192,17704,1,0,0:0:0:0:
256,192,17793,1,0,0:0:0:0:
256,192,17882,1,0,0:0:0:0:
256,192,17972,1,0,0:0:0:0:
256,192,18061,1,8,0:0:0:0:
256,192,18240,1,0,0:0:0:0:
256,192,18329,1,0,0:0:0:0:
256,192,18418,1,8,0:0:0:0:
256,192,18597,1,0,0:0:0:0:
256,192,18686,1,0,0:0:0:0:
256,192,18775,1,8,0:0:0:0:
256,192,18954,1,0,0:0:0:0:
256,192,19043,1,0,0:0:0:0:
256,192,19132,1,0,0:0:0:0:
256,192,19222,1,0,0:0:0:0:
256,192,19311,1,8,0:0:0:0:
256,192,19490,1,0,0:0:0:0:
256,192,19579,1,0,0:0:0:0:
256,192,19668,1,0,0:0:0:0:
256,192,19757,1,0,0:0:0:0:
256,192,19847,1,8,0:0:0:0:
256,192,19936,1,0,0:0:0:0:
256,192,20025,1,8,0:0:0:0:
256,192,20115,1,0,0:0:0:0:
256,192,20204,1,8,0:0:0:0:
256,192,20382,1,0,0:0:0:0:
256,192,20472,1,0,0:0:0:0:
256,192,20561,1,8,0:0:0:0:
256,192,20740,1,0,0:0:0:0:
256,192,20829,1,0,0:0:0:0:
256,192,20918,1,0,0:0:0:0:
256,192,21007,1,0,0:0:0:0:
256,192,21097,1,8,0:0:0:0:
256,192,21275,1,0,0:0:0:0:
256,192,21365,1,0,0:0:0:0:
256,192,21454,1,0,0:0:0:0:
256,192,21543,1,0,0:0:0:0:
256,192,21632,1,8,0:0:0:0:
256,192,21811,1,0,0:0:0:0:
256,192,21900,1,0,0:0:0:0:
256,192,21990,1,8,0:0:0:0:
256,192,22168,1,0,0:0:0:0:
256,192,22257,1,0,0:0:0:0:
256,192,22347,1,8,0:0:0:0:
256,192,22436,1,0,0:0:0:0:
256,192,22525,1,8,0:0:0:0:
256,192,22614,1,0,0:0:0:0:
256,192,22704,1,8,0:0:0:0:
256,192,22793,1,0,0:0:0:0:
256,192,22882,1,8,0:0:0:0:
256,192,22972,1,0,0:0:0:0:
256,192,23061,1,8,0:0:0:0:
256,192,23239,1,8,0:0:0:0:
256,192,23418,1,8,0:0:0:0:
256,192,23507,1,0,0:0:0:0:
256,192,23597,1,8,0:0:0:0:
256,192,23686,1,0,0:0:0:0:
256,192,23775,1,8,0:0:0:0:
256,192,23954,1,0,0:0:0:0:
256,192,24043,1,0,0:0:0:0:
256,192,24132,1,8,0:0:0:0:
256,192,24311,1,0,0:0:0:0:
256,192,24400,1,0,0:0:0:0:
256,192,24489,1,0,0:0:0:0:
256,192,24579,1,0,0:0:0:0:
256,192,24668,1,8,0:0:0:0:
256,192,24847,1,0,0:0:0:0:
256,192,24936,1,0,0:0:0:0:
256,192,25025,1,0,0:0:0:0:
256,192,25114,1,0,0:0:0:0:
256,192,25204,1,8,0:0:0:0:
256,192,25382,1,0,0:0:0:0:
256,192,25472,1,0,0:0:0:0:
256,192,25561,1,8,0:0:0:0:
256,192,25739,1,0,0:0:0:0:
256,192,25829,1,0,0:0:0:0:
256,192,25918,1,8,0:0:0:0:
256,192,26097,1,0,0:0:0:0:
256,192,26186,1,0,0:0:0:0:
256,192,26275,1,0,0:0:0:0:
256,192,26364,1,0,0:0:0:0:
256,192,26454,1,8,0:0:0:0:
256,192,26632,1,0,0:0:0:0:
256,192,26722,1,0,0:0:0:0:
256,192,26811,1,0,0:0:0:0:
256,192,26900,1,0,0:0:0:0:
256,192,26989,1,8,0:0:0:0:
256,192,27079,1,0,0:0:0:0:
256,192,27168,1,8,0:0:0:0:
256,192,27257,1,0,0:0:0:0:
256,192,27347,1,8,0:0:0:0:
256,192,27525,1,0,0:0:0:0:
256,192,27614,1,0,0:0:0:0:
256,192,27704,1,8,0:0:0:0:
256,192,27882,1,0,0:0:0:0:
256,192,27972,1,0,0:0:0:0:
256,192,28061,1,0,0:0:0:0:
256,192,28150,1,0,0:0:0:0:
256,192,28239,1,8,0:0:0:0:
256,192,28418,1,0,0:0:0:0:
256,192,28507,1,0,0:0:0:0:
256,192,28597,1,0,0:0:0:0:
256,192,28686,1,0,0:0:0:0:
256,192,28775,1,8,0:0:0:0:
256,192,28954,1,0,0:0:0:0:
256,192,29043,1,0,0:0:0:0:
256,192,29132,1,8,0:0:0:0:
256,192,29311,1,0,0:0:0:0:
256,192,29400,1,0,0:0:0:0:
256,192,29489,1,8,0:0:0:0:
256,192,29579,1,0,0:0:0:0:
256,192,29668,1,8,0:0:0:0:
256,192,29757,1,0,0:0:0:0:
256,192,29847,1,8,0:0:0:0:
256,192,29936,1,0,0:0:0:0:
256,192,30025,1,8,0:0:0:0:
256,192,30114,1,0,0:0:0:0:
256,192,30204,1,8,0:0:0:0:
256,192,30382,1,8,0:0:0:0:
256,192,30561,1,8,0:0:0:0:
256,192,30650,1,0,0:0:0:0:
256,192,30739,1,8,0:0:0:0:
256,192,30829,1,0,0:0:0:0:
256,192,30918,1,8,0:0:0:0:
256,192,31097,1,0,0:0:0:0:
256,192,31186,1,0,0:0:0:0:
256,192,31275,1,0,0:0:0:0:
256,192,31364,1,0,0:0:0:0:
256,192,31454,1,8,0:0:0:0:
256,192,31632,1,8,0:0:0:0:
256,192,31811,1,0,0:0:0:0:
256,192,31900,1,0,0:0:0:0:
256,192,31989,1,8,0:0:0:0:
256,192,32168,1,0,0:0:0:0:
256,192,32257,1,0,0:0:0:0:
256,192,32347,1,8,0:0:0:0:
256,192,32525,1,0,0:0:0:0:
256,192,32614,1,0,0:0:0:0:
256,192,32704,1,8,0:0:0:0:
256,192,32882,1,0,0:0:0:0:
256,192,32972,1,0,0:0:0:0:
256,192,33061,1,0,0:0:0:0:
256,192,33150,1,0,0:0:0:0:
256,192,33239,1,8,0:0:0:0:
256,192,33418,1,0,0:0:0:0:
256,192,33507,1,0,0:0:0:0:
256,192,33597,1,0,0:0:0:0:
256,192,33686,1,0,0:0:0:0:
256,192,33775,1,8,0:0:0:0:
256,192,33954,1,0,0:0:0:0:
256,192,34043,1,0,0:0:0:0:
256,192,34132,1,0,0:0:0:0:
256,192,34222,1,0,0:0:0:0:
256,192,34311,1,0,0:0:0:0:
256,192,34400,1,0,0:0:0:0:
256,192,34489,1,8,0:0:0:0:
256,192,34668,1,0,0:0:0:0:
256,192,34757,1,0,0:0:0:0:
256,192,34847,1,8,0:0:0:0:
256,192,35025,1,0,0:0:0:0:
256,192,35114,1,0,0:0:0:0:
256,192,35204,1,8,0:0:0:0:
256,192,35293,1,0,0:0:0:0:
256,192,35382,1,8,0:0:0:0:
256,192,35472,1,0,0:0:0:0:
256,192,35561,1,8,0:0:0:0:
256,192,35650,1,0,0:0:0:0:
256,192,35739,1,8,0:0:0:0:
256,192,35829,1,0,0:0:0:0:
256,192,35918,1,8,0:0:0:0:
256,192,36097,1,8,0:0:0:0:
256,192,36275,1,8,0:0:0:0:
256,192,36364,1,0,0:0:0:0:
256,192,36454,1,8,0:0:0:0:
256,192,36543,1,0,0:0:0:0:
256,192,36632,1,8,0:0:0:0:
256,192,36811,1,0,0:0:0:0:
256,192,36900,1,0,0:0:0:0:
256,192,36989,1,0,0:0:0:0:
256,192,37079,1,0,0:0:0:0:
256,192,37168,1,8,0:0:0:0:
256,192,37347,1,8,0:0:0:0:
256,192,37525,1,0,0:0:0:0:
256,192,37614,1,0,0:0:0:0:
256,192,37704,1,8,0:0:0:0:
256,192,37882,1,0,0:0:0:0:
256,192,37972,1,0,0:0:0:0:
256,192,38061,1,8,0:0:0:0:
256,192,38239,1,0,0:0:0:0:
256,192,38329,1,0,0:0:0:0:
256,192,38418,1,8,0:0:0:0:
256,192,38597,1,0,0:0:0:0:
256,192,38686,1,0,0:0:0:0:
256,192,38775,1,0,0:0:0:0:
256,192,38864,1,0,0:0:0:0:
256,192,38954,1,8,0:0:0:0:
256,192,39132,1,0,0:0:0:0:
256,192,39222,1,0,0:0:0:0:
256,192,39311,1,0,0:0:0:0:
256,192,39400,1,0,0:0:0:0:
256,192,39489,1,8,0:0:0:0:
256,192,39668,1,0,0:0:0:0:
256,192,39757,1,0,0:0:0:0:
256,192,39847,1,0,0:0:0:0:
256,192,39936,1,0,0:0:0:0:
256,192,40025,1,0,0:0:0:0:
256,192,40114,1,0,0:0:0:0:
256,192,40204,1,8,0:0:0:0:
256,192,40382,1,0,0:0:0:0:
256,192,40472,1,0,0:0:0:0:
256,192,40561,1,8,0:0:0:0:
256,192,40739,1,0,0:0:0:0:
256,192,40829,1,0,0:0:0:0:
256,192,40918,1,8,0:0:0:0:
256,192,41007,1,0,0:0:0:0:
256,192,41097,1,8,0:0:0:0:
256,192,41186,1,0,0:0:0:0:
256,192,41275,1,8,0:0:0:0:
256,192,41364,1,0,0:0:0:0:
256,192,41454,1,8,0:0:0:0:
256,192,41543,1,0,0:0:0:0:
256,192,41632,1,8,0:0:0:0:
256,192,41811,1,8,0:0:0:0:
256,192,41989,1,8,0:0:0:0:
256,192,42079,1,0,0:0:0:0:
256,192,42168,1,8,0:0:0:0:
256,192,42257,1,0,0:0:0:0:
256,192,42347,1,8,0:0:0:0:
256,192,42525,1,0,0:0:0:0:
256,192,42614,1,0,0:0:0:0:
256,192,42704,1,0,0:0:0:0:
256,192,42793,1,0,0:0:0:0:
256,192,42882,1,8,0:0:0:0:
256,192,43061,1,8,0:0:0:0:
256,192,43239,1,0,0:0:0:0:
256,192,43329,1,0,0:0:0:0:
256,192,43418,1,8,0:0:0:0:
256,192,43597,1,0,0:0:0:0:
256,192,43686,1,0,0:0:0:0:
256,192,43775,1,8,0:0:0:0:
256,192,43954,1,0,0:0:0:0:
256,192,44043,1,0,0:0:0:0:
256,192,44132,1,8,0:0:0:0:
256,192,44311,1,0,0:0:0:0:
256,192,44400,1,0,0:0:0:0:
256,192,44489,1,0,0:0:0:0:
256,192,44579,1,0,0:0:0:0:
256,192,44668,1,8,0:0:0:0:
256,192,44847,1,0,0:0:0:0:
256,192,44936,1,0,0:0:0:0:
256,192,45025,1,0,0:0:0:0:
256,192,45114,1,0,0:0:0:0:
256,192,45204,1,8,0:0:0:0:
256,192,45382,1,0,0:0:0:0:
256,192,45472,1,0,0:0:0:0:
256,192,45561,1,8,0:0:0:0:
256,192,45739,1,0,0:0:0:0:
256,192,45829,1,0,0:0:0:0:
256,192,45918,1,8,0:0:0:0:
256,192,46097,1,0,0:0:0:0:
256,192,46186,1,0,0:0:0:0:
256,192,46275,1,0,0:0:0:0:
256,192,46364,1,0,0:0:0:0:
256,192,46454,1,8,0:0:0:0:
256,192,46632,1,0,0:0:0:0:
256,192,46722,1,0,0:0:0:0:
256,192,46811,1,0,0:0:0:0:
256,192,46900,1,0,0:0:0:0:
256,192,46989,1,8,0:0:0:0:
256,192,47079,1,0,0:0:0:0:
256,192,47168,1,8,0:0:0:0:
256,192,47257,1,0,0:0:0:0:
256,192,47347,1,8,0:0:0:0:
256,192,47525,1,0,0:0:0:0:
256,192,47614,1,0,0:0:0:0:
256,192,47704,1,8,0:0:0:0:
256,192,47882,1,0,0:0:0:0:
256,192,47972,1,0,0:0:0:0:
256,192,48061,1,0,0:0:0:0:
256,192,48150,1,0,0:0:0:0:
256,192,48239,1,8,0:0:0:0:
256,192,48418,1,0,0:0:0:0:
256,192,48507,1,0,0:0:0:0:
256,192,48597,1,0,0:0:0:0:
256,192,48686,1,0,0:0:0:0:
256,192,48775,1,8,0:0:0:0:
256,192,48954,1,0,0:0:0:0:
256,192,49043,1,0,0:0:0:0:
256,192,49132,1,8,0:0:0:0:
256,192,49311,1,0,0:0:0:0:
256,192,49400,1,0,0:0:0:0:
256,192,49489,1,8,0:0:0:0:
256,192,49579,1,0,0:0:0:0:
256,192,49668,1,8,0:0:0:0:
256,192,49757,1,0,0:0:0:0:
256,192,49847,1,8,0:0:0:0:
256,192,50025,1,8,0:0:0:0:
256,192,50114,1,0,0:0:0:0:
256,192,50204,1,8,0:0:0:0:
256,192,50293,1,0,0:0:0:0:
256,192,50382,1,8,0:0:0:0:
256,192,50472,1,0,0:0:0:0:
256,192,50561,1,8,0:0:0:0:
256,192,50650,1,0,0:0:0:0:
256,192,50739,1,8,0:0:0:0:
256,192,50829,1,0,0:0:0:0:
256,192,50918,1,8,0:0:0:0:
256,192,51097,12,0,52525,0:0:0:0:
256,192,52704,5,8,0:0:0:0:
256,192,52882,1,0,0:0:0:0:
256,192,52972,1,0,0:0:0:0:
256,192,53061,1,0,0:0:0:0:
256,192,53150,1,0,0:0:0:0:
256,192,53239,1,8,0:0:0:0:
256,192,53418,1,0,0:0:0:0:
256,192,53507,1,0,0:0:0:0:
256,192,53597,1,0,0:0:0:0:
256,192,53686,1,0,0:0:0:0:
256,192,53775,1,8,0:0:0:0:
256,192,53954,1,0,0:0:0:0:
256,192,54043,1,0,0:0:0:0:
256,192,54132,1,8,0:0:0:0:
256,192,54311,1,0,0:0:0:0:
256,192,54400,1,0,0:0:0:0:
256,192,54489,1,8,0:0:0:0:
256,192,54668,1,0,0:0:0:0:
256,192,54757,1,0,0:0:0:0:
256,192,54847,1,0,0:0:0:0:
256,192,54936,1,0,0:0:0:0:
256,192,55025,1,8,0:0:0:0:
256,192,55204,1,0,0:0:0:0:
256,192,55293,1,0,0:0:0:0:
256,192,55382,1,0,0:0:0:0:
256,192,55472,1,0,0:0:0:0:
256,192,55561,1,8,0:0:0:0:
256,192,55650,1,0,0:0:0:0:
256,192,55739,1,8,0:0:0:0:
256,192,55829,1,0,0:0:0:0:
256,192,55918,1,8,0:0:0:0:
256,192,56097,1,0,0:0:0:0:
256,192,56186,1,0,0:0:0:0:
256,192,56275,1,8,0:0:0:0:
256,192,56454,1,0,0:0:0:0:
256,192,56543,1,0,0:0:0:0:
256,192,56632,1,0,0:0:0:0:
256,192,56722,1,0,0:0:0:0:
256,192,56811,1,8,0:0:0:0:
256,192,56989,1,0,0:0:0:0:
256,192,57079,1,0,0:0:0:0:
256,192,57168,1,0,0:0:0:0:
256,192,57257,1,0,0:0:0:0:
256,192,57347,1,8,0:0:0:0:
256,192,57525,1,0,0:0:0:0:
256,192,57614,1,0,0:0:0:0:
256,192,57704,1,8,0:0:0:0:
256,192,57882,1,0,0:0:0:0:
256,192,57972,1,0,0:0:0:0:
256,192,58061,1,8,0:0:0:0:
256,192,58150,1,0,0:0:0:0:
256,192,58239,1,8,0:0:0:0:
256,192,58329,1,0,0:0:0:0:
256,192,58418,1,8,0:0:0:0:
256,192,58507,1,0,0:0:0:0:
256,192,58597,1,8,0:0:0:0:
256,192,58686,1,0,0:0:0:0:
256,192,58775,1,8,0:0:0:0:
256,192,58954,1,8,0:0:0:0:
256,192,59132,1,8,0:0:0:0:
256,192,59222,1,0,0:0:0:0:
256,192,59311,1,8,0:0:0:0:
256,192,59400,1,0,0:0:0:0:
256,192,59489,1,8,0:0:0:0:
256,192,59668,1,0,0:0:0:0:
256,192,59757,1,0,0:0:0:0:
256,192,59847,1,8,0:0:0:0:
256,192,60025,1,0,0:0:0:0:
256,192,60114,1,0,0:0:0:0:
256,192,60204,1,0,0:0:0:0:
256,192,60293,1,0,0:0:0:0:
256,192,60382,1,8,0:0:0:0:
256,192,60561,1,0,0:0:0:0:
256,192,60650,1,0,0:0:0:0:
256,192,60739,1,0,0:0:0:0:
256,192,60829,1,0,0:0:0:0:
256,192,60918,1,8,0:0:0:0:
256,192,61097,1,0,0:0:0:0:
256,192,61186,1,0,0:0:0:0:
256,192,61275,1,8,0:0:0:0:
256,192,61454,1,0,0:0:0:0:
256,192,61543,1,0,0:0:0:0:
256,192,61632,1,8,0:0:0:0:
256,192,61811,1,0,0:0:0:0:
256,192,61900,1,0,0:0:0:0:
256,192,61989,1,0,0:0:0:0:
256,192,62079,1,0,0:0:0:0:
256,192,62168,1,8,0:0:0:0:
256,192,62347,1,0,0:0:0:0:
256,192,62436,1,0,0:0:0:0:
256,192,62525,1,0,0:0:0:0:
256,192,62614,1,0,0:0:0:0:
256,192,62704,1,8,0:0:0:0:
256,192,62793,1,0,0:0:0:0:
256,192,62882,1,8,0:0:0:0:
256,192,62972,1,0,0:0:0:0:
256,192,63061,1,8,0:0:0:0:
256,192,63239,1,0,0:0:0:0:
256,192,63329,1,0,0:0:0:0:
256,192,63418,1,8,0:0:0:0:
256,192,63597,1,0,0:0:0:0:
256,192,63686,1,0,0:0:0:0:
256,192,63775,1,0,0:0:0:0:
256,192,63864,1,0,0:0:0:0:
256,192,63954,1,8,0:0:0:0:
256,192,64132,1,0,0:0:0:0:
256,192,64222,1,0,0:0:0:0:
256,192,64311,1,0,0:0:0:0:
256,192,64400,1,0,0:0:0:0:
256,192,64489,1,8,0:0:0:0:
256,192,64668,1,0,0:0:0:0:
256,192,64757,1,0,0:0:0:0:
256,192,64847,1,8,0:0:0:0:
256,192,65025,1,0,0:0:0:0:
256,192,65114,1,0,0:0:0:0:
256,192,65204,1,8,0:0:0:0:
256,192,65293,1,0,0:0:0:0:
256,192,65382,1,8,0:0:0:0:
256,192,65472,1,0,0:0:0:0:
256,192,65561,1,8,0:0:0:0:
256,192,65650,1,0,0:0:0:0:
256,192,65739,1,8,0:0:0:0:
256,192,65829,1,0,0:0:0:0:
256,192,65918,1,8,0:0:0:0:
256,192,66097,1,8,0:0:0:0:
256,192,66275,1,8,0:0:0:0:
256,192,66364,1,0,0:0:0:0:
256,192,66454,1,8,0:0:0:0:
256,192,66543,1,0,0:0:0:0:
256,192,66632,1,8,0:0:0:0:
256,192,66811,1,0,0:0:0:0:
256,192,66900,1,0,0:0:0:0:
256,192,66989,1,0,0:0:0:0:
256,192,67079,1,0,0:0:0:0:
256,192,67168,1,0,0:0:0:0:
256,192,67257,1,0,0:0:0:0:
256,192,67347,1,8,0:0:0:0:
256,192,67525,1,0,0:0:0:0:
256,192,67614,1,0,0:0:0:0:
256,192,67704,1,8,0:0:0:0:
256,192,67882,1,0,0:0:0:0:
256,192,67972,1,0,0:0:0:0:
256,192,68061,1,8,0:0:0:0:
256,192,68150,1,0,0:0:0:0:
256,192,68239,1,8,0:0:0:0:
256,192,68329,1,0,0:0:0:0:
256,192,68418,1,8,0:0:0:0:
256,192,68507,1,0,0:0:0:0:
256,192,68597,1,8,0:0:0:0:
256,192,68686,1,0,0:0:0:0:
256,192,68775,1,8,0:0:0:0:
256,192,68954,1,8,0:0:0:0:
256,192,69132,1,8,0:0:0:0:
256,192,69222,1,0,0:0:0:0:
256,192,69311,1,8,0:0:0:0:
256,192,69400,1,0,0:0:0:0:
256,192,69489,1,8,0:0:0:0:
256,192,69668,1,0,0:0:0:0:
256,192,69757,1,0,0:0:0:0:
256,192,69847,1,0,0:0:0:0:
256,192,69936,1,0,0:0:0:0:
256,192,70025,1,8,0:0:0:0:
256,192,70204,1,8,0:0:0:0:
256,192,70382,1,0,0:0:0:0:
256,192,70472,1,0,0:0:0:0:
256,192,70561,1,8,0:0:0:0:
256,192,70739,1,0,0:0:0:0:
256,192,70829,1,0,0:0:0:0:
256,192,70918,1,8,0:0:0:0:
256,192,71097,1,0,0:0:0:0:
256,192,71186,1,0,0:0:0:0:
256,192,71275,1,8,0:0:0:0:
256,192,71454,1,0,0:0:0:0:
256,192,71543,1,0,0:0:0:0:
256,192,71632,1,0,0:0:0:0:
256,192,71722,1,0,0:0:0:0:
256,192,71811,1,8,0:0:0:0:
256,192,71989,1,0,0:0:0:0:
256,192,72079,1,0,0:0:0:0:
256,192,72168,1,0,0:0:0:0:
256,192,72257,1,0,0:0:0:0:
256,192,72347,1,8,0:0:0:0:
256,192,72525,1,0,0:0:0:0:
256,192,72614,1,0,0:0:0:0:
256,192,72704,1,8,0:0:0:0:
256,192,72882,1,0,0:0:0:0:
256,192,72972,1,0,0:0:0:0:
256,192,73061,1,8,0:0:0:0:
256,192,73239,1,0,0:0:0:0:
256,192,73329,1,0,0:0:0:0:
256,192,73418,1,0,0:0:0:0:
256,192,73507,1,0,0:0:0:0:
256,192,73597,1,8,0:0:0:0:
256,192,73775,1,0,0:0:0:0:
256,192,73864,1,0,0:0:0:0:
256,192,73954,1,0,0:0:0:0:
256,192,74043,1,0,0:0:0:0:
256,192,74132,1,8,0:0:0:0:
256,192,74222,1,0,0:0:0:0:
256,192,74311,1,8,0:0:0:0:
256,192,74400,1,0,0:0:0:0:
256,192,74489,1,8,0:0:0:0:
256,192,74668,1,0,0:0:0:0:
256,192,74757,1,0,0:0:0:0:
256,192,74847,1,8,0:0:0:0:
256,192,75025,1,0,0:0:0:0:
256,192,75114,1,0,0:0:0:0:
256,192,75204,1,0,0:0:0:0:
256,192,75293,1,0,0:0:0:0:
256,192,75382,1,8,0:0:0:0:
256,192,75561,1,0,0:0:0:0:
256,192,75650,1,0,0:0:0:0:
256,192,75739,1,0,0:0:0:0:
256,192,75829,1,0,0:0:0:0:
256,192,75918,1,8,0:0:0:0:
256,192,76097,1,0,0:0:0:0:
256,192,76186,1,0,0:0:0:0:
256,192,76275,1,8,0:0:0:0:
256,192,76454,1,0,0:0:0:0:
256,192,76543,1,0,0:0:0:0:
256,192,76632,1,8,0:0:0:0:
256,192,76722,1,8,0:0:0:0:
256,192,76811,1,0,0:0:0:0:
256,192,76900,1,0,0:0:0:0:
256,192,76989,1,12,0:0:0:0:
256,192,77168,12,0,79132,0:0:0:0:
