osu file format v14

[General]
AudioFilename: audio.mp3
AudioLeadIn: 0
PreviewTime: 16990
Countdown: 0
SampleSet: Normal
StackLeniency: 0.2
Mode: 1
LetterboxInBreaks: 0
WidescreenStoryboard: 1

[Editor]
DistanceSpacing: 0.5
BeatDivisor: 2
GridSize: 32
TimelineZoom: 0.8000009

[Metadata]
Title:Faster Than a Speeding Bullet
TitleUnicode:Faster Than a Speeding Bullet
Artist:Mike Morasky
ArtistUnicode:Mike Morasky
Creator:Axer
Version:Futsuu
Source:Team Fortress 2
Tags:Meet the Scout TF2 The Art of War original soundtrack OST Valve Studio Orchestra instrumental video game orchestral novelty
BeatmapID:2623781
BeatmapSetID:1070783

[Difficulty]
HPDrainRate:7
CircleSize:2
OverallDifficulty:3
ApproachRate:10
SliderMultiplier:1.4
SliderTickRate:1

[Events]
//Background and Video events
0,0,"Bonk.jpg",0,0
//Break Periods
2,3619,7969
2,9690,10826
2,12190,15112
2,51118,52254
//Storyboard Layer 0 (Background)
//Storyboard Layer 1 (Fail)
//Storyboard Layer 2 (Pass)
//Storyboard Layer 3 (Foreground)
//Storyboard Layer 4 (Overlay)
//Storyboard Sound Samples

[TimingPoints]
2705,357.142857142857,4,1,0,50,1,0
16990,357.142857142857,5,1,0,50,1,0

[HitObjects]
256,192,2705,5,8,0:0:0:0:
256,192,3062,1,8,0:0:0:0:
256,192,3240,1,0,0:0:0:0:
256,192,3419,1,8,0:0:0:0:
256,192,8419,5,0,0:0:0:0:
256,192,8776,1,8,0:0:0:0:
256,192,8954,1,0,0:0:0:0:
256,192,9133,1,8,0:0:0:0:
256,192,9490,1,0,0:0:0:0:
256,192,11276,5,8,0:0:0:0:
256,192,11633,1,8,0:0:0:0:
256,192,11812,1,0,0:0:0:0:
256,192,11990,1,8,0:0:0:0:
256,192,15562,5,0,0:0:0:0:
256,192,15919,1,8,0:0:0:0:
256,192,16097,1,0,0:0:0:0:
256,192,16276,1,8,0:0:0:0:
256,192,16633,1,0,0:0:0:0:
256,192,16990,1,8,0:0:0:0:
256,192,18061,1,8,0:0:0:0:
256,192,18240,1,0,0:0:0:0:
256,192,18418,1,8,0:0:0:0:
256,192,18597,1,0,0:0:0:0:
256,192,18775,1,8,0:0:0:0:
256,192,19132,1,0,0:0:0:0:
256,192,19311,1,8,0:0:0:0:
256,192,19668,1,0,0:0:0:0:
256,192,19847,1,8,0:0:0:0:
256,192,20204,1,8,0:0:0:0:
256,192,20561,1,8,0:0:0:0:
256,192,21632,1,8,0:0:0:0:
256,192,21811,1,0,0:0:0:0:
256,192,21990,1,8,0:0:0:0:
256,192,22168,1,0,0:0:0:0:
256,192,22347,1,8,0:0:0:0:
256,192,22704,1,8,0:0:0:0:
256,192,23239,1,8,0:0:0:0:
256,192,23597,1,0,0:0:0:0:
256,192,23775,1,8,0:0:0:0:
256,192,24132,1,8,0:0:0:0:
256,192,25204,1,8,0:0:0:0:
256,192,25382,1,0,0:0:0:0:
256,192,25561,1,8,0:0:0:0:
256,192,25739,1,0,0:0:0:0:
256,192,25918,1,8,0:0:0:0:
256,192,26275,1,0,0:0:0:0:
256,192,26454,1,8,0:0:0:0:
256,192,26811,1,0,0:0:0:0:
256,192,26989,1,8,0:0:0:0:
256,192,27347,1,8,0:0:0:0:
256,192,27704,1,8,0:0:0:0:
256,192,28775,1,8,0:0:0:0:
256,192,28954,1,0,0:0:0:0:
256,192,29132,1,8,0:0:0:0:
256,192,29311,1,0,0:0:0:0:
256,192,29489,1,8,0:0:0:0:
256,192,29847,1,8,0:0:0:0:
256,192,30918,1,8,0:0:0:0:
256,192,31275,1,0,0:0:0:0:
256,192,31454,1,8,0:0:0:0:
256,192,31632,1,8,0:0:0:0:
256,192,31989,1,8,0:0:0:0:
256,192,32347,1,8,0:0:0:0:
256,192,32704,1,8,0:0:0:0:
256,192,33775,1,8,0:0:0:0:
256,192,33954,1,0,0:0:0:0:
256,192,34489,1,8,0:0:0:0:
256,192,34668,1,0,0:0:0:0:
256,192,34847,1,8,0:0:0:0:
256,192,35025,1,0,0:0:0:0:
256,192,35204,1,8,0:0:0:0:
256,192,35561,1,8,0:0:0:0:
256,192,36632,1,8,0:0:0:0:
256,192,36989,1,0,0:0:0:0:
256,192,37168,1,8,0:0:0:0:
256,192,37347,1,8,0:0:0:0:
256,192,37704,1,8,0:0:0:0:
256,192,38061,1,8,0:0:0:0:
256,192,38418,1,8,0:0:0:0:
256,192,39489,1,8,0:0:0:0:
256,192,40204,1,8,0:0:0:0:
256,192,40382,1,0,0:0:0:0:
256,192,40561,1,8,0:0:0:0:
256,192,40739,1,0,0:0:0:0:
256,192,40918,1,8,0:0:0:0:
256,192,41275,1,8,0:0:0:0:
256,192,42347,1,8,0:0:0:0:
256,192,42704,1,0,0:0:0:0:
256,192,42882,1,8,0:0:0:0:
256,192,43061,1,8,0:0:0:0:
256,192,43418,1,8,0:0:0:0:
256,192,43775,1,8,0:0:0:0:
256,192,44132,1,8,0:0:0:0:
256,192,45204,1,8,0:0:0:0:
256,192,45382,1,0,0:0:0:0:
256,192,45561,1,8,0:0:0:0:
256,192,45739,1,0,0:0:0:0:
256,192,45918,1,8,0:0:0:0:
256,192,46454,1,8,0:0:0:0:
256,192,46989,1,8,0:0:0:0:
256,192,47347,1,8,0:0:0:0:
256,192,47704,1,8,0:0:0:0:
256,192,48239,1,8,0:0:0:0:
256,192,48775,1,8,0:0:0:0:
256,192,48954,1,0,0:0:0:0:
256,192,49132,1,8,0:0:0:0:
256,192,49311,1,0,0:0:0:0:
256,192,49489,1,8,0:0:0:0:
256,192,49668,1,0,0:0:0:0:
256,192,49847,1,8,0:0:0:0:
256,192,50382,1,8,0:0:0:0:
256,192,50918,1,8,0:0:0:0:
256,192,52704,5,8,0:0:0:0:
256,192,53775,1,8,0:0:0:0:
256,192,53954,1,0,0:0:0:0:
256,192,54132,1,8,0:0:0:0:
256,192,54311,1,0,0:0:0:0:
256,192,54489,1,8,0:0:0:0:
256,192,54847,1,0,0:0:0:0:
256,192,55025,1,8,0:0:0:0:
256,192,55382,1,0,0:0:0:0:
256,192,55561,1,8,0:0:0:0:
256,192,55918,1,8,0:0:0:0:
256,192,56275,1,8,0:0:0:0:
256,192,57347,1,8,0:0:0:0:
256,192,57525,1,0,0:0:0:0:
256,192,57704,1,8,0:0:0:0:
256,192,57882,1,0,0:0:0:0:
256,192,58061,1,8,0:0:0:0:
256,192,58418,1,8,0:0:0:0:
256,192,58954,1,8,0:0:0:0:
256,192,59311,1,0,0:0:0:0:
256,192,59489,1,8,0:0:0:0:
256,192,59847,1,8,0:0:0:0:
256,192,60918,1,8,0:0:0:0:
256,192,61097,1,0,0:0:0:0:
256,192,61275,1,8,0:0:0:0:
256,192,61454,1,0,0:0:0:0:
256,192,61632,1,8,0:0:0:0:
256,192,61989,1,0,0:0:0:0:
256,192,62168,1,8,0:0:0:0:
256,192,62525,1,0,0:0:0:0:
256,192,62704,1,8,0:0:0:0:
256,192,63061,1,8,0:0:0:0:
256,192,63418,1,8,0:0:0:0:
256,192,64489,1,8,0:0:0:0:
256,192,64668,1,0,0:0:0:0:
256,192,64847,1,8,0:0:0:0:
256,192,65025,1,0,0:0:0:0:
256,192,65204,1,8,0:0:0:0:
256,192,65561,1,8,0:0:0:0:
256,192,66097,1,8,0:0:0:0:
256,192,66454,1,0,0:0:0:0:
256,192,66632,1,8,0:0:0:0:
256,192,67347,1,8,0:0:0:0:
256,192,67525,1,0,0:0:0:0:
256,192,67704,1,8,0:0:0:0:
256,192,67882,1,0,0:0:0:0:
256,192,68061,1,8,0:0:0:0:
256,192,68418,1,8,0:0:0:0:
256,192,69489,1,8,0:0:0:0:
256,192,69847,1,0,0:0:0:0:
256,192,70025,1,8,0:0:0:0:
256,192,70204,1,8,0:0:0:0:
256,192,70561,1,8,0:0:0:0:
256,192,70918,1,8,0:0:0:0:
256,192,71275,1,8,0:0:0:0:
256,192,72347,1,8,0:0:0:0:
256,192,72525,1,0,0:0:0:0:
256,192,72704,1,8,0:0:0:0:
256,192,73061,1,8,0:0:0:0:
256,192,73418,1,0,0:0:0:0:
256,192,73597,1,8,0:0:0:0:
256,192,73954,1,0,0:0:0:0:
256,192,74132,1,8,0:0:0:0:
256,192,74489,1,8,0:0:0:0:
256,192,74847,1,8,0:0:0:0:
256,192,75204,1,0,0:0:0:0:
256,192,75382,1,8,0:0:0:0:
256,192,75739,1,0,0:0:0:0:
256,192,75918,1,8,0:0:0:0:
256,192,76275,1,8,0:0:0:0:
256,192,76454,1,0,0:0:0:0:
256,192,76632,1,8,0:0:0:0:
256,192,76811,1,0,0:0:0:0:
256,192,76989,1,12,0:0:0:0:
256,192,77168,12,0,79132,0:0:0:0:
