osu file format v14

[General]
AudioFilename: audio.mp3
AudioLeadIn: 0
PreviewTime: 431
Countdown: 1
SampleSet: Soft
StackLeniency: 0.7
Mode: 0
LetterboxInBreaks: 0
WidescreenStoryboard: 0

[Editor]
DistanceSpacing: 1.7
BeatDivisor: 4
GridSize: 4
TimelineZoom: 1

[Metadata]
Title:Bill Nye the Science Guy Theme Song (Chinese Intro)
TitleUnicode:Bill Nye the Science Guy Theme Song (Chinese Intro)
Artist:Mike Greene
ArtistUnicode:Mike Greene
Creator:Strato
Version:Science
Source:
Tags:
BeatmapID:1028802
BeatmapSetID:482127

[Difficulty]
HPDrainRate:7
CircleSize:5
OverallDifficulty:9
ApproachRate:8.4
SliderMultiplier:1.9
SliderTickRate:1

[Events]
//Background and Video events
0,0,"bg.jpg",0,0
//Break Periods
//Storyboard Layer 0 (Background)
//Storyboard Layer 1 (Fail)
//Storyboard Layer 2 (Pass)
//Storyboard Layer 3 (Foreground)
//Storyboard Sound Samples

[TimingPoints]
431,468.75,4,2,0,40,1,0
2306,-100,4,2,0,45,0,0
21993,-100,4,3,0,40,0,0
22931,-100,4,2,0,45,0,0
28087,-100,4,1,0,50,0,0
28556,-100,4,2,0,45,0,0
30079,-100,4,1,0,30,0,0
30196,-100,4,1,0,20,0,0
30313,-100,4,1,0,10,0,0
30431,-100,4,2,0,5,0,0

[Colours]
Combo1 : 24,2,230
Combo2 : 192,192,192

[HitObjects]
60,228,431,6,0,P|100:288|144:292,1,95
128,212,782,2,0,L|128:116,1,95
152,40,1134,1,2,0:0:0:0:
232,180,1368,1,2,3:2:0:0:
252,0,1602,1,2,3:2:0:0:
128,212,1837,1,6,0:0:0:0:
128,212,2306,6,0,P|184:228|224:208,1,95
296,76,2774,1,0,0:0:0:0:
348,228,3009,1,0,0:0:0:0:
220,128,3243,6,0,P|176:111|152:71,1,95
304,20,3712,2,0,L|212:64,1,95
60,100,4181,6,0,P|76:148|128:168,1,95,2|0,0:0|0:0,0:0:0:0:
128,100,4532,1,0,0:0:0:0:
128,100,4649,2,0,L|128:-8,1,95,8|0,0:0|0:0,0:0:0:0:
196,152,5118,1,0,0:0:0:0:
380,76,5352,5,2,0:0:0:0:
276,248,5587,1,8,0:0:0:0:
440,140,5821,5,2,0:0:0:0:
240,212,6056,1,0,0:0:0:0:
456,224,6290,5,2,0:0:0:0:
224,164,6524,1,8,0:0:0:0:
416,312,6759,5,0,0:0:0:0:
228,120,6993,1,0,0:0:0:0:
320,360,7227,5,0,0:0:0:0:
248,80,7462,1,0,0:0:0:0:
208,276,7696,5,2,0:0:0:0:
208,276,7931,2,0,P|152:296|108:280,1,95
116,188,8282,1,0,0:0:0:0:
116,188,8399,2,0,P|160:172|205:185,1,95
336,280,8868,1,2,3:2:0:0:
292,124,9102,1,2,3:2:0:0:
164,236,9337,2,0,P|192:164|176:88,1,142.5
264,96,9806,6,0,P|255:165|282:230,1,142.5
324,164,10274,2,0,P|272:148|220:176,1,95
200,320,10743,1,2,3:2:0:0:
352,260,10977,1,2,3:2:0:0:
196,212,11212,2,0,P|152:228|122:265,1,95,8|0,0:0|0:0,0:0:0:0:
280,320,11681,6,0,P|288:256|260:180,1,142.5
272,104,12149,2,0,P|202:130|186:223,1,142.5,8|0,0:0|2:0,0:0:0:0:
104,216,12618,2,0,P|167:262|223:252,1,95
168,184,12970,1,0,0:0:0:0:
168,184,13087,2,0,L|213:93,1,95
272,248,13556,6,0,P|324:280|384:256,1,95
444,136,14024,1,8,3:2:0:0:
448,296,14259,1,2,3:2:0:0:
328,188,14493,2,0,P|284:160|239:165,1,95,2|0,0:0|0:0,0:0:0:0:
112,256,14962,1,8,3:2:0:0:
152,100,15196,1,2,3:2:0:0:
48,224,15431,6,0,P|52:300|128:327,2,142.5,2|2|2,0:0|0:0|0:0,0:0:0:0:
176,128,16368,1,2,3:2:0:0:
16,156,16602,1,2,3:2:0:0:
156,240,16837,2,0,P|220:260|256:240,1,95
268,92,17306,6,0,L|216:171,1,95
348,260,17774,2,0,L|305:174,1,95,8|0,0:0|0:0,0:0:0:0:
324,336,18243,2,0,P|380:336|420:304,1,95
272,224,18712,2,0,P|220:228|184:256,1,95
380,122,19181,2,0,P|338:177|356:244,1,142.5
280,268,19649,2,0,P|216:220|136:268,1,142.5
208,308,20118,2,0,P|264:356|334:341,1,142.5
280,268,20587,2,0,L|314:129,1,142.5,10|0,0:0|0:0,0:0:0:0:
256,76,21056,6,0,P|320:48|383:95,1,142.5,2|0,0:0|0:0,0:0:0:0:
314,129,21524,2,0,P|248:160|185:118,1,142.5,8|0,0:0|2:0,0:0:0:0:
256,76,21993,6,0,L|326:6,1,95,0|0,3:0|0:0,0:0:0:0:
146,45,22462,2,0,L|194:134,1,95,8|0,3:1|0:0,0:0:0:0:
276,268,22931,5,0,0:0:0:0:
368,152,23165,1,2,0:2:0:0:
384,124,23282,1,2,0:2:0:0:
400,96,23399,1,8,0:0:0:0:
216,196,23634,1,0,0:0:0:0:
388,312,23868,1,0,0:0:0:0:
336,108,24102,5,2,0:0:0:0:
240,304,24337,1,8,0:0:0:0:
388,92,24571,5,2,0:0:0:0:
188,280,24806,1,0,0:0:0:0:
440,76,25040,5,2,0:0:0:0:
136,252,25274,1,8,0:0:0:0:
300,312,25509,5,2,0:0:0:0:
260,108,25743,1,0,0:0:0:0:
256,344,25977,5,2,0:0:0:0:
320,84,26212,1,8,0:0:0:0:
216,376,26446,5,2,0:0:0:0:
380,64,26681,1,0,0:0:0:0:
360,248,26915,5,2,0:0:0:0:
196,120,27149,1,8,0:0:0:0:
404,116,27384,5,2,0:0:0:0:
232,236,27618,1,0,0:0:0:0:
440,256,27852,5,2,0:0:0:0:
292,320,28087,1,0,3:0:0:0:
244,320,28204,1,0,3:0:0:0:
196,320,28321,1,0,3:0:0:0:
148,320,28438,1,0,3:0:0:0:
100,320,28556,2,0,P|38:292|43:225,2,142.5
228,220,29493,1,2,3:2:0:0:
156,364,29727,1,2,3:2:0:0:
104,212,29962,2,0,B|60:76|60:76|24:132,1,190
