osu file format v14

[General]
AudioFilename: audio.mp3
AudioLeadIn: 0
PreviewTime: 105917
Countdown: 1
SampleSet: Normal
StackLeniency: 0.2
Mode: 0
LetterboxInBreaks: 0
WidescreenStoryboard: 1

[Editor]
Bookmarks: 75328
DistanceSpacing: 1
BeatDivisor: 4
GridSize: 4
TimelineZoom: 2.1

[Metadata]
Title:Grindhouse Megamix Sung by 50 Movies
TitleUnicode:Grindhouse Megamix Sung by 50 Movies
Artist:Mike Diva
ArtistUnicode:Mike Diva
Creator:Majii
Version:NIGHTM(AR3)
Source:
Tags:electronic english youtuber friends or solo :>
BeatmapID:1704787
BeatmapSetID:703984

[Difficulty]
HPDrainRate:6
CircleSize:5
OverallDifficulty:8
ApproachRate:3
SliderMultiplier:1.4
SliderTickRate:1

[Events]
//Background and Video events
0,0,"1452359939847.jpg",0,0
//Break Periods
2,124940,126102
//Storyboard Layer 0 (Background)
//Storyboard Layer 1 (Fail)
//Storyboard Layer 2 (Pass)
//Storyboard Layer 3 (Foreground)
//Storyboard Sound Samples

[TimingPoints]
2387.78328656316,294.117647058824,4,1,0,100,1,0
49446,-66.6666666666667,4,1,0,100,0,1
68270,-100,4,1,0,100,0,0
105917,-66.6666666666667,4,1,0,100,0,1
124740,-100,4,1,0,100,0,0
127902,294.117647058824,4,1,0,100,1,0
127902,-133.333333333333,4,1,0,100,0,0
131431,-66.6666666666667,4,1,0,100,0,0
132607,-133.333333333333,4,1,0,100,0,0
134372,-66.6666666666667,4,1,0,100,0,0
134960,-133.333333333333,4,1,0,100,0,0
136137,-66.6666666666667,4,1,0,100,0,0
137313,-100,4,1,0,100,0,0
139078,-50,4,1,0,100,0,0
139225,-100,4,1,0,100,0,0
141431,-66.6666666666667,4,1,0,100,0,0
141725,-100,4,1,0,100,0,0
144372,-66.6666666666667,4,1,0,100,0,0
146725,-100,4,1,0,100,0,0

[Colours]
Combo1 : 255,255,0
Combo2 : 255,0,0
Combo3 : 0,255,0
Combo4 : 0,255,255

[HitObjects]
84,64,2387,6,0,P|124:68|168:100,1,70
16,100,2681,1,0,0:0:0:0:
16,100,2828,1,0,0:0:0:0:
240,184,2976,2,0,P|204:164|180:116,1,70
48,264,3270,6,0,P|28:300|-20:324,1,70
64,200,3564,2,0,P|84:164|132:140,1,70
120,248,3858,1,0,0:0:0:0:
120,248,4005,1,0,0:0:0:0:
188,132,4152,5,0,0:0:0:0:
320,132,4299,1,0,0:0:0:0:
188,132,4446,1,0,0:0:0:0:
320,132,4593,1,0,0:0:0:0:
144,56,4740,6,0,P|108:76|84:124,1,70
212,56,5034,1,0,0:0:0:0:
212,56,5181,1,0,0:0:0:0:
32,216,5328,2,0,P|59:194|74:163,1,70
28,288,5623,2,0,P|50:315|81:330,1,70
360,52,5917,6,0,P|332:76|272:88,1,70
152,52,6358,2,0,P|180:76|240:88,1,70
256,136,6799,1,0,0:0:0:0:
320,180,6946,5,0,0:0:0:0:
328,180,7020,1,0,0:0:0:0:
336,180,7093,2,0,L|416:180,1,70
480,184,7387,1,0,0:0:0:0:
188,180,7534,1,0,0:0:0:0:
256,232,7681,5,0,0:0:0:0:
256,332,7828,1,0,0:0:0:0:
256,64,7976,1,0,0:0:0:0:
188,300,8123,1,0,0:0:0:0:
324,304,8270,2,0,L|324:216,1,70
452,195,8564,2,0,P|383:233|300:227,2,140
164,44,9446,5,0,0:0:0:0:
164,44,9520,1,0,0:0:0:0:
164,44,9593,1,0,0:0:0:0:
16,96,9740,2,0,P|72:100|108:92,1,70
174,197,10034,2,0,P|142:135|84:97,2,140
124,320,10917,5,0,0:0:0:0:
256,232,11211,1,0,0:0:0:0:
376,320,11505,1,0,0:0:0:0:
184,164,11799,5,0,0:0:0:0:
20,40,11946,1,0,0:0:0:0:
72,79,12093,2,0,L|188:167,1,140
248,212,12681,1,0,0:0:0:0:
248,84,12828,1,0,0:0:0:0:
124,200,12976,2,0,P|156:186|182:163,1,70
52,200,13270,1,0,0:0:0:0:
104,36,13564,6,0,L|12:44,1,70
176,28,13858,1,0,0:0:0:0:
364,224,14152,6,0,P|392:164|312:236,1,350
324,168,15034,6,0,P|304:132|404:184,1,350
376,116,15917,6,0,P|324:116|292:56,1,105
293,77,16211,1,0,0:0:0:0:
392,288,16358,1,0,0:0:0:0:
352,204,16505,1,0,0:0:0:0:
104,215,16799,6,0,L|148:143,1,70
196,68,17093,1,0,0:0:0:0:
140,156,17240,1,0,0:0:0:0:
408,215,17387,6,0,L|364:143,1,70
316,68,17681,1,0,0:0:0:0:
372,156,17828,1,0,0:0:0:0:
292,136,17976,2,0,P|256:128|208:140,1,70
296,244,18270,6,0,P|292:300|228:224,1,210
248,188,18858,6,0,B|248:120|248:120|200:72|200:72|232:16|280:24,1,210
172,152,19446,1,0,0:0:0:0:
56,196,19593,1,0,0:0:0:0:
172,152,19740,1,0,0:0:0:0:
56,196,19887,1,0,0:0:0:0:
344,56,20034,6,0,P|400:24|436:28,1,70
403,180,20328,2,0,P|370:170|344:148,1,70
264,32,20623,6,0,P|220:0|228:96,1,210
48,184,21211,6,0,L|76:248,1,70
48,336,21505,2,0,P|120:332|164:276,1,140
76,248,21946,1,0,0:0:0:0:
228,168,22093,2,0,P|196:192|176:232,1,70
232,268,22387,5,0,0:0:0:0:
324,320,22534,1,0,0:0:0:0:
368,224,22681,1,0,0:0:0:0:
232,268,22976,1,0,0:0:0:0:
344,72,23270,5,0,0:0:0:0:
280,172,23417,1,0,0:0:0:0:
344,72,23564,2,0,P|412:88|428:108,1,70
280,172,23858,1,0,0:0:0:0:
36,60,24152,1,0,0:0:0:0:
36,164,24299,1,0,0:0:0:0:
92,112,24446,5,0,0:0:0:0:
188,116,24593,1,0,0:0:0:0:
96,216,24740,1,0,0:0:0:0:
188,116,24887,1,0,0:0:0:0:
96,216,25034,1,0,0:0:0:0:
159,244,25328,2,0,L|71:204,1,70
256,80,25623,5,0,0:0:0:0:
256,80,25770,1,0,0:0:0:0:
324,144,25917,2,0,P|364:124|420:124,1,70
188,144,26211,2,0,P|148:124|92:124,1,70
264,232,26505,2,0,P|270:266|287:296,1,70
429,20,26799,1,0,0:0:0:0:
404,144,26946,2,0,P|440:96|424:12,1,140
336,168,27387,5,0,0:0:0:0:
256,96,27534,1,0,0:0:0:0:
356,68,27681,1,0,0:0:0:0:
108,68,27976,6,0,L|40:152,1,105
48,168,28270,6,0,L|92:224,2,70
152,296,28711,1,0,0:0:0:0:
400,212,29152,5,0,0:0:0:0:
220,184,29299,1,0,0:0:0:0:
320,144,29446,5,0,0:0:0:0:
168,116,29593,1,0,0:0:0:0:
400,128,29740,6,0,L|400:32,2,70
400,260,30181,1,0,0:0:0:0:
400,20,30328,1,0,0:0:0:0:
400,308,30476,1,0,0:0:0:0:
384,80,32387,6,0,L|384:172,1,70
416,212,32681,2,0,L|416:128,1,70
256,192,32976,6,0,P|208:176|164:188,1,70
256,264,33270,2,0,P|304:280|348:268,1,70
328,212,33564,1,0,0:0:0:0:
180,244,33711,1,0,0:0:0:0:
400,200,33858,1,0,0:0:0:0:
108,260,34005,1,0,0:0:0:0:
492,296,34152,6,0,P|456:284|430:264,1,70
308,296,34446,2,0,P|344:284|370:264,1,70
400,140,34740,2,0,L|400:235,2,70
396,64,35181,1,0,0:0:0:0:
232,72,35328,6,0,L|304:120,1,70
208,172,35623,2,0,L|280:220,1,70
180,276,35917,2,0,L|252:324,1,70
76,212,36211,1,0,0:0:0:0:
108,120,36358,1,0,0:0:0:0:
140,32,36505,1,0,0:0:0:0:
0,128,36652,1,0,0:0:0:0:
44,40,36799,1,0,0:0:0:0:
108,120,37093,1,0,0:0:0:0:
256,32,37240,6,0,P|304:60|320:92,1,70
240,112,37534,1,0,0:0:0:0:
144,208,37681,6,0,P|184:196|208:160,1,70
68,208,37976,2,0,P|80:248|116:272,1,70
396,188,38270,6,0,P|362:195|338:220,1,70
469,183,38565,2,0,P|461:149|436:125,1,70
260,60,38858,6,0,B|204:60|204:60|152:72|144:136,1,140
224,136,39299,1,0,0:0:0:0:
224,224,39446,6,0,P|220:260|196:300,1,70
40,196,40034,5,0,0:0:0:0:
160,60,40181,1,0,0:0:0:0:
40,176,40328,1,0,0:0:0:0:
160,44,40476,1,0,0:0:0:0:
40,156,40623,1,0,0:0:0:0:
160,28,40917,1,0,0:0:0:0:
160,132,41211,2,0,L|160:216,1,70
160,28,41505,5,0,0:0:0:0:
160,28,41799,1,0,0:0:0:0:
244,308,42093,5,0,0:0:0:0:
416,132,42240,1,0,0:0:0:0:
244,324,42387,1,0,0:0:0:0:
416,148,42535,1,0,0:0:0:0:
208,136,42682,1,0,0:0:0:0:
208,120,42828,1,0,0:0:0:0:
416,224,42976,1,0,0:0:0:0:
96,224,43270,2,0,L|166:224,1,70
404,224,43564,1,0,0:0:0:0:
96,224,43858,5,0,0:0:0:0:
96,224,44152,1,0,0:0:0:0:
208,268,44740,5,0,0:0:0:0:
296,48,44887,1,0,0:0:0:0:
208,268,45034,1,0,0:0:0:0:
296,48,45182,1,0,0:0:0:0:
60,76,45329,1,0,0:0:0:0:
60,76,45623,1,0,0:0:0:0:
200,156,45917,2,0,P|204:120|180:72,1,70
200,156,46211,5,0,0:0:0:0:
200,156,46505,1,0,0:0:0:0:
92,120,46799,5,0,0:0:0:0:
88,360,46946,1,0,0:0:0:0:
92,120,47093,1,0,0:0:0:0:
88,360,47241,1,0,0:0:0:0:
228,168,47388,1,0,0:0:0:0:
228,168,47534,1,0,0:0:0:0:
16,168,47682,1,0,0:0:0:0:
416,168,47976,2,0,L|488:168,1,70
16,308,48270,5,0,0:0:0:0:
156,28,48417,1,0,0:0:0:0:
460,72,48564,5,0,0:0:0:0:
116,372,48858,5,0,0:0:0:0:
152,136,49005,6,0,L|192:164,1,35
232,192,49152,2,0,L|272:220,1,35
152,252,49299,2,0,L|180:212,1,35
394,261,49446,6,0,P|422:181|402:45,1,210.000008010865
394,261,49887,1,0,0:0:0:0:
512,44,50034,6,0,L|404:60,1,105.000004005432
304,75,50328,2,0,L|407:59,1,105.000004005432
407,58,50623,5,0,0:0:0:0:
160,100,50770,1,0,0:0:0:0:
56,32,50917,1,0,0:0:0:0:
160,100,51064,1,0,0:0:0:0:
48,128,51211,1,0,0:0:0:0:
160,100,51358,1,0,0:0:0:0:
72,224,51505,1,0,0:0:0:0:
284,56,51652,1,0,0:0:0:0:
328,352,51799,6,0,B|340:288|340:288|392:256|392:256|360:208|384:144,1,210.000008010865
328,352,52240,1,0,0:0:0:0:
444,40,52387,6,0,P|392:56|336:56,1,105.000004005432
132,72,52681,2,0,P|181:56|234:55,1,105.000004005432
72,172,52976,5,0,0:0:0:0:
16,24,53123,1,0,0:0:0:0:
128,324,53270,1,0,0:0:0:0:
72,172,53417,1,0,0:0:0:0:
256,40,53564,5,0,0:0:0:0:
256,336,53711,1,0,0:0:0:0:
384,192,53858,1,0,0:0:0:0:
144,192,54005,1,0,0:0:0:0:
461,72,54152,6,0,B|429:132|461:196|461:196|413:216|365:180,1,210.000008010865
461,72,54593,1,0,0:0:0:0:
252,112,54740,6,0,B|252:168|252:168|268:220,1,105.000004005432
271,283,55034,2,0,B|271:227|271:227|256:180,1,105.000004005432
172,128,55329,5,0,0:0:0:0:
124,180,55476,1,0,0:0:0:0:
72,232,55623,1,0,0:0:0:0:
20,284,55770,1,0,0:0:0:0:
28,120,55917,1,0,0:0:0:0:
88,76,56064,1,0,0:0:0:0:
152,40,56211,1,0,0:0:0:0:
216,4,56358,1,0,0:0:0:0:
436,200,56505,6,0,P|392:144|244:132,1,210.000008010865
436,200,56946,1,0,0:0:0:0:
512,40,57093,6,0,L|404:56,1,105.000004005432
480,144,57387,2,0,P|504:192|488:256,1,105.000004005432
312,248,57682,5,0,0:0:0:0:
140,308,57829,1,0,0:0:0:0:
312,248,57976,1,0,0:0:0:0:
140,308,58123,1,0,0:0:0:0:
450,309,58270,5,0,0:0:0:0:
450,309,58368,1,0,0:0:0:0:
450,309,58466,1,0,0:0:0:0:
450,309,58564,1,0,0:0:0:0:
450,309,58662,1,0,0:0:0:0:
256,300,58858,6,0,P|351:338|450:310,1,210.000008010865
256,300,59299,1,0,0:0:0:0:
327,176,59446,6,0,B|271:168|271:168|219:192,1,105.000004005432
155,312,59740,2,0,B|211:320|211:320|255:300,1,105.000004005432
48,344,60035,5,0,0:0:0:0:
48,240,60182,1,0,0:0:0:0:
152,240,60329,1,0,0:0:0:0:
48,240,60476,1,0,0:0:0:0:
44,136,60623,1,0,0:0:0:0:
48,240,60770,1,0,0:0:0:0:
116,160,60917,1,0,0:0:0:0:
48,240,61064,1,0,0:0:0:0:
48,240,61211,6,0,B|142:303|142:303|190:271|233:289,1,210.000008010865
48,240,61652,1,0,0:0:0:0:
337,273,61799,6,0,L|229:289,1,105.000004005432
280,208,62093,2,0,L|384:193,1,105.000004005432
412,260,62388,5,0,0:0:0:0:
476,176,62535,1,0,0:0:0:0:
508,276,62682,1,0,0:0:0:0:
476,176,62829,1,0,0:0:0:0:
472,72,62976,5,0,0:0:0:0:
384,172,63123,1,0,0:0:0:0:
388,68,63270,1,0,0:0:0:0:
384,172,63417,1,0,0:0:0:0:
214,258,63564,6,0,B|282:258|282:258|314:166|414:170,1,210.000008010865
214,258,64005,1,0,0:0:0:0:
256,64,64152,6,0,L|148:80,1,105.000004005432
152,79,64446,2,0,L|255:94,1,105.000004005432
416,84,64741,5,0,0:0:0:0:
92,176,64888,1,0,0:0:0:0:
416,184,65035,1,0,0:0:0:0:
88,72,65182,1,0,0:0:0:0:
256,312,65329,1,0,0:0:0:0:
256,64,65476,1,0,0:0:0:0:
380,268,65623,1,0,0:0:0:0:
140,268,65770,1,0,0:0:0:0:
380,24,65917,6,0,P|436:68|448:216,1,210.000008010865
380,24,66358,1,0,0:0:0:0:
48,48,66505,6,0,L|48:176,1,105.000004005432
48,258,66799,2,0,L|48:153,1,105.000004005432
48,153,67094,5,0,0:0:0:0:
152,152,67241,1,0,0:0:0:0:
256,152,67388,1,0,0:0:0:0:
360,152,67535,1,0,0:0:0:0:
424,72,67682,5,0,0:0:0:0:
256,328,67829,1,0,0:0:0:0:
460,152,67976,5,0,0:0:0:0:
256,328,68123,1,0,0:0:0:0:
128,216,68270,5,0,0:0:0:0:
184,180,68417,2,0,L|264:136,1,70
128,216,68711,1,0,0:0:0:0:
64,252,68858,6,0,L|2:285,1,70
128,216,69152,1,0,0:0:0:0:
184,180,69299,6,0,L|264:136,1,70
128,216,69593,1,0,0:0:0:0:
432,152,69740,6,0,L|512:152,1,70
432,152,70034,2,0,L|340:152,1,70
432,152,70328,2,0,L|432:56,1,70
128,216,70623,5,0,0:0:0:0:
196,336,70770,2,0,L|152:256,1,70
128,216,71064,1,0,0:0:0:0:
60,96,71211,6,0,L|93:157,1,70
128,216,71505,1,0,0:0:0:0:
196,336,71652,6,0,L|162:274,1,70
128,216,71946,1,0,0:0:0:0:
368,300,72093,6,0,P|408:292|448:300,1,70
368,300,72387,2,0,P|364:265|371:231,1,70
288,208,72681,2,0,L|313:184,1,35
292,276,72828,2,0,L|244:320,1,35
188,232,72976,5,0,0:0:0:0:
80,316,73123,2,0,L|144:264,1,70
24,360,73417,1,0,0:0:0:0:
188,88,73564,6,0,L|188:176,1,70
188,232,73858,1,0,0:0:0:0:
188,368,74005,6,0,L|188:276,1,70
188,232,74299,1,0,0:0:0:0:
408,184,74446,6,0,B|444:176|444:176|488:184,1,70
408,184,74740,2,0,B|372:192|372:192|328:184,1,70
408,184,75034,2,0,B|400:148|400:148|408:104,1,70
46,92,75328,5,0,0:0:0:0:
46,92,75476,2,0,L|110:28,1,70
95,42,75769,1,0,0:0:0:0:
120,116,75917,6,0,L|71:166,1,70
168,68,76210,1,0,0:0:0:0:
107,234,76358,6,0,L|156:184,1,70
64,288,76651,1,0,0:0:0:0:
164,316,76799,6,0,L|212:316,1,35
252,280,76946,2,0,L|184:280,1,35
328,272,77092,6,0,P|324:312|284:356,1,70
328,200,77387,2,0,P|362:202|393:219,1,70
460,268,77681,6,0,L|420:360,1,70
328,348,77976,1,0,0:0:0:0:
480,208,78123,1,0,0:0:0:0:
300,136,78270,6,0,P|360:128|400:140,1,70
256,80,78564,1,0,0:0:0:0:
212,136,78711,2,0,P|152:128|112:140,1,70
256,12,79005,1,0,0:0:0:0:
256,208,79152,1,0,0:0:0:0:
256,12,79446,1,0,0:0:0:0:
64,240,79740,5,0,0:0:0:0:
64,116,79887,1,0,0:0:0:0:
64,240,80034,2,0,L|128:292,1,70
200,352,80328,1,0,0:0:0:0:
28,180,80476,1,0,0:0:0:0:
64,46,80623,2,0,L|64:126,1,70
368,84,80917,1,0,0:0:0:0:
152,84,81064,1,0,0:0:0:0:
229,84,81211,6,0,L|373:84,1,140
264,84,81799,2,0,L|221:84,6,35
32,96,82387,6,0,L|108:128,1,70
179,237,82681,2,0,L|52:180,1,140
204,328,83270,1,0,0:0:0:0:
100,332,83417,1,0,0:0:0:0:
240,202,83564,2,0,L|156:250,1,70
300,168,83858,2,0,L|360:133,1,70
240,132,84152,1,0,0:0:0:0:
284,307,84446,5,0,0:0:0:0:
496,300,84593,1,0,0:0:0:0:
424,304,84740,2,0,L|272:308,1,140
456,228,85328,2,0,L|308:228,1,140
440,64,85917,2,0,L|440:148,1,70
360,100,86211,2,0,L|360:30,1,70
256,72,86505,6,0,L|188:72,1,35
220,156,86652,2,0,L|255:156,1,35
256,240,86799,2,0,L|188:240,1,35
220,324,86946,2,0,L|255:324,1,35
136,328,87093,6,0,P|103:341|69:340,1,70
96,244,87387,1,0,0:0:0:0:
24,168,87534,1,0,0:0:0:0:
12,272,87681,1,0,0:0:0:0:
24,168,87828,1,0,0:0:0:0:
24,168,87902,1,0,0:0:0:0:
24,168,87976,1,0,0:0:0:0:
96,244,88123,1,0,0:0:0:0:
44,48,88270,5,0,0:0:0:0:
148,40,88417,1,0,0:0:0:0:
108,136,88564,1,0,0:0:0:0:
44,48,88711,1,0,0:0:0:0:
148,40,88858,2,0,L|236:48,1,70
217,195,89152,6,0,P|251:189|286:189,1,70
440,77,89446,6,0,L|375:54,1,70
412,152,89740,1,0,0:0:0:0:
316,112,89887,1,0,0:0:0:0:
287,190,90034,2,0,L|352:216,2,70
191,229,90476,1,0,0:0:0:0:
320,284,90623,2,0,L|190:229,1,140
320,284,91211,1,0,0:0:0:0:
416,324,91505,5,0,0:0:0:0:
424,220,91652,1,0,0:0:0:0:
416,324,91799,6,0,P|476:316|500:296,1,70
336,356,92093,1,0,0:0:0:0:
300,256,92240,1,0,0:0:0:0:
212,312,92387,1,0,0:0:0:0:
336,356,92534,1,0,0:0:0:0:
336,356,92608,1,0,0:0:0:0:
336,356,92682,1,0,0:0:0:0:
212,312,92829,1,0,0:0:0:0:
112,272,92976,5,0,0:0:0:0:
44,192,93123,1,0,0:0:0:0:
12,292,93270,1,0,0:0:0:0:
44,192,93417,1,0,0:0:0:0:
112,272,93564,2,0,L|160:212,1,70
216,88,93858,6,0,P|180:68|136:64,1,70
152,64,94152,5,0,0:0:0:0:
344,68,94446,1,0,0:0:0:0:
480,320,94740,1,0,0:0:0:0:
40,320,95034,1,0,0:0:0:0:
256,296,95181,1,0,0:0:0:0:
312,144,95328,5,0,0:0:0:0:
184,144,95476,1,0,0:0:0:0:
256,372,95623,1,0,0:0:0:0:
256,24,95917,2,0,L|256:184,1,140
392,52,96505,5,0,0:0:0:0:
176,268,96652,1,0,0:0:0:0:
456,320,96799,1,0,0:0:0:0:
392,52,96947,1,0,0:0:0:0:
176,268,97094,1,0,0:0:0:0:
456,320,97388,1,0,0:0:0:0:
348,192,97682,2,0,L|348:108,1,70
348,360,97976,5,0,0:0:0:0:
32,360,98270,1,0,0:0:0:0:
256,60,98564,5,0,0:0:0:0:
256,192,98711,1,0,0:0:0:0:
444,64,98858,1,0,0:0:0:0:
256,60,99006,1,0,0:0:0:0:
256,192,99153,1,0,0:0:0:0:
444,64,99299,1,0,0:0:0:0:
256,192,99447,1,0,0:0:0:0:
36,280,99741,6,0,L|36:196,1,70
36,128,100035,1,0,0:0:0:0:
36,360,100329,5,0,0:0:0:0:
36,64,100623,1,0,0:0:0:0:
304,116,101211,5,0,0:0:0:0:
216,336,101358,1,0,0:0:0:0:
304,116,101505,1,0,0:0:0:0:
216,336,101653,1,0,0:0:0:0:
304,116,101800,1,0,0:0:0:0:
496,260,102094,1,0,0:0:0:0:
328,224,102388,2,0,L|328:294,1,70
472,152,102682,5,0,0:0:0:0:
320,56,102976,1,0,0:0:0:0:
256,348,103270,5,0,0:0:0:0:
160,192,103417,1,0,0:0:0:0:
368,192,103564,1,0,0:0:0:0:
256,280,103712,1,0,0:0:0:0:
256,212,103859,1,0,0:0:0:0:
256,348,104005,1,0,0:0:0:0:
256,212,104153,1,0,0:0:0:0:
196,128,104447,2,0,P|160:116|124:128,1,70
256,348,104741,5,0,0:0:0:0:
256,212,104888,1,0,0:0:0:0:
256,348,105035,5,0,0:0:0:0:
256,20,105329,1,0,0:0:0:0:
380,348,105476,6,0,L|340:320,1,35
416,296,105623,2,0,L|376:268,1,35
456,248,105770,2,0,L|416:220,1,35
416,33,105917,6,0,P|388:113|440:241,1,210.000008010865
416,33,106358,1,0,0:0:0:0:
148,64,106505,6,0,L|256:48,1,105.000004005432
156,128,106799,2,0,L|53:144,1,105.000004005432
251,48,107094,5,0,0:0:0:0:
148,64,107241,1,0,0:0:0:0:
156,128,107388,1,0,0:0:0:0:
52,144,107535,1,0,0:0:0:0:
168,200,107681,1,0,0:0:0:0:
56,216,107829,1,0,0:0:0:0:
124,272,107976,1,0,0:0:0:0:
136,356,108123,1,0,0:0:0:0:
292,228,108270,6,0,B|244:248|244:248|196:324|196:324|128:360,1,210.000008010865
292,228,108711,1,0,0:0:0:0:
100,104,108858,6,0,P|152:88|208:88,1,105.000004005432
412,72,109152,2,0,P|363:88|310:89,1,105.000004005432
256,152,109447,5,0,0:0:0:0:
256,220,109594,1,0,0:0:0:0:
256,288,109741,1,0,0:0:0:0:
256,364,109888,1,0,0:0:0:0:
320,324,110035,5,0,0:0:0:0:
192,324,110182,1,0,0:0:0:0:
380,284,110329,1,0,0:0:0:0:
132,284,110476,1,0,0:0:0:0:
140,89,110623,6,0,B|140:167|140:167|112:195|112:195|128:227|128:227|132:283,1,210.000008010865
140,89,111064,1,0,0:0:0:0:
468,108,111211,6,0,B|412:108|412:108|365:123,1,105.000004005432
315,28,111505,2,0,B|268:42|268:42|212:42,1,105.000004005432
272,120,111800,5,0,0:0:0:0:
228,216,111947,1,0,0:0:0:0:
316,272,112094,1,0,0:0:0:0:
228,216,112241,1,0,0:0:0:0:
152,288,112388,1,0,0:0:0:0:
272,120,112535,1,0,0:0:0:0:
228,216,112682,1,0,0:0:0:0:
136,160,112829,1,0,0:0:0:0:
135,10,112976,6,0,P|74:90|171:158,1,210.000008010865
135,10,113417,1,0,0:0:0:0:
31,174,113564,6,0,L|139:158,1,105.000004005432
142,263,113858,2,0,L|134:151,1,105.000004005432
148,336,114153,5,0,0:0:0:0:
220,260,114300,1,0,0:0:0:0:
304,324,114447,1,0,0:0:0:0:
392,268,114594,1,0,0:0:0:0:
256,24,114741,5,0,0:0:0:0:
256,52,114838,1,0,0:0:0:0:
256,84,114936,1,0,0:0:0:0:
256,112,115035,1,0,0:0:0:0:
256,140,115132,1,0,0:0:0:0:
256,168,115230,1,0,0:0:0:0:
352,144,115329,6,0,P|257:106|158:134,1,210.000008010865
352,144,115770,1,0,0:0:0:0:
128,312,115917,6,0,B|72:304|72:304|20:328,1,105.000004005432
120,248,116211,2,0,B|64:240|64:240|20:260,1,105.000004005432
184,272,116506,5,0,0:0:0:0:
288,272,116653,1,0,0:0:0:0:
236,180,116800,1,0,0:0:0:0:
340,200,116947,1,0,0:0:0:0:
136,168,117094,1,0,0:0:0:0:
300,116,117241,1,0,0:0:0:0:
196,96,117388,1,0,0:0:0:0:
236,180,117535,1,0,0:0:0:0:
451,366,117682,6,0,B|430:366|394:338|389:303|389:303|313:327|281:259,1,210.000008010865
451,366,118123,1,0,0:0:0:0:
368,128,118270,6,0,L|352:231,1,105.000004005432
456,216,118564,2,0,L|352:231,1,105.000004005432
436,144,118859,5,0,0:0:0:0:
472,88,119006,1,0,0:0:0:0:
316,64,119153,1,0,0:0:0:0:
352,8,119300,1,0,0:0:0:0:
256,192,119447,5,0,0:0:0:0:
256,120,119594,1,0,0:0:0:0:
256,264,119741,1,0,0:0:0:0:
256,120,119888,1,0,0:0:0:0:
242,21,120035,6,0,B|174:21|174:21|174:109|262:121,1,210.000008010865
242,21,120476,1,0,0:0:0:0:
344,128,120623,6,0,L|452:112,1,105.000004005432
320,64,120917,2,0,L|428:48,1,105.000004005432
92,328,121212,5,0,0:0:0:0:
320,64,121359,1,0,0:0:0:0:
52,264,121506,1,0,0:0:0:0:
344,128,121653,1,0,0:0:0:0:
52,188,121800,1,0,0:0:0:0:
348,212,121947,1,0,0:0:0:0:
68,112,122094,1,0,0:0:0:0:
320,296,122241,1,0,0:0:0:0:
494,220,122388,6,0,P|450:276|302:288,1,210.000008010865
494,220,122829,1,0,0:0:0:0:
319,190,122976,6,0,L|319:295,1,105.000004005432
319,85,123270,2,0,L|319:190,1,105.000004005432
316,360,123565,5,0,0:0:0:0:
172,192,123712,1,0,0:0:0:0:
392,192,123859,1,0,0:0:0:0:
244,192,124006,1,0,0:0:0:0:
56,192,124153,5,0,0:0:0:0:
32,115,124300,1,0,0:0:0:0:
56,192,124446,6,0,B|36:216|36:256|36:256|16:164|36:104,1,210.000008010865
464,40,127902,6,0,P|436:80|376:108,1,105.000004005432
387,105,128343,1,0,0:0:0:0:
376,16,128490,1,0,0:0:0:0:
376,16,128563,1,0,0:0:0:0:
376,16,128637,1,0,0:0:0:0:
387,105,128784,1,0,0:0:0:0:
280,184,129078,1,0,0:0:0:0:
280,184,129372,6,0,L|356:184,2,52.5000020027161
404,184,129813,1,0,0:0:0:0:
208,184,129960,1,0,0:0:0:0:
272,80,130254,6,0,L|236:140,2,52.5000020027161
208,184,130696,1,0,0:0:0:0:
376,16,130843,1,0,0:0:0:0:
376,16,130916,1,0,0:0:0:0:
376,16,130990,1,0,0:0:0:0:
148,32,131137,1,0,0:0:0:0:
150,318,131284,1,0,0:0:0:0:
148,32,131431,6,0,B|200:128|116:216|116:216|152:272|152:272|148:368,1,315.000012016297
204,328,132019,2,0,B|232:320|232:320|268:328|268:328|300:240|388:224,1,210.000008010865
396,256,132460,2,0,L|456:356,1,105.000004005432
336,156,132754,5,0,0:0:0:0:
264,80,132902,1,0,0:0:0:0:
160,72,133049,1,0,0:0:0:0:
60,96,133196,2,0,L|24:36,2,52.5000020027161
108,188,133637,1,0,0:0:0:0:
28,280,133784,2,0,L|68:280,2,26.2500010013581
172,280,134078,1,0,0:0:0:0:
28,280,134225,1,0,0:0:0:0:
380,40,134372,6,0,P|432:64|464:132,1,105.000004005432
458,102,134666,2,0,P|427:60|380:40,1,105.000004005432
336,192,134960,5,0,0:0:0:0:
240,324,135107,1,0,0:0:0:0:
336,192,135254,1,0,0:0:0:0:
240,324,135402,1,0,0:0:0:0:
176,164,135549,2,0,L|200:224,2,52.5000020027161
240,324,135990,1,0,0:0:0:0:
376,4,136137,6,0,B|324:36|324:36|280:112,1,105.000004005432
136,4,136431,2,0,B|188:36|188:36|232:112,1,105.000004005432
256,252,136725,5,0,0:0:0:0:
32,172,136872,1,0,0:0:0:0:
256,252,137019,1,0,0:0:0:0:
484,172,137166,1,0,0:0:0:0:
112,44,137313,6,0,P|85:65|52:77,1,70
168,80,137607,2,0,P|195:59|229:48,1,70
112,128,137902,1,0,0:0:0:0:
232,124,138049,1,0,0:0:0:0:
116,196,138196,2,0,P|82:206|55:227,1,70
348,280,138490,6,0,P|336:313|315:340,1,70
268,272,138784,2,0,P|220:260|192:236,1,70
372,128,139078,2,0,B|340:144|304:144|304:144|292:184|244:208,1,140
262,197,139373,1,0,0:0:0:0:
372,128,139520,1,0,0:0:0:0:
116,196,139666,6,0,P|143:175|177:164,1,70
92,264,139960,2,0,P|62:281|27:287,1,70
172,248,140255,1,0,0:0:0:0:
36,208,140402,1,0,0:0:0:0:
68,144,140549,2,0,L|68:68,1,70
316,36,140843,6,0,P|260:64|240:92,1,70
144,144,141137,2,0,P|192:132|220:108,1,70
184,16,141431,6,0,B|148:36|116:24|116:24|88:44|88:44|56:40|37:53,2,157.500006008148
92,312,142019,6,0,P|70:284|59:251,1,70
168,320,142313,2,0,P|185:349|191:384,1,70
240,292,142608,1,0,0:0:0:0:
320,300,142755,1,0,0:0:0:0:
288,232,142902,2,0,L|289:147,1,70
360,60,143196,6,0,P|304:88|284:116,1,70
424,160,143490,2,0,P|394:142|359:136,1,70
432,84,143785,1,0,0:0:0:0:
476,216,143932,1,0,0:0:0:0:
308,168,144079,1,0,0:0:0:0:
492,44,144226,1,0,0:0:0:0:
60,32,144372,6,0,P|88:88|141:121,1,105.000004005432
472,360,144666,2,0,P|444:304|391:271,1,105.000004005432
120,113,144961,1,0,0:0:0:0:
411,278,145108,1,0,0:0:0:0:
56,360,145254,6,0,P|112:332|156:264,1,105.000004005432
456,36,145549,2,0,P|400:64|356:132,1,105.000004005432
212,160,145843,2,0,L|316:240,1,105.000004005432
156,116,146137,5,0,0:0:0:0:
368,280,146284,1,0,0:0:0:0:
156,116,146431,5,0,0:0:0:0:
368,280,146578,1,0,0:0:0:0:
40,16,146725,6,0,L|40:72,2,35
40,120,147019,2,0,L|40:200,1,70
472,16,147313,2,0,L|472:72,2,35
472,120,147607,2,0,L|472:200,1,70
256,12,147901,2,0,L|256:72,2,35
256,120,148196,2,0,L|256:200,1,70
256,372,148490,2,0,L|256:320,2,35
256,264,148784,2,0,L|256:184,1,70
456,232,149078,5,0,0:0:0:0:
456,232,149152,1,0,0:0:0:0:
456,232,149225,1,0,0:0:0:0:
388,208,149372,6,0,L|321:185,1,70
60,236,149666,1,0,0:0:0:0:
60,236,149740,1,0,0:0:0:0:
60,236,149813,1,0,0:0:0:0:
124,208,149960,6,0,L|190:185,1,70
456,260,150254,1,0,0:0:0:0:
456,260,150328,1,0,0:0:0:0:
456,260,150401,1,0,0:0:0:0:
388,280,150549,6,0,L|321:302,1,70
60,264,150843,1,0,0:0:0:0:
60,264,150917,1,0,0:0:0:0:
60,264,150990,1,0,0:0:0:0:
124,284,151137,6,0,L|190:306,1,70
104,60,151431,6,0,L|72:104,2,35
176,100,151725,2,0,L|144:144,2,35
252,136,152019,2,0,L|220:180,2,35
328,176,152313,2,0,L|296:220,2,35
420,56,152607,6,0,L|388:100,2,35
460,204,152902,2,0,L|428:248,2,35
288,68,153196,2,0,L|256:112,2,35
296,236,153490,2,0,L|264:280,2,35
28,132,153784,5,0,0:0:0:0:
76,132,153882,1,0,0:0:0:0:
120,144,153980,1,0,0:0:0:0:
156,172,154078,1,0,0:0:0:0:
176,212,154176,1,0,0:0:0:0:
180,260,154274,1,0,0:0:0:0:
224,240,154372,5,0,0:0:0:0:
264,216,154470,1,0,0:0:0:0:
304,196,154568,1,0,0:0:0:0:
344,176,154666,1,0,0:0:0:0:
384,156,154764,1,0,0:0:0:0:
428,136,154862,1,0,0:0:0:0:
472,116,154960,6,0,L|528:84,1,35
476,164,155107,2,0,L|532:132,1,35
480,212,155254,2,0,L|536:180,1,35
480,264,155402,2,0,L|536:232,1,35
480,316,155549,2,0,L|536:284,1,35
444,328,155696,5,0,0:0:0:0:
120,252,155843,1,0,0:0:0:0:
360,44,155990,1,0,0:0:0:0:
256,192,156137,12,0,158490,0:0:0:0:
