osu file format v14

[General]
AudioFilename: audio.mp3
AudioLeadIn: 0
PreviewTime: 105917
Countdown: 1
SampleSet: Normal
StackLeniency: 0.2
Mode: 0
LetterboxInBreaks: 0
WidescreenStoryboard: 1

[Editor]
Bookmarks: 149078,151431,153784,154960,156211
DistanceSpacing: 0.3
BeatDivisor: 4
GridSize: 4
TimelineZoom: 2.1

[Metadata]
Title:Grindhouse Megamix Sung by 50 Movies
TitleUnicode:Grindhouse Megamix Sung by 50 Movies
Artist:Mike Diva
ArtistUnicode:Mike Diva
Creator:Majii
Version:HUSH-HUSH (TAG4)
Source:
Tags:electronic english youtuber friends or solo :>
BeatmapID:1703849
BeatmapSetID:703984

[Difficulty]
HPDrainRate:4
CircleSize:5.5
OverallDifficulty:7
ApproachRate:9
SliderMultiplier:1.4
SliderTickRate:1

[Events]
//Background and Video events
0,0,"1452359939847.jpg",0,0
//Break Periods
2,124793,127302
//Storyboard Layer 0 (Background)
//Storyboard Layer 1 (Fail)
//Storyboard Layer 2 (Pass)
//Storyboard Layer 3 (Foreground)
//Storyboard Sound Samples

[TimingPoints]
2387.78328656316,294.117647058824,4,1,0,100,1,0
49446,-66.6666666666667,4,1,0,100,0,1
68270,-100,4,1,0,100,0,0
105917,-66.6666666666667,4,1,0,100,0,1
124740,-100,4,1,0,100,0,0
127902,294.117647058824,4,1,0,100,1,0
127902,-133.333333333333,4,1,0,100,0,0
131431,-66.6666666666667,4,1,0,100,0,0
132607,-133.333333333333,4,1,0,100,0,0
134372,-66.6666666666667,4,1,0,100,0,0
134960,-133.333333333333,4,1,0,100,0,0
136137,-66.6666666666667,4,1,0,100,0,0
137313,-100,4,1,0,100,0,0
141431,-66.6666666666667,4,1,0,100,0,0
141725,-100,4,1,0,100,0,0
146725,-50,4,1,0,100,0,0
153784,-100,4,1,0,100,0,0

[Colours]
Combo1 : 0,255,0
Combo2 : 255,0,0
Combo3 : 255,255,0
Combo4 : 0,255,255

[HitObjects]
68,68,2387,6,0,P|88:108|128:128,1,70
208,156,2681,1,0,0:0:0:0:
208,156,2828,1,0,0:0:0:0:
200,52,2976,2,0,P|160:24|128:24,1,70
312,244,3270,6,0,L|368:296,1,70
280,300,3564,2,0,L|340:360,1,70
420,352,3858,2,0,P|444:312|440:280,1,70
436,64,4152,5,0,0:0:0:0:
76,64,4299,5,0,0:0:0:0:
36,24,4446,5,0,0:0:0:0:
476,24,4593,5,0,0:0:0:0:
312,136,4740,6,0,P|352:172|384:180,1,70
476,192,5034,1,0,0:0:0:0:
476,192,5181,1,0,0:0:0:0:
376,244,5328,2,0,P|336:280|304:288,1,70
244,332,5623,6,0,B|236:292|236:292|244:236,1,70
236,152,5917,6,0,B|244:228|244:228|236:304,1,140
244,224,6358,6,0,B|236:148|236:148|242:84,1,140
304,152,6799,5,0,0:0:0:0:
36,128,6946,5,0,0:0:0:0:
148,128,7093,2,0,P|148:72|128:48,1,70
92,160,7387,2,0,P|92:216|112:240,1,70
368,64,7681,5,0,0:0:0:0:
448,144,7828,1,0,0:0:0:0:
340,176,7976,1,0,0:0:0:0:
368,64,8123,1,0,0:0:0:0:
88,312,8270,5,0,0:0:0:0:
400,176,8417,6,0,L|430:258,1,70
32,236,8711,5,0,0:0:0:0:
412,100,8858,6,0,L|468:44,1,70
140,236,9152,5,0,0:0:0:0:
256,32,9446,5,0,0:0:0:0:
256,88,9593,1,0,0:0:0:0:
256,144,9740,1,0,0:0:0:0:
256,200,9887,1,0,0:0:0:0:
124,116,10034,6,0,L|196:116,1,70
388,116,10328,6,0,L|316:116,1,70
256,214,10623,6,0,L|256:142,1,70
60,44,10917,5,0,0:0:0:0:
60,340,11211,5,0,0:0:0:0:
60,44,11505,5,0,0:0:0:0:
60,340,11799,6,0,L|148:340,1,70
192,352,12093,2,0,P|188:312|148:284,1,70
96,196,12387,2,0,P|100:236|140:264,1,70
224,184,12681,2,0,P|184:188|156:228,1,70
220,252,12976,2,0,P|260:248|288:208,1,70
288,160,13270,1,0,0:0:0:0:
224,72,13417,6,0,L|308:72,1,70
164,72,13711,2,0,L|72:72,2,70
220,68,14152,6,0,P|272:116|180:68,1,420
200,144,15034,6,0,P|148:192|240:144,1,420
220,220,15917,6,0,P|272:268|220:388,1,210
196,304,16211,5,0,0:0:0:0:
136,256,16505,6,0,P|92:260|68:284,1,70
128,328,16799,1,0,0:0:0:0:
196,304,16946,1,0,0:0:0:0:
376,256,17093,6,0,P|420:260|444:284,1,70
120,188,17387,6,0,P|116:144|92:120,1,70
48,180,17681,1,0,0:0:0:0:
72,248,17828,1,0,0:0:0:0:
256,28,17976,5,0,0:0:0:0:
220,220,18270,6,0,P|272:268|220:388,1,210
68,64,18858,5,0,0:0:0:0:
120,156,19152,1,0,0:0:0:0:
160,60,19446,1,0,0:0:0:0:
288,224,19593,5,0,0:0:0:0:
116,96,19740,5,0,0:0:0:0:
336,260,19887,5,0,0:0:0:0:
116,96,20034,6,0,L|196:136,1,70
116,288,20328,6,0,L|196:248,1,70
305,279,20623,6,0,B|219:238|219:238|109:291,1,210
352,44,21211,6,0,L|352:128,1,70
420,108,21505,2,0,L|420:192,1,70
352,192,21799,2,0,L|268:192,1,70
288,260,22093,2,0,L|204:260,1,70
352,44,22387,5,0,0:0:0:0:
352,192,22534,5,0,0:0:0:0:
420,108,22681,6,0,L|420:192,1,70
288,260,22976,6,0,L|200:260,1,70
256,44,23270,5,0,0:0:0:0:
256,192,23417,5,0,0:0:0:0:
172,116,23564,6,0,P|136:116|92:144,1,70
0,184,23858,2,0,P|36:184|80:156,1,70
136,256,24152,2,0,P|136:220|108:176,1,70
340,116,24446,6,0,P|376:116|420:144,1,70
512,184,24740,2,0,P|476:184|432:156,1,70
376,256,25034,2,0,P|376:220|404:176,1,70
96,160,25328,5,0,0:0:0:0:
416,160,25476,5,0,0:0:0:0:
88,336,25917,6,0,L|88:248,1,70
152,236,26211,2,0,L|152:306,1,70
216,332,26505,2,0,L|216:244,1,70
152,304,26799,5,0,0:0:0:0:
88,208,26946,2,0,L|88:300,1,70
360,224,27387,5,0,0:0:0:0:
432,224,27534,1,0,0:0:0:0:
352,108,27681,2,0,B|392:172|392:172|428:96,1,140
88,280,27976,5,0,0:0:0:0:
356,312,28270,6,0,B|416:312|416:312|408:284|408:284|468:284,1,140
296,312,28711,1,0,0:0:0:0:
296,212,29152,2,0,L|296:124,2,70
296,312,29593,1,0,0:0:0:0:
156,312,29887,2,0,B|214:312|214:312|188:280,2,70
96,44,30328,6,0,P|88:84|96:136,1,70
104,180,30623,1,0,0:0:0:0:
256,192,30917,1,0,0:0:0:0:
422,112,31211,2,0,P|423:78|416:44,1,70
408,180,31505,1,0,0:0:0:0:
352,220,31652,1,0,0:0:0:0:
288,252,31799,2,0,P|256:264|220:252,2,70
72,268,32387,6,0,B|72:288|88:316|88:316|32:272|36:224,1,140
440,268,32681,6,0,B|440:288|424:316|424:316|480:272|476:224,1,140
392,68,33123,5,0,0:0:0:0:
348,124,33270,1,0,0:0:0:0:
288,84,33417,1,0,0:0:0:0:
204,188,33564,2,0,L|252:128,1,70
120,316,33858,5,0,0:0:0:0:
164,260,34005,1,0,0:0:0:0:
224,300,34152,1,0,0:0:0:0:
304,200,34299,2,0,L|256:260,1,70
312,296,34593,2,0,L|355:241,1,70
256,56,34740,6,0,L|184:56,1,70
256,56,35034,2,0,L|340:56,1,70
48,192,35328,6,0,P|80:140|116:132,1,70
112,204,35623,2,0,P|80:256|44:264,1,70
172,192,35917,2,0,L|244:192,1,70
312,204,36211,6,0,P|344:256|380:264,1,70
376,192,36505,2,0,P|344:140|308:132,2,70
256,192,37093,1,0,0:0:0:0:
176,52,37387,6,0,B|204:80|204:80|256:80,1,70
336,52,37681,2,0,B|308:80|308:80|256:80,1,70
256,192,37976,2,0,L|256:122,1,70
256,32,38270,1,0,0:0:0:0:
48,188,38417,5,0,0:0:0:0:
256,32,38564,6,0,L|256:112,1,70
256,172,38858,2,0,L|256:268,1,70
48,188,39152,5,0,0:0:0:0:
48,120,39299,1,0,0:0:0:0:
256,32,39446,5,0,0:0:0:0:
36,344,40034,5,0,0:0:0:0:
88,304,40181,1,0,0:0:0:0:
164,304,40328,1,0,0:0:0:0:
212,344,40476,1,0,0:0:0:0:
128,360,40623,2,0,L|128:264,1,70
128,220,40917,2,0,L|128:128,1,70
472,24,41505,5,0,0:0:0:0:
36,344,41799,5,0,0:0:0:0:
476,344,42093,5,0,0:0:0:0:
424,304,42240,1,0,0:0:0:0:
348,304,42387,1,0,0:0:0:0:
300,344,42535,1,0,0:0:0:0:
384,360,42682,2,0,L|384:264,1,70
384,220,42976,2,0,L|384:128,2,70
384,92,43417,1,0,0:0:0:0:
472,360,43858,5,0,0:0:0:0:
36,40,44152,5,0,0:0:0:0:
256,40,44740,5,0,0:0:0:0:
296,92,44887,1,0,0:0:0:0:
296,168,45034,1,0,0:0:0:0:
256,216,45182,1,0,0:0:0:0:
216,92,45329,2,0,L|216:188,1,70
152,192,45623,2,0,L|152:122,1,70
0,192,46211,5,0,0:0:0:0:
512,192,46505,5,0,0:0:0:0:
192,192,46799,5,0,0:0:0:0:
324,192,46946,5,0,0:0:0:0:
224,136,47093,6,0,L|160:80,1,70
288,136,47387,6,0,L|352:80,1,70
256,76,47681,5,0,0:0:0:0:
256,236,47828,5,0,0:0:0:0:
256,256,47976,1,0,0:0:0:0:
256,272,48123,1,0,0:0:0:0:
256,172,48270,5,0,0:0:0:0:
256,156,48417,1,0,0:0:0:0:
72,32,48564,5,0,0:0:0:0:
440,352,48858,5,0,0:0:0:0:
52,96,49005,5,0,0:0:0:0:
460,288,49152,5,0,0:0:0:0:
64,160,49299,5,0,0:0:0:0:
448,224,49446,6,0,B|447:185|447:185|452:152|452:152|448:100,2,105.000004005432
32,296,50034,5,0,0:0:0:0:
120,356,50181,1,0,0:0:0:0:
116,252,50328,1,0,0:0:0:0:
344,308,50476,5,0,0:0:0:0:
256,248,50623,1,0,0:0:0:0:
260,352,50770,1,0,0:0:0:0:
188,192,50917,5,0,0:0:0:0:
188,304,51064,1,0,0:0:0:0:
344,308,51211,5,0,0:0:0:0:
32,296,51358,5,0,0:0:0:0:
312,248,51505,5,0,0:0:0:0:
76,248,51652,5,0,0:0:0:0:
156,192,51799,6,0,B|156:168|156:168|168:140|156:108|156:108|156:68,2,105.000004005432
388,144,52387,5,0,0:0:0:0:
440,192,52534,1,0,0:0:0:0:
336,192,52681,1,0,0:0:0:0:
124,144,52828,6,0,L|124:28,1,105.000004005432
176,192,53122,1,0,0:0:0:0:
72,192,53270,1,0,0:0:0:0:
124,240,53417,1,0,0:0:0:0:
440,192,53564,5,0,0:0:0:0:
72,192,53711,5,0,0:0:0:0:
336,192,53858,5,0,0:0:0:0:
176,192,54005,5,0,0:0:0:0:
300,92,54152,6,0,P|256:68|208:100,2,105.000004005432
400,284,54740,5,0,0:0:0:0:
504,284,54887,1,0,0:0:0:0:
452,192,55034,1,0,0:0:0:0:
452,296,55182,1,0,0:0:0:0:
112,284,55328,5,0,0:0:0:0:
8,284,55475,1,0,0:0:0:0:
60,192,55622,1,0,0:0:0:0:
60,296,55770,1,0,0:0:0:0:
368,340,55917,5,0,0:0:0:0:
144,340,56064,5,0,0:0:0:0:
312,308,56211,5,0,0:0:0:0:
192,304,56358,5,0,0:0:0:0:
256,32,56505,6,0,B|248:68|248:68|256:96|256:96|248:136|256:172,2,105.000004005432
256,360,56946,5,0,0:0:0:0:
188,280,57093,1,0,0:0:0:0:
324,280,57240,1,0,0:0:0:0:
256,24,57387,5,0,0:0:0:0:
188,104,57534,2,0,L|300:104,1,105.000004005432
308,192,57828,2,0,P|256:176|200:192,2,105.000004005432
64,304,58270,5,0,0:0:0:0:
64,288,58368,1,0,0:0:0:0:
64,272,58466,1,0,0:0:0:0:
448,304,58564,5,0,0:0:0:0:
448,288,58662,1,0,0:0:0:0:
448,272,58760,1,0,0:0:0:0:
64,256,58858,6,0,B|65:217|65:217|60:184|60:184|64:132,2,105.000004005432
480,296,59446,5,0,0:0:0:0:
392,356,59593,1,0,0:0:0:0:
396,252,59740,1,0,0:0:0:0:
228,308,59888,5,0,0:0:0:0:
316,248,60035,1,0,0:0:0:0:
312,352,60182,1,0,0:0:0:0:
356,192,60329,5,0,0:0:0:0:
356,304,60476,1,0,0:0:0:0:
228,308,60623,5,0,0:0:0:0:
480,296,60770,5,0,0:0:0:0:
176,348,60917,5,0,0:0:0:0:
436,340,61064,5,0,0:0:0:0:
356,192,61211,6,0,B|356:168|356:168|344:140|356:108|356:108|356:68,2,105.000004005432
124,144,61799,5,0,0:0:0:0:
72,192,61946,1,0,0:0:0:0:
176,192,62093,1,0,0:0:0:0:
388,144,62240,6,0,L|388:28,1,105.000004005432
336,192,62534,1,0,0:0:0:0:
440,192,62682,1,0,0:0:0:0:
388,240,62829,1,0,0:0:0:0:
72,192,62976,5,0,0:0:0:0:
440,192,63123,5,0,0:0:0:0:
176,192,63270,5,0,0:0:0:0:
336,192,63417,5,0,0:0:0:0:
212,92,63564,6,0,P|256:68|304:100,2,105.000004005432
112,284,64152,5,0,0:0:0:0:
8,284,64299,1,0,0:0:0:0:
60,192,64446,1,0,0:0:0:0:
60,296,64594,1,0,0:0:0:0:
400,284,64740,5,0,0:0:0:0:
504,284,64887,1,0,0:0:0:0:
452,192,65034,1,0,0:0:0:0:
452,296,65182,1,0,0:0:0:0:
144,340,65328,5,0,0:0:0:0:
368,340,65475,5,0,0:0:0:0:
100,280,65622,5,0,0:0:0:0:
404,280,65769,5,0,0:0:0:0:
256,176,65917,6,0,B|264:212|264:212|256:240|256:240|264:280|256:316,2,105.000004005432
256,360,66358,5,0,0:0:0:0:
324,280,66505,1,0,0:0:0:0:
188,280,66652,1,0,0:0:0:0:
256,24,66799,5,0,0:0:0:0:
324,104,66946,2,0,L|212:104,1,105.000004005432
204,192,67240,2,0,P|256:176|312:192,2,105.000004005432
448,304,67682,5,0,0:0:0:0:
448,288,67780,1,0,0:0:0:0:
448,272,67878,1,0,0:0:0:0:
64,304,67976,5,0,0:0:0:0:
64,288,68074,1,0,0:0:0:0:
64,272,68172,1,0,0:0:0:0:
0,192,68270,6,0,L|84:192,1,70
512,192,68711,6,0,L|436:192,1,70
0,384,69152,6,0,L|100:384,1,70
512,384,69593,6,0,L|442:384,1,70
256,48,70034,5,0,0:0:0:0:
256,188,70328,1,0,0:0:0:0:
0,0,70623,6,0,L|84:0,1,70
512,0,71064,6,0,L|436:0,1,70
160,192,71505,6,0,L|260:192,1,70
352,192,71946,6,0,L|252:192,1,70
256,192,72387,5,0,0:0:0:0:
256,352,72681,5,0,0:0:0:0:
256,272,72828,1,0,0:0:0:0:
176,80,72976,6,0,P|212:72|256:80,1,70
212,140,73270,1,0,0:0:0:0:
212,140,73417,1,0,0:0:0:0:
176,304,73564,6,0,P|212:312|256:304,1,70
212,244,73858,1,0,0:0:0:0:
128,144,74005,6,0,P|136:180|128:224,1,70
64,188,74299,1,0,0:0:0:0:
312,272,74446,6,0,P|304:236|312:192,1,70
372,232,74740,2,0,L|460:232,1,70
500,268,75034,2,0,P|508:232|500:188,1,70
256,44,75328,5,0,0:0:0:0:
256,112,75475,2,0,P|218:102|194:78,1,70
256,244,75770,5,0,0:0:0:0:
256,312,75917,1,0,0:0:0:0:
256,380,76064,1,0,0:0:0:0:
256,112,76211,6,0,P|293:102|317:78,1,70
256,44,76505,1,0,0:0:0:0:
256,244,76652,6,0,L|256:156,1,70
192,192,76946,1,0,0:0:0:0:
256,312,77093,6,0,L|256:392,3,70
36,192,77681,6,0,B|76:184|76:184|120:192,1,70
176,192,77976,1,0,0:0:0:0:
244,192,78123,1,0,0:0:0:0:
476,192,78270,6,0,B|436:184|436:184|392:192,1,70
336,192,78564,1,0,0:0:0:0:
336,260,78711,2,0,B|328:300|328:300|336:344,2,70
396,300,79152,1,0,0:0:0:0:
256,68,79446,5,0,0:0:0:0:
68,192,79740,6,0,B|76:232|76:232|68:276,1,70
68,329,80034,2,0,B|62:300|62:300|70:260,1,70
140,256,80328,1,0,0:0:0:0:
212,256,80476,2,0,L|288:256,1,70
256,68,80917,5,0,0:0:0:0:
256,136,81211,2,0,L|256:292,1,140
56,116,81799,6,0,L|116:116,1,35
456,172,81946,6,0,L|412:172,1,35
56,172,82093,6,0,L|112:172,1,35
456,228,82240,6,0,L|421:228,1,35
256,192,82387,6,0,L|256:100,1,70
256,252,82681,2,0,L|256:344,1,70
256,52,82976,2,0,L|256:136,1,70
256,322,83270,5,0,0:0:0:0:
256,252,83417,1,0,0:0:0:0:
192,288,83564,1,0,0:0:0:0:
316,288,83711,1,0,0:0:0:0:
184,192,83858,6,0,P|256:172|324:192,1,140
16,60,84446,5,0,0:0:0:0:
84,60,84593,1,0,0:0:0:0:
8,192,84740,6,0,L|100:192,1,70
496,60,85034,5,0,0:0:0:0:
428,60,85181,1,0,0:0:0:0:
504,192,85328,6,0,L|412:192,1,70
16,324,85623,5,0,0:0:0:0:
84,324,85770,1,0,0:0:0:0:
256,192,85917,6,0,L|256:100,1,70
256,256,86211,1,0,0:0:0:0:
256,32,86358,5,0,0:0:0:0:
256,100,86505,1,0,0:0:0:0:
496,68,86652,5,0,0:0:0:0:
16,60,86799,5,0,0:0:0:0:
256,320,86946,5,0,0:0:0:0:
32,320,87093,6,0,B|60:312|60:312|80:264|104:264,1,70
128,328,87387,1,0,0:0:0:0:
172,276,87534,1,0,0:0:0:0:
228,316,87681,1,0,0:0:0:0:
212,64,87976,6,0,L|272:116,1,70
176,116,88270,2,0,L|240:172,1,70
288,212,88564,5,0,0:0:0:0:
288,212,88637,1,0,0:0:0:0:
288,212,88711,1,0,0:0:0:0:
176,116,88858,5,0,0:0:0:0:
16,192,89152,6,0,P|40:164|132:192,1,140
72,228,89593,5,0,0:0:0:0:
72,296,89740,1,0,0:0:0:0:
72,364,89887,1,0,0:0:0:0:
136,296,90034,2,0,L|216:296,1,70
276,296,90328,1,0,0:0:0:0:
348,296,90476,1,0,0:0:0:0:
256,52,90623,6,0,L|256:132,1,70
256,192,90917,1,0,0:0:0:0:
256,192,91064,1,0,0:0:0:0:
256,52,91211,5,0,0:0:0:0:
48,64,91505,5,0,0:0:0:0:
440,192,91652,5,0,0:0:0:0:
32,320,91799,6,0,B|60:312|60:312|80:264|104:264,1,70
12,260,92093,1,0,0:0:0:0:
12,192,92240,1,0,0:0:0:0:
80,192,92387,1,0,0:0:0:0:
320,160,92681,6,0,L|260:216,1,70
312,260,92976,2,0,L|368:208,1,70
392,148,93270,5,0,0:0:0:0:
392,148,93343,1,0,0:0:0:0:
392,148,93417,1,0,0:0:0:0:
268,207,93564,5,0,0:0:0:0:
452,184,93858,6,0,P|428:212|336:184,1,140
24,192,94152,5,0,0:0:0:0:
452,40,94446,5,0,0:0:0:0:
452,108,94593,1,0,0:0:0:0:
24,256,94740,5,0,0:0:0:0:
452,344,95034,5,0,0:0:0:0:
452,276,95181,1,0,0:0:0:0:
24,124,95328,5,0,0:0:0:0:
24,52,95476,1,0,0:0:0:0:
384,56,95623,5,0,0:0:0:0:
384,56,95917,6,0,B|420:40|460:40|460:40|372:16|336:40|336:40|316:32|316:32|276:20|245:40,1,280
264,32,96505,5,0,0:0:0:0:
216,84,96652,1,0,0:0:0:0:
212,152,96799,1,0,0:0:0:0:
212,224,96947,1,0,0:0:0:0:
80,120,97094,2,0,L|176:120,1,70
80,188,97387,2,0,L|176:188,1,70
40,360,97976,5,0,0:0:0:0:
476,40,98270,5,0,0:0:0:0:
36,40,98564,5,0,0:0:0:0:
88,80,98711,1,0,0:0:0:0:
144,120,98858,1,0,0:0:0:0:
200,164,99006,1,0,0:0:0:0:
28,112,99153,2,0,L|28:208,1,70
88,156,99447,2,0,L|88:248,2,70
88,292,99888,1,0,0:0:0:0:
40,24,100329,5,0,0:0:0:0:
476,344,100623,5,0,0:0:0:0:
256,344,101211,5,0,0:0:0:0:
216,292,101358,1,0,0:0:0:0:
216,216,101505,1,0,0:0:0:0:
256,168,101653,1,0,0:0:0:0:
296,292,101800,2,0,B|288:256|288:256|296:196,1,70
360,184,102093,2,0,B|364:216|364:216|356:252,1,70
256,0,102681,5,0,0:0:0:0:
256,380,102976,5,0,0:0:0:0:
320,192,103270,5,0,0:0:0:0:
188,192,103417,5,0,0:0:0:0:
288,248,103564,6,0,P|312:280|352:304,1,70
224,248,103858,6,0,P|200:280|160:304,1,70
256,192,104152,5,0,0:0:0:0:
256,68,104299,5,0,0:0:0:0:
256,48,104447,1,0,0:0:0:0:
256,32,104594,1,0,0:0:0:0:
256,308,104741,5,0,0:0:0:0:
256,324,104888,1,0,0:0:0:0:
256,108,105035,5,0,0:0:0:0:
72,192,105329,5,0,0:0:0:0:
440,192,105476,5,0,0:0:0:0:
156,128,105623,5,0,0:0:0:0:
356,128,105770,5,0,0:0:0:0:
32,36,105917,6,0,B|71:37|71:37|104:32|104:32|156:36,2,105.000004005432
0,300,106505,5,0,0:0:0:0:
4,196,106652,1,0,0:0:0:0:
92,252,106799,1,0,0:0:0:0:
416,68,106947,5,0,0:0:0:0:
468,160,107094,1,0,0:0:0:0:
364,160,107241,1,0,0:0:0:0:
256,196,107388,5,0,0:0:0:0:
208,104,107535,1,0,0:0:0:0:
364,160,107682,5,0,0:0:0:0:
92,252,107829,5,0,0:0:0:0:
364,160,107976,5,0,0:0:0:0:
92,252,108123,5,0,0:0:0:0:
256,196,108270,6,0,B|256:220|256:220|244:252|256:280|256:280|284:260,2,105.000004005432
304,60,108858,5,0,0:0:0:0:
256,8,109005,1,0,0:0:0:0:
256,112,109152,1,0,0:0:0:0:
304,324,109299,6,0,L|420:324,1,105.000004005432
256,272,109593,1,0,0:0:0:0:
256,376,109741,1,0,0:0:0:0:
208,324,109888,1,0,0:0:0:0:
256,8,110035,5,0,0:0:0:0:
256,376,110182,5,0,0:0:0:0:
256,112,110329,5,0,0:0:0:0:
256,272,110476,5,0,0:0:0:0:
100,192,110623,6,0,B|24:172|24:172|52:160,2,105.000004005432
256,272,111211,5,0,0:0:0:0:
256,168,111358,1,0,0:0:0:0:
256,64,111505,1,0,0:0:0:0:
348,116,111653,1,0,0:0:0:0:
256,272,111799,5,0,0:0:0:0:
256,168,111946,1,0,0:0:0:0:
256,64,112093,1,0,0:0:0:0:
164,116,112241,1,0,0:0:0:0:
256,372,112388,5,0,0:0:0:0:
416,192,112535,5,0,0:0:0:0:
88,72,112682,5,0,0:0:0:0:
256,308,112829,5,0,0:0:0:0:
416,192,112976,6,0,B|380:200|380:200|352:192|352:192|312:200|276:192,2,105.000004005432
324,124,113417,5,0,0:0:0:0:
256,204,113564,1,0,0:0:0:0:
256,100,113711,1,0,0:0:0:0:
40,192,113858,5,0,0:0:0:0:
40,297,114005,2,0,L|40:185,1,105.000004005432
40,92,114299,2,0,L|40:200,2,105.000004005432
224,192,114741,5,0,0:0:0:0:
240,192,114839,1,0,0:0:0:0:
256,192,114937,1,0,0:0:0:0:
440,192,115035,5,0,0:0:0:0:
456,192,115133,1,0,0:0:0:0:
472,192,115231,1,0,0:0:0:0:
480,36,115328,6,0,B|441:37|441:37|408:32|408:32|356:36,2,105.000004005432
512,300,115916,5,0,0:0:0:0:
508,196,116063,1,0,0:0:0:0:
420,252,116210,1,0,0:0:0:0:
96,68,116358,5,0,0:0:0:0:
44,160,116505,1,0,0:0:0:0:
148,160,116652,1,0,0:0:0:0:
256,196,116799,5,0,0:0:0:0:
304,104,116946,1,0,0:0:0:0:
148,160,117093,5,0,0:0:0:0:
420,252,117240,5,0,0:0:0:0:
148,160,117387,5,0,0:0:0:0:
420,252,117534,5,0,0:0:0:0:
256,196,117681,6,0,B|256:220|256:220|268:252|256:280|256:280|228:260,2,105.000004005432
208,60,118269,5,0,0:0:0:0:
256,8,118416,1,0,0:0:0:0:
256,112,118563,1,0,0:0:0:0:
208,324,118710,6,0,L|92:324,1,105.000004005432
256,272,119004,1,0,0:0:0:0:
256,376,119152,1,0,0:0:0:0:
304,324,119299,1,0,0:0:0:0:
256,8,119446,5,0,0:0:0:0:
256,376,119593,5,0,0:0:0:0:
256,112,119740,5,0,0:0:0:0:
256,272,119887,5,0,0:0:0:0:
412,192,120034,6,0,B|488:172|488:172|460:160,2,105.000004005432
256,272,120622,5,0,0:0:0:0:
256,168,120769,1,0,0:0:0:0:
256,64,120916,1,0,0:0:0:0:
164,116,121064,1,0,0:0:0:0:
256,272,121210,5,0,0:0:0:0:
256,168,121357,1,0,0:0:0:0:
256,64,121504,1,0,0:0:0:0:
348,116,121652,1,0,0:0:0:0:
256,372,121799,5,0,0:0:0:0:
96,192,121946,5,0,0:0:0:0:
424,72,122093,5,0,0:0:0:0:
256,308,122240,5,0,0:0:0:0:
96,192,122387,6,0,B|132:200|132:200|160:192|160:192|200:200|236:192,2,105.000004005432
188,124,122828,5,0,0:0:0:0:
256,204,122975,1,0,0:0:0:0:
256,100,123122,1,0,0:0:0:0:
472,192,123269,5,0,0:0:0:0:
472,297,123416,2,0,L|472:185,1,105.000004005432
472,92,123710,2,0,L|472:200,2,105.000004005432
188,192,124152,6,0,B|256:148|256:148|240:176|236:208,1,105.000004005432
188,272,124446,2,0,B|256:316|256:316|240:288|236:256,1,105.000004005432
296,228,127902,6,0,L|372:228,1,52.5000020027161
24,236,128196,5,0,0:0:0:0:
24,156,128343,1,0,0:0:0:0:
256,64,128490,5,0,0:0:0:0:
256,76,128563,1,0,0:0:0:0:
256,88,128637,1,0,0:0:0:0:
256,308,128784,6,0,L|256:268,1,26.2500010013581
256,268,128931,2,0,L|256:228,1,26.2500010013581
256,156,129078,5,0,0:0:0:0:
88,196,129372,6,0,L|156:196,2,52.5000020027161
452,56,129813,5,0,0:0:0:0:
372,56,129960,1,0,0:0:0:0:
352,280,130254,5,0,0:0:0:0:
340,272,130328,1,0,0:0:0:0:
328,264,130402,1,0,0:0:0:0:
88,128,130549,6,0,L|116:128,1,26.2500010013581
128,128,130696,2,0,L|168:128,1,26.2500010013581
352,104,130843,5,0,0:0:0:0:
340,112,130917,1,0,0:0:0:0:
328,120,130991,1,0,0:0:0:0:
80,304,131137,6,0,L|136:272,1,52.5000020027161
400,272,131431,6,0,P|416:208|280:304,1,420.000016021729
320,220,131872,6,0,P|336:284|152:284,1,315.000012016297
244,272,132460,5,0,0:0:0:0:
64,88,132607,6,0,L|116:88,1,52.5000020027161
64,272,132902,5,0,0:0:0:0:
64,192,133049,1,0,0:0:0:0:
256,164,133196,6,0,B|256:236,1,52.5000020027161
448,272,133490,5,0,0:0:0:0:
448,192,133637,1,0,0:0:0:0:
256,352,133784,5,0,0:0:0:0:
256,340,133857,1,0,0:0:0:0:
256,328,133931,1,0,0:0:0:0:
256,156,134078,5,0,0:0:0:0:
256,236,134225,1,0,0:0:0:0:
40,192,134372,6,0,B|128:96|128:96|88:172,1,210.000008010865
472,192,134666,6,0,B|384:96|384:96|424:172,1,210.000008010865
256,48,134960,5,0,0:0:0:0:
256,128,135107,1,0,0:0:0:0:
256,292,135254,6,0,L|256:220,1,52.5000020027161
256,75,135549,6,0,L|256:147,1,52.5000020027161
72,192,135843,5,0,0:0:0:0:
436,192,135990,5,0,0:0:0:0:
256,136,136137,6,0,B|248:144|248:144|264:152|264:152|248:160|248:160|264:168|264:168|248:176|248:176|264:184|264:184|248:192|248:192|264:200|264:200|248:208|248:208|264:216|264:216|248:224|248:224|248:280,1,210.000008010865
168,56,136431,6,0,B|176:64|176:64|160:72|160:72|176:80|176:80|160:88|160:88|176:96|176:96|160:104|160:104|176:112|176:112|160:120|160:120|176:128|176:128|160:136|160:136|176:144|176:144|176:163,1,210.000008010865
176,236,136725,5,0,0:0:0:0:
512,0,136872,5,0,0:0:0:0:
0,0,137019,5,0,0:0:0:0:
248,316,137166,5,0,0:0:0:0:
476,192,137313,6,0,P|464:160|416:120,1,70
256,20,137607,5,0,0:0:0:0:
256,20,137754,1,0,0:0:0:0:
36,192,137902,6,0,P|48:160|96:120,1,70
256,364,138196,5,0,0:0:0:0:
256,364,138343,1,0,0:0:0:0:
256,192,138490,6,0,P|288:204|328:252,1,70
24,192,138784,5,0,0:0:0:0:
24,192,138931,1,0,0:0:0:0:
504,192,139078,6,0,B|432:208|432:208|368:192,1,140
436,128,139519,1,0,0:0:0:0:
256,64,139666,6,0,B|224:48|224:48|184:64,1,70
256,364,139960,5,0,0:0:0:0:
256,364,140107,1,0,0:0:0:0:
64,192,140254,6,0,B|48:224|48:224|64:264,1,70
256,152,140549,5,0,0:0:0:0:
256,152,140696,1,0,0:0:0:0:
256,320,140843,6,0,B|288:336|288:336|328:320,1,70
256,224,141137,5,0,0:0:0:0:
256,224,141284,1,0,0:0:0:0:
488,200,141431,6,0,B|480:192|480:192|472:208|472:208|464:192|464:192|456:208|456:208|448:192|448:192|440:208|440:208|432:192|432:192|424:208|424:208|416:192|416:192|408:208|408:208|400:192|400:192|344:192,2,210.000008010865
48,40,142019,5,0,0:0:0:0:
48,40,142166,1,0,0:0:0:0:
0,192,142313,6,0,L|72:192,1,70
380,192,142607,5,0,0:0:0:0:
380,192,142754,1,0,0:0:0:0:
256,0,142902,6,0,L|256:72,1,70
256,316,143196,5,0,0:0:0:0:
256,316,143343,1,0,0:0:0:0:
448,192,143490,6,0,L|376:192,1,70
132,192,143784,5,0,0:0:0:0:
132,192,143931,1,0,0:0:0:0:
256,208,144078,6,0,B|300:192|300:192|252:192,1,70
152,48,144372,5,0,0:0:0:0:
256,48,144519,1,0,0:0:0:0:
152,336,144666,5,0,0:0:0:0:
256,336,144813,1,0,0:0:0:0:
360,48,144960,5,0,0:0:0:0:
256,48,145107,1,0,0:0:0:0:
360,336,145254,5,0,0:0:0:0:
256,336,145401,1,0,0:0:0:0:
32,192,145549,5,0,0:0:0:0:
136,192,145696,1,0,0:0:0:0:
480,192,145843,5,0,0:0:0:0:
376,192,145990,1,0,0:0:0:0:
256,24,146137,5,0,0:0:0:0:
256,128,146284,1,0,0:0:0:0:
256,360,146431,5,0,0:0:0:0:
256,256,146578,1,0,0:0:0:0:
40,56,146725,6,0,B|124:76|124:76|88:72|64:88,1,140
108,268,147019,5,0,0:0:0:0:
108,248,147093,1,0,0:0:0:0:
108,228,147166,1,0,0:0:0:0:
472,56,147313,6,0,B|388:76|388:76|424:72|448:88,1,140
404,268,147607,5,0,0:0:0:0:
404,248,147681,1,0,0:0:0:0:
404,228,147754,1,0,0:0:0:0:
40,328,147902,6,0,B|124:308|124:308|88:312|64:296,1,140
108,188,148196,5,0,0:0:0:0:
108,208,148270,1,0,0:0:0:0:
108,228,148343,1,0,0:0:0:0:
472,328,148490,6,0,B|388:308|388:308|424:312|448:296,1,140
404,188,148784,5,0,0:0:0:0:
404,208,148858,1,0,0:0:0:0:
404,228,148931,1,0,0:0:0:0:
24,192,149078,6,0,P|104:192|104:112,1,140
256,276,149372,5,0,0:0:0:0:
256,256,149446,1,0,0:0:0:0:
256,236,149519,1,0,0:0:0:0:
488,192,149666,6,0,P|408:192|408:112,1,140
256,108,149960,5,0,0:0:0:0:
256,128,150034,1,0,0:0:0:0:
256,148,150107,1,0,0:0:0:0:
24,192,150254,6,0,B|104:192|104:192|104:112,1,140
104,64,150548,5,0,0:0:0:0:
104,44,150622,1,0,0:0:0:0:
104,24,150695,1,0,0:0:0:0:
488,192,150843,6,0,B|408:192|408:192|408:112,1,140
408,264,151137,5,0,0:0:0:0:
408,284,151211,1,0,0:0:0:0:
408,304,151284,1,0,0:0:0:0:
76,192,151431,5,0,0:0:0:0:
56,192,151504,1,0,0:0:0:0:
36,192,151578,1,0,0:0:0:0:
436,192,151725,5,0,0:0:0:0:
456,192,151798,1,0,0:0:0:0:
476,192,151872,1,0,0:0:0:0:
256,76,152019,5,0,0:0:0:0:
256,56,152092,1,0,0:0:0:0:
256,36,152166,1,0,0:0:0:0:
256,324,152313,5,0,0:0:0:0:
256,344,152386,1,0,0:0:0:0:
256,364,152460,1,0,0:0:0:0:
100,64,152607,5,0,0:0:0:0:
116,80,152681,1,0,0:0:0:0:
132,96,152754,1,0,0:0:0:0:
100,320,152902,5,0,0:0:0:0:
116,304,152976,1,0,0:0:0:0:
132,288,153049,1,0,0:0:0:0:
412,64,153196,5,0,0:0:0:0:
396,80,153270,1,0,0:0:0:0:
380,96,153343,1,0,0:0:0:0:
412,320,153491,5,0,0:0:0:0:
396,304,153565,1,0,0:0:0:0:
380,288,153638,1,0,0:0:0:0:
256,192,153784,6,0,L|204:192,1,35
256,132,153931,6,0,L|208:132,1,35
256,72,154078,6,0,L|221:72,1,35
256,12,154225,6,0,L|221:12,1,35
256,192,154372,6,0,L|204:192,1,35
256,252,154519,6,0,L|208:252,1,35
256,312,154666,6,0,L|221:312,1,35
256,372,154813,6,0,L|221:372,1,35
476,192,154960,5,0,0:0:0:0:
424,136,155058,5,0,0:0:0:0:
376,192,155156,5,0,0:0:0:0:
36,192,155254,5,0,0:0:0:0:
88,136,155352,5,0,0:0:0:0:
136,192,155450,5,0,0:0:0:0:
256,32,155549,5,0,0:0:0:0:
256,156,155696,5,0,0:0:0:0:
256,352,155843,5,0,0:0:0:0:
256,268,155990,5,0,0:0:0:0:
256,192,156137,12,0,158490,0:0:0:0:
