osu file format v14

[General]
AudioFilename: audio.mp3
AudioLeadIn: 0
PreviewTime: 105917
Countdown: 1
SampleSet: Normal
StackLeniency: 0.2
Mode: 0
LetterboxInBreaks: 0
WidescreenStoryboard: 0

[Editor]
Bookmarks: 149078,151431,153784,154960,156211
DistanceSpacing: 1.5
BeatDivisor: 4
GridSize: 4
TimelineZoom: 2.1

[Metadata]
Title:Grindhouse Megamix Sung by 50 Movies
TitleUnicode:Grindhouse Megamix Sung by 50 Movies
Artist:Mike Diva
ArtistUnicode:Mike Diva
Creator:Majii
Version:DEAD MEAT (AR 9.4)
Source:
Tags:electronic english youtuber friends or solo :>
BeatmapID:1489262
BeatmapSetID:703984

[Difficulty]
HPDrainRate:6
CircleSize:3
OverallDifficulty:8
ApproachRate:9.4
SliderMultiplier:1.4
SliderTickRate:1

[Events]
//Background and Video events
0,0,"1452359939847.jpg",0,0
//Break Periods
2,124940,126102
//Storyboard Layer 0 (Background)
//Storyboard Layer 1 (Fail)
//Storyboard Layer 2 (Pass)
//Storyboard Layer 3 (Foreground)
//Storyboard Sound Samples

[TimingPoints]
2387.78328656316,294.117647058824,4,1,0,100,1,0
49446,-66.6666666666667,4,1,0,100,0,1
68270,-100,4,1,0,100,0,0
105917,-66.6666666666667,4,1,0,100,0,1
124740,-100,4,1,0,100,0,0
127902,294.117647058824,4,1,0,100,1,0
127902,-133.333333333333,4,1,0,100,0,0
131431,-66.6666666666667,4,1,0,100,0,0
132607,-133.333333333333,4,1,0,100,0,0
134372,-66.6666666666667,4,1,0,100,0,0
134960,-133.333333333333,4,1,0,100,0,0
136137,-66.6666666666667,4,1,0,100,0,0
137313,-100,4,1,0,100,0,0
139078,-50,4,1,0,100,0,0
139225,-100,4,1,0,100,0,0
141431,-66.6666666666667,4,1,0,100,0,0
141725,-100,4,1,0,100,0,0
144372,-66.6666666666667,4,1,0,100,0,0
146725,-100,4,1,0,100,0,0

[Colours]
Combo1 : 0,255,0
Combo2 : 255,0,0
Combo3 : 255,255,0
Combo4 : 0,255,255

[HitObjects]
24,192,2387,6,0,L|108:228,1,70
188,256,2681,1,0,0:0:0:0:
188,256,2828,1,0,0:0:0:0:
228,156,2976,2,0,P|264:176|288:224,1,70
72,141,3270,6,0,P|52:177|4:201,1,70
112,53,3564,2,0,P|132:17|180:-7,1,70
177,133,3858,1,0,0:0:0:0:
177,133,4005,1,0,0:0:0:0:
172,304,4152,5,0,0:0:0:0:
352,216,4299,1,0,0:0:0:0:
172,304,4446,1,0,0:0:0:0:
352,216,4593,1,0,0:0:0:0:
144,56,4740,6,0,P|108:76|84:124,1,70
56,196,5034,1,0,0:0:0:0:
56,196,5181,1,0,0:0:0:0:
116,280,5328,2,0,P|143:258|158:227,1,70
16,288,5623,2,0,P|8:324|16:368,1,70
360,52,5917,6,0,P|332:76|272:88,1,70
152,52,6358,2,0,P|180:76|240:88,1,70
256,264,6799,1,0,0:0:0:0:
256,36,6946,5,0,0:0:0:0:
256,44,7020,1,0,0:0:0:0:
256,52,7093,2,0,L|256:132,1,70
256,212,7387,1,0,0:0:0:0:
60,192,7534,1,0,0:0:0:0:
452,192,7681,5,0,0:0:0:0:
256,296,7828,1,0,0:0:0:0:
256,64,7976,1,0,0:0:0:0:
164,248,8123,1,0,0:0:0:0:
348,248,8270,2,0,L|348:160,1,70
476,139,8564,2,0,P|407:177|324:171,2,140
164,44,9446,5,0,0:0:0:0:
164,44,9520,1,0,0:0:0:0:
164,44,9593,1,0,0:0:0:0:
16,96,9740,2,0,P|72:100|108:92,1,70
174,197,10034,2,0,P|142:135|84:97,2,140
124,320,10917,5,0,0:0:0:0:
256,232,11211,1,0,0:0:0:0:
376,320,11505,1,0,0:0:0:0:
376,320,11799,5,0,0:0:0:0:
184,164,11946,1,0,0:0:0:0:
72,79,12093,2,0,L|188:167,1,140
348,296,12681,1,0,0:0:0:0:
256,72,12828,1,0,0:0:0:0:
124,200,12976,2,0,P|156:186|182:163,1,70
72,79,13270,1,0,0:0:0:0:
12,288,13564,6,0,L|104:280,1,70
184,268,13858,1,0,0:0:0:0:
364,224,14152,6,0,P|392:164|312:236,1,350
96,168,15034,6,0,P|76:132|176:184,1,350
212,292,15917,6,0,P|264:292|296:352,1,105
294,330,16211,1,0,0:0:0:0:
392,292,16358,1,0,0:0:0:0:
344,196,16505,1,0,0:0:0:0:
32,240,16799,6,0,L|104:284,1,70
184,228,17093,1,0,0:0:0:0:
92,176,17240,1,0,0:0:0:0:
32,112,17387,6,0,L|104:68,1,70
184,124,17681,1,0,0:0:0:0:
92,176,17828,1,0,0:0:0:0:
91,276,17976,6,0,L|19:232,1,70
344,276,18270,6,0,P|284:272|360:208,1,210
196,168,18858,6,0,B|128:168|128:168|80:216|80:216|24:184|32:136,1,210
172,48,19446,1,0,0:0:0:0:
152,296,19593,1,0,0:0:0:0:
276,128,19740,1,0,0:0:0:0:
280,256,19887,1,0,0:0:0:0:
344,56,20034,6,0,P|400:24|436:28,1,70
403,180,20328,2,0,P|370:170|344:148,1,70
264,32,20623,6,0,P|220:0|228:96,1,210
48,184,21211,6,0,L|76:248,1,70
48,336,21505,2,0,P|120:332|164:276,1,140
16,104,21946,1,0,0:0:0:0:
240,156,22093,2,0,P|208:180|188:220,1,70
320,116,22387,5,0,0:0:0:0:
288,244,22534,1,0,0:0:0:0:
392,204,22681,1,0,0:0:0:0:
16,104,22976,1,0,0:0:0:0:
128,268,23270,5,0,0:0:0:0:
192,168,23417,1,0,0:0:0:0:
128,268,23564,2,0,P|60:252|44:232,1,70
192,168,23858,1,0,0:0:0:0:
192,60,24152,1,0,0:0:0:0:
192,168,24299,1,0,0:0:0:0:
192,60,24446,5,0,0:0:0:0:
192,348,24593,1,0,0:0:0:0:
276,112,24740,1,0,0:0:0:0:
192,260,24887,1,0,0:0:0:0:
96,216,25034,1,0,0:0:0:0:
340,328,25328,2,0,L|252:288,1,70
440,216,25623,5,0,0:0:0:0:
440,216,25770,1,0,0:0:0:0:
324,144,25917,2,0,P|364:124|420:124,1,70
188,144,26211,2,0,P|148:124|92:124,1,70
264,232,26505,2,0,P|270:266|287:296,1,70
104,336,26799,1,0,0:0:0:0:
404,144,26946,2,0,P|440:96|424:12,1,140
372,172,27387,5,0,0:0:0:0:
120,324,27534,1,0,0:0:0:0:
348,68,27681,1,0,0:0:0:0:
108,68,27976,6,0,L|40:152,1,105
48,168,28270,6,0,L|92:224,2,70
152,296,28711,1,0,0:0:0:0:
400,212,29152,5,0,0:0:0:0:
220,184,29299,1,0,0:0:0:0:
320,96,29446,5,0,0:0:0:0:
140,68,29593,1,0,0:0:0:0:
304,304,29740,6,0,L|400:320,2,70
200,288,30181,1,0,0:0:0:0:
256,48,30328,1,0,0:0:0:0:
373,315,30476,1,0,0:0:0:0:
252,28,32387,6,0,L|252:120,1,70
384,220,32681,2,0,L|384:136,1,70
160,64,32976,6,0,P|112:48|68:60,1,70
264,328,33270,2,0,P|312:344|356:332,1,70
44,196,33564,1,0,0:0:0:0:
132,356,33711,1,0,0:0:0:0:
232,196,33858,1,0,0:0:0:0:
44,196,34005,1,0,0:0:0:0:
300,56,34152,6,0,L|268:118,1,70
332,304,34446,2,0,P|297:298|271:276,1,70
204,89,34740,2,0,L|294:130,2,70
108,44,35181,1,0,0:0:0:0:
368,64,35328,6,0,L|440:112,1,70
344,164,35623,2,0,L|416:212,1,70
316,268,35917,2,0,L|388:316,1,70
212,204,36211,1,0,0:0:0:0:
244,112,36358,1,0,0:0:0:0:
276,24,36505,1,0,0:0:0:0:
136,120,36652,1,0,0:0:0:0:
180,32,36799,1,0,0:0:0:0:
336,152,37093,1,0,0:0:0:0:
392,68,37240,6,0,P|440:96|456:128,1,70
232,152,37534,1,0,0:0:0:0:
304,240,37681,6,0,P|344:228|368:192,1,70
196,264,37976,2,0,P|208:304|244:328,1,70
361,207,38270,6,0,P|327:214|303:239,1,70
469,183,38565,2,0,P|461:149|436:125,1,70
260,60,38858,2,0,B|204:52|204:52|152:80|156:140,1,140
132,232,39299,1,0,0:0:0:0:
448,232,39446,6,0,L|420:308,1,70
56,64,40034,5,0,0:0:0:0:
336,116,40181,1,0,0:0:0:0:
56,64,40328,1,0,0:0:0:0:
336,116,40476,1,0,0:0:0:0:
148,304,40623,1,0,0:0:0:0:
148,304,40917,1,0,0:0:0:0:
424,164,41211,2,0,L|424:248,1,70
36,36,41505,5,0,0:0:0:0:
428,324,41799,5,0,0:0:0:0:
244,324,42093,5,0,0:0:0:0:
416,148,42240,1,0,0:0:0:0:
244,324,42387,1,0,0:0:0:0:
416,148,42535,1,0,0:0:0:0:
208,120,42682,1,0,0:0:0:0:
208,120,42828,1,0,0:0:0:0:
484,48,42976,1,0,0:0:0:0:
484,248,43196,5,0,0:0:0:0:
484,248,43270,2,0,L|484:332,1,70
484,136,43564,1,0,0:0:0:0:
96,72,43858,5,0,0:0:0:0:
372,364,44152,5,0,0:0:0:0:
208,268,44740,5,0,0:0:0:0:
296,48,44887,1,0,0:0:0:0:
208,268,45034,1,0,0:0:0:0:
296,48,45182,1,0,0:0:0:0:
60,76,45329,1,0,0:0:0:0:
60,76,45623,1,0,0:0:0:0:
324,356,45917,2,0,L|324:286,1,70
40,232,46211,5,0,0:0:0:0:
480,28,46505,5,0,0:0:0:0:
92,120,46799,5,0,0:0:0:0:
88,360,46946,1,0,0:0:0:0:
92,120,47093,1,0,0:0:0:0:
88,360,47241,1,0,0:0:0:0:
228,168,47388,1,0,0:0:0:0:
228,168,47534,1,0,0:0:0:0:
16,168,47682,1,0,0:0:0:0:
416,168,47976,2,0,L|488:168,1,70
16,308,48270,5,0,0:0:0:0:
156,28,48417,1,0,0:0:0:0:
460,72,48564,5,0,0:0:0:0:
116,372,48858,5,0,0:0:0:0:
256,88,49005,6,0,L|296:116,1,35
232,192,49152,2,0,L|272:220,1,35
216,288,49299,2,0,L|256:316,1,35
404,264,49446,6,0,P|432:184|412:48,1,210.000008010865
48,192,49887,1,0,0:0:0:0:
380,32,50034,6,0,L|272:48,1,105.000004005432
244,156,50328,2,0,L|347:140,1,105.000004005432
212,300,50623,5,0,0:0:0:0:
88,132,50770,1,0,0:0:0:0:
296,148,50917,1,0,0:0:0:0:
64,280,51064,1,0,0:0:0:0:
216,28,51211,1,0,0:0:0:0:
396,272,51358,1,0,0:0:0:0:
64,280,51505,1,0,0:0:0:0:
216,28,51652,1,0,0:0:0:0:
236,124,51799,6,0,B|332:188|332:188|380:156|444:180,1,210.000008010865
200,312,52240,1,0,0:0:0:0:
444,40,52387,6,0,P|392:56|336:56,1,105.000004005432
132,72,52681,2,0,P|181:56|234:55,1,105.000004005432
432,188,52976,5,0,0:0:0:0:
176,248,53123,1,0,0:0:0:0:
384,92,53270,1,0,0:0:0:0:
224,336,53417,1,0,0:0:0:0:
212,32,53564,5,0,0:0:0:0:
384,328,53711,1,0,0:0:0:0:
112,248,53858,1,0,0:0:0:0:
472,112,54005,1,0,0:0:0:0:
212,108,54152,6,0,B|212:232|212:232|260:252|308:216,1,210.000008010865
68,168,54593,1,0,0:0:0:0:
412,292,54740,6,0,B|356:292|356:292|304:308,1,105.000004005432
472,216,55034,2,0,B|457:169|457:169|457:113,1,105.000004005432
344,180,55329,5,0,0:0:0:0:
252,112,55476,1,0,0:0:0:0:
136,100,55623,1,0,0:0:0:0:
160,312,55770,1,0,0:0:0:0:
292,32,55917,1,0,0:0:0:0:
120,384,56064,1,0,0:0:0:0:
360,244,56211,1,0,0:0:0:0:
76,44,56358,1,0,0:0:0:0:
76,200,56505,6,0,P|120:144|268:132,1,210.000008010865
212,280,56946,1,0,0:0:0:0:
132,28,57093,6,0,L|24:44,1,105.000004005432
100,132,57387,2,0,L|108:244,1,105.000004005432
112,360,57682,5,0,0:0:0:0:
236,52,57829,1,0,0:0:0:0:
424,348,57976,1,0,0:0:0:0:
236,52,58123,1,0,0:0:0:0:
356,188,58270,5,0,0:0:0:0:
356,188,58368,1,0,0:0:0:0:
356,188,58466,1,0,0:0:0:0:
356,188,58564,1,0,0:0:0:0:
356,188,58662,1,0,0:0:0:0:
356,188,58760,1,0,0:0:0:0:
256,300,58858,6,0,P|351:338|450:310,1,210.000008010865
156,212,59299,1,0,0:0:0:0:
452,48,59446,6,0,B|396:40|396:40|344:64,1,105.000004005432
280,184,59740,2,0,B|336:192|336:192|380:172,1,105.000004005432
192,32,60035,5,0,0:0:0:0:
56,188,60182,1,0,0:0:0:0:
320,72,60329,1,0,0:0:0:0:
104,284,60476,1,0,0:0:0:0:
204,120,60623,1,0,0:0:0:0:
340,296,60770,1,0,0:0:0:0:
204,208,60917,1,0,0:0:0:0:
168,56,61064,1,0,0:0:0:0:
392,260,61211,6,0,B|349:242|301:274|301:274|205:210,1,210.000008010865
116,136,61652,1,0,0:0:0:0:
500,356,61799,6,0,L|392:372,1,105.000004005432
336,271,62093,2,0,L|440:256,1,105.000004005432
188,296,62388,5,0,0:0:0:0:
380,152,62535,1,0,0:0:0:0:
168,72,62682,1,0,0:0:0:0:
188,296,62829,1,0,0:0:0:0:
380,152,62976,5,0,0:0:0:0:
56,52,63123,5,0,0:0:0:0:
380,152,63270,5,0,0:0:0:0:
56,52,63417,5,0,0:0:0:0:
256,180,63564,6,0,B|256:248|256:248|348:280|344:380,1,210.000008010865
132,352,64005,1,0,0:0:0:0:
256,40,64152,6,0,L|148:56,1,105.000004005432
256,216,64446,2,0,L|359:231,1,105.000004005432
416,84,64741,5,0,0:0:0:0:
92,176,64888,1,0,0:0:0:0:
416,184,65035,1,0,0:0:0:0:
88,72,65182,1,0,0:0:0:0:
256,312,65329,1,0,0:0:0:0:
256,64,65476,1,0,0:0:0:0:
380,268,65623,1,0,0:0:0:0:
140,268,65770,1,0,0:0:0:0:
380,24,65917,6,0,P|436:68|448:216,1,210.000008010865
256,160,66358,1,0,0:0:0:0:
48,48,66505,6,0,L|48:176,1,105.000004005432
152,317,66799,2,0,L|152:212,1,105.000004005432
152,80,67094,5,0,0:0:0:0:
232,216,67241,1,0,0:0:0:0:
256,20,67388,1,0,0:0:0:0:
320,304,67535,1,0,0:0:0:0:
404,28,67682,5,0,0:0:0:0:
224,320,67829,1,0,0:0:0:0:
176,32,67976,5,0,0:0:0:0:
416,276,68123,1,0,0:0:0:0:
184,180,68270,5,0,0:0:0:0:
184,180,68417,2,0,L|264:136,1,70
400,60,68711,1,0,0:0:0:0:
272,256,68858,6,0,L|210:289,1,70
52,364,69152,1,0,0:0:0:0:
136,80,69299,6,0,L|216:36,1,70
372,40,69593,1,0,0:0:0:0:
256,248,69740,6,0,L|336:248,1,70
432,152,70034,2,0,L|340:152,1,70
472,336,70328,2,0,P|484:300|472:240,1,70
208,296,70623,5,0,0:0:0:0:
208,296,70770,2,0,L|164:216,1,70
84,84,71064,1,0,0:0:0:0:
352,216,71211,6,0,L|385:277,1,70
296,128,71505,1,0,0:0:0:0:
440,80,71652,6,0,L|406:18,1,70
492,172,71946,1,0,0:0:0:0:
172,296,72093,6,0,P|212:288|252:296,1,70
48,320,72387,2,0,P|44:285|51:251,1,70
256,48,72681,2,0,L|208:92,1,35
284,136,72828,2,0,L|236:180,1,35
224,192,72976,5,0,0:0:0:0:
80,316,73123,2,0,L|144:264,1,70
368,64,73417,1,0,0:0:0:0:
456,272,73564,6,0,L|456:360,1,70
280,152,73858,1,0,0:0:0:0:
56,88,74005,6,0,L|56:-4,1,70
256,288,74299,1,0,0:0:0:0:
92,192,74446,6,0,B|128:184|128:184|172:192,1,70
248,40,74740,2,0,B|256:76|256:76|248:120,1,70
56,96,75034,2,0,L|152:72,1,70
356,324,75328,5,0,0:0:0:0:
356,324,75476,2,0,L|420:260,1,70
324,176,75769,1,0,0:0:0:0:
324,176,75917,6,0,L|274:225,1,70
172,156,76210,1,0,0:0:0:0:
172,156,76358,6,0,L|236:92,1,70
92,240,76651,1,0,0:0:0:0:
280,292,76799,6,0,L|212:292,1,35
280,200,76946,2,0,L|212:200,1,35
396,304,77092,6,0,P|384:344|352:388,1,70
360,112,77386,2,0,P|392:92|456:88,1,70
128,76,77681,6,0,L|88:168,1,70
36,264,77976,1,0,0:0:0:0:
172,228,78123,1,0,0:0:0:0:
48,40,78270,6,0,P|108:32|148:44,1,70
244,92,78564,1,0,0:0:0:0:
120,160,78711,2,0,P|88:176|69:204,1,70
176,296,79005,1,0,0:0:0:0:
296,224,79152,1,0,0:0:0:0:
472,376,79446,1,0,0:0:0:0:
64,240,79740,5,0,0:0:0:0:
64,116,79887,1,0,0:0:0:0:
64,240,80034,2,0,L|128:292,1,70
176,156,80328,1,0,0:0:0:0:
136,32,80476,1,0,0:0:0:0:
316,128,80623,2,0,L|276:64,1,70
372,216,80917,1,0,0:0:0:0:
372,216,81064,1,0,0:0:0:0:
228,84,81211,6,0,L|372:84,1,140
156,200,81799,2,0,L|120:224,6,35
56,52,82387,6,0,L|132:84,1,70
52,180,82681,2,0,L|204:248,1,140
364,304,83270,1,0,0:0:0:0:
264,208,83417,1,0,0:0:0:0:
408,124,83564,2,0,L|324:172,1,70
316,56,83858,2,0,L|376:21,1,70
208,128,84152,1,0,0:0:0:0:
424,304,84446,5,0,0:0:0:0:
424,304,84593,1,0,0:0:0:0:
424,304,84740,2,0,L|272:308,1,140
412,184,85328,2,0,L|264:184,1,140
108,56,85917,2,0,L|108:140,1,70
8,112,86211,2,0,L|8:192,1,70
240,80,86505,6,0,L|172:80,1,35
212,160,86652,2,0,L|144:160,1,35
176,240,86799,2,0,L|108:240,1,35
140,324,86946,2,0,L|72:324,1,35
32,224,87093,6,0,P|92:216|116:196,1,70
36,88,87387,1,0,0:0:0:0:
36,88,87534,1,0,0:0:0:0:
152,308,87681,1,0,0:0:0:0:
216,144,87828,1,0,0:0:0:0:
216,144,87902,1,0,0:0:0:0:
216,144,87976,1,0,0:0:0:0:
320,240,88123,1,0,0:0:0:0:
428,148,88270,5,0,0:0:0:0:
332,44,88417,1,0,0:0:0:0:
468,80,88564,1,0,0:0:0:0:
316,140,88711,1,0,0:0:0:0:
112,124,88858,2,0,L|200:132,1,70
208,220,89152,6,0,P|209:185|201:151,1,70
464,204,89446,6,0,L|384:172,1,70
272,120,89740,1,0,0:0:0:0:
144,60,89887,1,0,0:0:0:0:
80,172,90034,2,0,L|164:184,2,70
420,228,90476,1,0,0:0:0:0:
420,228,90623,2,0,L|276:204,1,140
80,172,91211,1,0,0:0:0:0:
416,324,91505,5,0,0:0:0:0:
436,132,91652,1,0,0:0:0:0:
416,324,91799,6,0,P|476:316|500:296,1,70
308,192,92093,1,0,0:0:0:0:
308,192,92240,1,0,0:0:0:0:
216,296,92387,1,0,0:0:0:0:
124,188,92534,1,0,0:0:0:0:
124,188,92608,1,0,0:0:0:0:
124,188,92682,1,0,0:0:0:0:
216,84,92829,1,0,0:0:0:0:
88,316,92976,5,0,0:0:0:0:
20,144,93123,1,0,0:0:0:0:
220,200,93270,1,0,0:0:0:0:
136,28,93417,1,0,0:0:0:0:
344,48,93564,2,0,L|432:56,1,70
424,140,93858,6,0,P|444:104|448:60,1,70
152,64,94152,5,0,0:0:0:0:
344,68,94446,1,0,0:0:0:0:
480,320,94740,1,0,0:0:0:0:
40,320,95034,1,0,0:0:0:0:
256,296,95181,1,0,0:0:0:0:
312,144,95328,5,0,0:0:0:0:
184,144,95476,1,0,0:0:0:0:
256,372,95623,1,0,0:0:0:0:
256,24,95917,2,0,L|256:184,1,140
448,80,96505,5,0,0:0:0:0:
176,268,96652,1,0,0:0:0:0:
456,320,96799,1,0,0:0:0:0:
448,80,96947,1,0,0:0:0:0:
176,268,97094,1,0,0:0:0:0:
500,196,97388,1,0,0:0:0:0:
88,200,97682,2,0,L|88:116,1,70
476,348,97976,5,0,0:0:0:0:
88,60,98270,5,0,0:0:0:0:
256,60,98564,5,0,0:0:0:0:
256,272,98711,1,0,0:0:0:0:
444,64,98858,1,0,0:0:0:0:
444,64,99006,1,0,0:0:0:0:
304,264,99153,1,0,0:0:0:0:
304,264,99299,1,0,0:0:0:0:
444,64,99447,1,0,0:0:0:0:
28,136,99667,5,0,0:0:0:0:
28,136,99741,2,0,L|28:52,1,70
28,8,100035,1,0,0:0:0:0:
368,328,100329,5,0,0:0:0:0:
108,32,100623,5,0,0:0:0:0:
304,116,101211,5,0,0:0:0:0:
216,336,101358,1,0,0:0:0:0:
304,116,101505,1,0,0:0:0:0:
216,336,101653,1,0,0:0:0:0:
304,116,101800,1,0,0:0:0:0:
452,308,102094,1,0,0:0:0:0:
188,28,102388,2,0,L|188:98,1,70
472,152,102682,5,0,0:0:0:0:
32,356,102976,5,0,0:0:0:0:
416,376,103270,5,0,0:0:0:0:
232,160,103417,1,0,0:0:0:0:
484,100,103564,1,0,0:0:0:0:
416,376,103712,1,0,0:0:0:0:
232,160,103859,1,0,0:0:0:0:
416,376,104005,1,0,0:0:0:0:
484,100,104153,1,0,0:0:0:0:
96,216,104447,2,0,L|24:216,1,70
496,76,104741,5,0,0:0:0:0:
356,356,104888,1,0,0:0:0:0:
52,312,105035,5,0,0:0:0:0:
396,12,105329,5,0,0:0:0:0:
256,296,105476,6,0,L|216:268,1,35
280,192,105623,2,0,L|240:164,1,35
296,88,105770,2,0,L|256:60,1,35
108,120,105917,6,0,P|80:200|132:328,1,210.000008010865
464,192,106358,1,0,0:0:0:0:
132,352,106505,6,0,L|240:336,1,105.000004005432
268,228,106799,2,0,L|165:244,1,105.000004005432
300,84,107094,5,0,0:0:0:0:
424,252,107241,1,0,0:0:0:0:
216,236,107388,1,0,0:0:0:0:
424,252,107535,1,0,0:0:0:0:
296,356,107682,1,0,0:0:0:0:
300,84,107829,1,0,0:0:0:0:
216,236,107976,1,0,0:0:0:0:
136,80,108123,1,0,0:0:0:0:
276,260,108270,6,0,B|256:212|256:212|180:164|180:164|144:96,1,210.000008010865
312,72,108711,1,0,0:0:0:0:
68,344,108858,6,0,P|120:328|176:328,1,105.000004005432
380,312,109152,2,0,P|331:328|278:329,1,105.000004005432
80,196,109447,5,0,0:0:0:0:
336,136,109594,1,0,0:0:0:0:
128,292,109741,1,0,0:0:0:0:
288,48,109888,1,0,0:0:0:0:
300,352,110035,5,0,0:0:0:0:
128,56,110182,1,0,0:0:0:0:
384,232,110329,1,0,0:0:0:0:
72,124,110476,1,0,0:0:0:0:
300,272,110623,6,0,B|296:216|296:216|280:184|280:184|308:156|308:156|308:68,1,210.000008010865
476,172,111064,1,0,0:0:0:0:
128,28,111211,6,0,B|128:84|128:84|144:136,1,105.000004005432
48,180,111505,2,0,B|63:227|63:227|63:283,1,105.000004005432
172,356,111800,5,0,0:0:0:0:
260,272,111947,1,0,0:0:0:0:
380,304,112094,1,0,0:0:0:0:
352,72,112241,1,0,0:0:0:0:
220,352,112388,1,0,0:0:0:0:
392,0,112535,1,0,0:0:0:0:
152,140,112682,1,0,0:0:0:0:
436,340,112829,1,0,0:0:0:0:
436,184,112976,6,0,P|392:240|244:252,1,210.000008010865
300,104,113417,1,0,0:0:0:0:
380,356,113564,6,0,L|488:340,1,105.000004005432
412,252,113858,2,0,L|404:140,1,105.000004005432
400,24,114153,5,0,0:0:0:0:
256,196,114300,1,0,0:0:0:0:
88,36,114447,1,0,0:0:0:0:
256,344,114594,1,0,0:0:0:0:
256,24,114741,5,0,0:0:0:0:
256,52,114838,1,0,0:0:0:0:
256,84,114936,1,0,0:0:0:0:
256,112,115035,1,0,0:0:0:0:
256,140,115132,1,0,0:0:0:0:
256,168,115230,1,0,0:0:0:0:
352,144,115329,6,0,P|257:106|158:134,1,210.000008010865
416,200,115770,1,0,0:0:0:0:
128,312,115917,6,0,B|72:304|72:304|20:328,1,105.000004005432
112,212,116211,2,0,B|56:204|56:204|12:224,1,105.000004005432
208,260,116506,5,0,0:0:0:0:
428,320,116653,1,0,0:0:0:0:
172,144,116800,1,0,0:0:0:0:
488,264,116947,1,0,0:0:0:0:
208,32,117094,1,0,0:0:0:0:
504,184,117241,1,0,0:0:0:0:
64,148,117388,1,0,0:0:0:0:
336,204,117535,1,0,0:0:0:0:
32,240,117682,6,0,B|75:258|123:226|123:226|132:284|168:312|220:320,1,210.000008010865
232,212,118123,1,0,0:0:0:0:
12,28,118270,6,0,L|120:12,1,105.000004005432
176,113,118564,2,0,L|72:128,1,105.000004005432
324,88,118859,5,0,0:0:0:0:
108,312,119006,1,0,0:0:0:0:
344,312,119153,1,0,0:0:0:0:
132,96,119300,1,0,0:0:0:0:
484,144,119447,5,0,0:0:0:0:
232,32,119594,5,0,0:0:0:0:
220,356,119741,5,0,0:0:0:0:
480,352,119888,5,0,0:0:0:0:
252,204,120035,6,0,B|252:136|252:136|164:136|152:224,1,210.000008010865
336,68,120476,1,0,0:0:0:0:
256,344,120623,6,0,L|364:328,1,105.000004005432
256,168,120917,2,0,L|153:153,1,105.000004005432
60,332,121212,5,0,0:0:0:0:
244,64,121359,1,0,0:0:0:0:
144,360,121506,1,0,0:0:0:0:
168,48,121653,1,0,0:0:0:0:
224,360,121800,1,0,0:0:0:0:
92,48,121947,1,0,0:0:0:0:
292,316,122094,1,0,0:0:0:0:
28,88,122241,1,0,0:0:0:0:
132,360,122388,6,0,P|76:316|64:168,1,210.000008010865
256,224,122829,1,0,0:0:0:0:
464,336,122976,6,0,L|464:208,1,105.000004005432
360,67,123270,2,0,L|360:172,1,105.000004005432
360,304,123565,5,0,0:0:0:0:
280,168,123712,1,0,0:0:0:0:
256,364,123859,1,0,0:0:0:0:
192,80,124006,1,0,0:0:0:0:
108,356,124153,5,0,0:0:0:0:
288,64,124300,1,0,0:0:0:0:
56,192,124446,6,0,B|36:216|36:256|36:256|16:164|36:104,1,210.000008010865
464,40,127902,6,0,L|368:108,1,105.000004005432
288,156,128343,1,0,0:0:0:0:
216,80,128490,1,0,0:0:0:0:
216,80,128563,1,0,0:0:0:0:
216,80,128637,1,0,0:0:0:0:
128,136,128784,1,0,0:0:0:0:
364,312,129078,1,0,0:0:0:0:
364,312,129372,6,0,L|440:312,2,52.5000020027161
260,312,129813,1,0,0:0:0:0:
260,312,129960,1,0,0:0:0:0:
188,40,130254,6,0,L|152:100,2,52.5000020027161
108,168,130696,1,0,0:0:0:0:
32,96,130843,1,0,0:0:0:0:
32,96,130916,1,0,0:0:0:0:
32,96,130990,1,0,0:0:0:0:
0,196,131137,1,0,0:0:0:0:
0,196,131284,1,0,0:0:0:0:
148,32,131431,6,0,B|200:128|116:216|116:216|152:272|152:272|148:368,1,315.000012016297
204,328,132019,2,0,B|232:320|232:320|268:328|268:328|300:240|388:224,1,210.000008010865
396,256,132460,2,0,L|456:356,1,105.000004005432
336,156,132754,5,0,0:0:0:0:
264,80,132902,1,0,0:0:0:0:
160,72,133049,1,0,0:0:0:0:
60,96,133196,2,0,L|24:36,2,52.5000020027161
108,188,133637,1,0,0:0:0:0:
28,280,133784,2,0,L|68:280,2,26.2500010013581
172,280,134078,1,0,0:0:0:0:
172,280,134225,1,0,0:0:0:0:
380,40,134372,6,0,P|432:64|464:132,1,105.000004005432
168,120,134666,2,0,P|116:96|84:28,1,105.000004005432
336,192,134960,5,0,0:0:0:0:
336,192,135107,1,0,0:0:0:0:
240,324,135254,1,0,0:0:0:0:
240,324,135402,1,0,0:0:0:0:
176,164,135549,2,0,L|200:224,2,52.5000020027161
136,56,135990,1,0,0:0:0:0:
376,56,136137,6,0,B|324:88|324:88|280:164,1,105.000004005432
136,56,136431,2,0,B|188:88|188:88|232:164,1,105.000004005432
256,336,136725,5,0,0:0:0:0:
32,172,136872,1,0,0:0:0:0:
256,336,137019,1,0,0:0:0:0:
484,172,137166,1,0,0:0:0:0:
268,171,137313,6,0,P|241:192|208:204,1,70
195,68,137607,2,0,P|222:47|256:36,1,70
396,44,137902,1,0,0:0:0:0:
388,184,138049,1,0,0:0:0:0:
252,156,138196,2,0,P|272:128|304:100,1,70
348,280,138490,6,0,P|336:313|315:340,1,70
212,244,138784,2,0,P|164:232|136:208,1,70
380,80,139078,2,0,B|348:96|312:96|312:96|300:136|252:160,1,140
216,68,139373,1,0,0:0:0:0:
460,44,139520,1,0,0:0:0:0:
43,332,139666,6,0,P|70:311|104:300,1,70
236,348,139960,2,0,P|284:336|312:312,1,70
372,204,140255,1,0,0:0:0:0:
316,76,140402,1,0,0:0:0:0:
456,84,140549,2,0,L|456:8,1,70
172,52,140843,6,0,P|116:80|96:108,1,70
232,152,141137,2,0,P|280:140|308:116,1,70
60,368,141431,6,0,B|40:332|52:300|52:300|32:272|32:272|36:240|12:204,2,157.500006008148
280,240,142019,6,0,P|258:212|247:179,1,70
384,212,142313,2,0,P|401:241|407:276,1,70
280,336,142608,1,0,0:0:0:0:
204,208,142755,1,0,0:0:0:0:
460,212,142902,2,0,L|375:211,1,70
112,40,143196,6,0,P|56:68|36:96,1,70
224,156,143490,2,0,P|194:138|159:132,1,70
28,176,143785,1,0,0:0:0:0:
136,264,143932,1,0,0:0:0:0:
0,300,144079,1,0,0:0:0:0:
120,368,144226,1,0,0:0:0:0:
191,95,144372,6,0,P|219:151|272:184,1,105.000004005432
396,300,144666,2,0,P|368:244|315:211,1,105.000004005432
400,60,144961,1,0,0:0:0:0:
48,192,145108,1,0,0:0:0:0:
256,328,145254,6,0,P|312:300|356:232,1,105.000004005432
400,60,145549,2,0,P|344:88|300:156,1,105.000004005432
48,192,145843,2,0,P|84:229|131:251,1,105.000004005432
72,44,146137,5,0,0:0:0:0:
416,144,146284,1,0,0:0:0:0:
156,240,146431,5,0,0:0:0:0:
500,340,146578,1,0,0:0:0:0:
256,12,146725,6,0,L|256:68,2,35
260,152,147019,2,0,L|328:192,1,70
256,12,147313,2,0,L|256:68,2,35
216,216,147607,2,0,L|284:256,1,70
256,12,147901,2,0,L|256:72,2,35
176,284,148196,2,0,L|244:324,1,70
256,12,148490,2,0,L|256:64,2,35
136,348,148784,2,0,L|204:388,1,70
260,20,149078,5,0,0:0:0:0:
260,20,149152,1,0,0:0:0:0:
260,20,149225,1,0,0:0:0:0:
388,208,149372,6,0,L|321:185,1,70
260,20,149666,1,0,0:0:0:0:
260,20,149740,1,0,0:0:0:0:
260,20,149813,1,0,0:0:0:0:
124,208,149960,6,0,L|190:185,1,70
264,104,150254,1,0,0:0:0:0:
264,104,150328,1,0,0:0:0:0:
264,104,150401,1,0,0:0:0:0:
388,280,150549,6,0,L|321:302,1,70
264,192,150843,1,0,0:0:0:0:
264,192,150917,1,0,0:0:0:0:
264,192,150990,1,0,0:0:0:0:
124,284,151137,6,0,L|190:306,1,70
104,60,151431,6,0,L|72:104,2,35
176,100,151725,2,0,L|144:144,2,35
252,136,152019,2,0,L|220:180,2,35
328,176,152313,2,0,L|296:220,2,35
420,56,152607,6,0,L|388:100,2,35
460,204,152902,2,0,L|428:248,2,35
288,68,153196,2,0,L|256:112,2,35
296,236,153490,2,0,L|264:280,2,35
28,132,153784,5,0,0:0:0:0:
76,132,153882,1,0,0:0:0:0:
120,144,153980,1,0,0:0:0:0:
156,172,154078,1,0,0:0:0:0:
176,212,154176,1,0,0:0:0:0:
180,260,154274,1,0,0:0:0:0:
224,240,154372,5,0,0:0:0:0:
264,216,154470,1,0,0:0:0:0:
304,196,154568,1,0,0:0:0:0:
344,176,154666,1,0,0:0:0:0:
384,156,154764,1,0,0:0:0:0:
428,136,154862,1,0,0:0:0:0:
472,116,154960,6,0,L|528:84,1,35
476,164,155107,2,0,L|532:132,1,35
480,212,155254,2,0,L|536:180,1,35
480,264,155402,2,0,L|536:232,1,35
480,316,155549,2,0,L|536:284,1,35
444,328,155696,5,0,0:0:0:0:
120,252,155843,1,0,0:0:0:0:
360,44,155990,1,0,0:0:0:0:
256,192,156137,12,0,158490,0:0:0:0:
