osu file format v14

[General]
AudioFilename: audio.mp3
AudioLeadIn: 0
PreviewTime: 9898
Countdown: 0
SampleSet: Normal
StackLeniency: 0.7
Mode: 0
LetterboxInBreaks: 0
WidescreenStoryboard: 1

[Editor]
Bookmarks: 28581
DistanceSpacing: 0.9
BeatDivisor: 4
GridSize: 8
TimelineZoom: 1

[Metadata]
Title:Game Time (Feat. Dr. Awkward)
TitleUnicode:Game Time (Feat. Dr. Awkward)
Artist:Mike Ault
ArtistUnicode:Mike Ault
Creator:Steffen
Version:Normal Slam DUNK
Source:Rocket League
Tags:OST rap Freestyle hoops trailer -Pootis- Zing
BeatmapID:1130561
BeatmapSetID:531218

[Difficulty]
HPDrainRate:4
CircleSize:3.5
OverallDifficulty:5
ApproachRate:5.5
SliderMultiplier:1.49999990463257
SliderTickRate:2

[Events]
//Background and Video events
0,0,"SLAM DUNK.jpg",0,0
//Break Periods
//Storyboard Layer 0 (Background)
//Storyboard Layer 1 (Fail)
//Storyboard Layer 2 (Pass)
//Storyboard Layer 3 (Foreground)
//Storyboard Sound Samples

[TimingPoints]
-873,545.454545454546,4,1,1,100,1,0
7853,-100,4,1,1,100,0,0
9898,-100,4,1,1,100,0,0
36217,-100,4,1,1,100,0,1
44945,-100,4,1,1,80,0,0
45045,-100,4,1,1,20,0,0

[HitObjects]
24,248,1854,5,0,0:0:0:0:
96,320,2263,2,0,B|152:360|224:352|224:352,1,112.499992847443
272,352,2945,1,0,0:0:0:0:
408,352,3490,2,0,P|456:296|472:208,1,149.999990463257
472,152,4308,1,0,0:0:0:0:
480,88,4581,2,0,P|472:40|440:8,1,74.9999952316285
406,76,5127,1,0,0:0:0:0:
288,144,5672,5,0,0:0:0:0:
368,144,5945,2,0,P|352:104|328:80,1,74.9999952316285,0|0,0:0|0:0,0:3:0:0:
256,72,6490,1,0,0:0:0:0:
216,72,6627,1,0,0:0:0:0:
152,72,6899,1,0,0:0:0:0:
120,72,7036,2,0,P|80:80|56:112,1,74.9999952316285
32,168,7581,5,0,0:0:0:0:
16,232,7854,2,0,B|8:272|40:320|40:320,1,74.9999952316285
56,328,8263,2,0,P|96:360|152:368,1,74.9999952316285
152,376,8672,2,0,P|192:392|240:384,1,74.9999952316285
256,384,9081,1,0,0:0:0:0:
288,376,9217,1,0,0:0:0:0:
352,344,9490,1,0,0:0:0:0:
408,304,9763,1,0,0:0:0:0:
448,248,10036,5,0,0:0:0:0:
504,88,10581,2,0,P|472:32|424:16,1,112.499992847443
352,8,11399,1,0,0:0:0:0:
288,8,11672,2,0,P|200:8|200:8,1,74.9999952316285
168,8,12217,1,0,0:0:0:0:
104,16,12490,6,0,P|58:44|48:80,1,74.9999952316285
24,120,13036,1,0,0:0:0:0:
16,152,13172,1,0,0:0:0:0:
16,184,13308,1,0,0:0:0:0:
24,248,13581,1,0,0:0:0:0:
56,304,13854,1,0,0:0:0:0:
104,352,14127,1,0,0:0:0:0:
168,376,14399,6,0,P|216:384|264:376,1,74.9999952316285
304,360,14945,2,0,P|352:344|376:312,1,74.9999952316285
408,272,15490,1,0,0:0:0:0:
432,208,15763,1,0,0:0:0:0:
408,144,16036,1,0,0:0:0:0:
352,104,16308,1,0,0:0:0:0:
256,192,16854,12,0,18627,0:0:0:0:
424,16,19308,6,0,P|456:56|472:112,1,74.9999952316285
488,144,19854,1,0,0:0:0:0:
504,208,20127,1,0,0:0:0:0:
480,272,20399,1,0,0:0:0:0:
440,328,20672,6,0,B|424:352|400:368|360:360,1,74.9999952316285
312,368,21217,1,0,0:0:0:0:
248,368,21490,1,0,0:0:0:0:
216,368,21627,1,0,0:0:0:0:
184,368,21763,1,0,0:0:0:0:
120,360,22036,2,0,B|64:360|32:336|32:280,1,112.499992847443
32,272,22581,1,0,0:0:0:0:
32,208,22854,2,0,B|48:128|48:128|128:152,1,149.999990463257
104,232,23672,5,0,0:0:0:0:
144,280,23945,1,0,0:0:0:0:
208,280,24217,1,0,0:0:0:0:
272,264,24490,2,0,P|311:253|347:218,1,74.9999952316285
376,176,25036,1,0,0:0:0:0:
256,192,25308,12,0,26945,0:0:0:0:
200,368,28172,5,0,0:0:0:0:
168,360,28308,1,0,0:0:0:0:
136,352,28444,2,0,P|81:318|56:248,1,112.499992847443
48,248,28990,1,0,0:0:0:0:
40,216,29127,1,0,0:0:0:0:
32,152,29399,2,0,P|40:104|64:72,1,74.9999952316285
136,144,30081,5,0,0:0:0:0:
152,112,30217,1,0,0:0:0:0:
184,56,30490,2,0,P|224:32|264:40,1,74.9999952316285
312,56,31036,1,0,0:0:0:0:
368,96,31308,1,0,0:0:0:0:
416,144,31581,1,0,0:0:0:0:
440,168,31717,1,0,0:0:0:0:
456,200,31854,1,0,0:0:0:0:
472,264,32127,6,0,P|416:320|416:320,1,74.9999952316285
360,352,32672,1,0,0:0:0:0:
296,328,32945,2,0,L|216:288,1,74.9999952316285
168,264,33490,1,0,0:0:0:0:
256,192,34036,12,0,35945,0:0:0:0:
48,232,36763,6,0,B|72:272|112:296|112:296,1,74.9999952316285
160,320,37308,1,0,0:0:0:0:
224,336,37581,1,0,0:0:0:0:
288,336,37854,1,0,0:0:0:0:
352,312,38127,1,0,0:0:0:0:
400,264,38399,2,0,P|424:224|432:168,1,74.9999952316285
448,88,39081,5,0,0:0:0:0:
400,48,39354,1,0,0:0:0:0:
376,24,39490,1,0,0:0:0:0:
344,16,39627,1,0,0:0:0:0:
248,56,40036,1,0,0:0:0:0:
336,104,40445,1,0,0:0:0:0:
328,136,40581,5,0,0:0:0:0:
264,160,40854,1,0,0:0:0:0:
272,224,41127,1,0,0:0:0:0:
208,248,41399,1,0,0:0:0:0:
184,312,41672,1,0,0:0:0:0:
120,296,41945,1,0,0:0:0:0:
72,344,42217,1,0,0:0:0:0:
40,288,42490,1,0,0:0:0:0:
40,224,42763,6,0,B|40:168|80:136,1,74.9999952316285
128,144,43308,2,0,P|168:168|184:200,1,74.9999952316285
216,248,43854,2,0,P|248:288|288:296,1,74.9999952316285
336,296,44399,1,0,0:0:0:0:
256,192,44945,12,0,47127,0:0:0:0:
