osu file format v14

[General]
AudioFilename: audio.mp3
AudioLeadIn: 0
PreviewTime: 9898
Countdown: 0
SampleSet: Normal
StackLeniency: 0.4
Mode: 0
LetterboxInBreaks: 0
WidescreenStoryboard: 0

[Editor]
Bookmarks: 7859,9907,16595,18778,25330,27514,36249
DistanceSpacing: 1.6
BeatDivisor: 4
GridSize: 4
TimelineZoom: 1.5

[Metadata]
Title:Game Time (Feat. Dr. Awkward)
TitleUnicode:Game Time (Feat. Dr. Awkward)
Artist:Mike Ault
ArtistUnicode:Mike Ault
Creator:Steffen
Version:Extra Aerial Goal
Source:Rocket League
Tags:OST rap Freestyle hoops trailer -Pootis- Zing
BeatmapID:1125829
BeatmapSetID:531218

[Difficulty]
HPDrainRate:5
CircleSize:4
OverallDifficulty:7
ApproachRate:9.2
SliderMultiplier:2.69999990463257
SliderTickRate:2

[Events]
//Background and Video events
0,0,"Aerial Goal osu BG.jpg",0,0
//Break Periods
//Storyboard Layer 0 (Background)
//Storyboard Layer 1 (Fail)
//Storyboard Layer 2 (Pass)
//Storyboard Layer 3 (Foreground)
//Storyboard Sound Samples

[TimingPoints]
-873,545.454545454546,4,1,1,100,1,0
3489,-100,4,1,1,100,0,0
3762,-100,4,1,1,100,0,0
5398,-100,4,1,1,100,0,0
5671,-100,4,1,1,100,0,0
7853,-76.9230769230769,4,1,1,100,0,0
9898,-100,4,1,1,100,0,0
16580,-66.6666666666667,4,1,1,100,0,0
18762,-100,4,1,1,100,0,0
25307,-50,4,1,1,100,0,0
27217,-100,4,1,1,100,0,0
34035,-66.6666666666667,4,1,1,100,0,0
36217,-66.6666666666667,4,1,1,100,0,1
40580,-66.6666666666667,4,1,1,100,0,1
44399,-100,4,1,1,100,0,0
46990,-100,4,1,1,20,0,0

[HitObjects]
64,272,217,6,0,P|96:296|144:296,1,67.4999976158142,8|2,0:0|0:0,0:0:0:0:
132,192,490,1,0,0:0:0:0:
232,152,627,1,0,0:0:0:0:
220,260,763,1,8,0:0:0:0:
320,220,899,1,0,0:0:0:0:
420,264,1036,2,0,L|436:232,4,22.4999992052714,0|8|0|0|0,0:0|0:0|0:0|0:0|0:0,0:0:0:0:
324,252,1308,1,10,0:0:0:0:
40,192,1854,5,8,0:0:0:0:
152,8,2127,1,2,0:0:0:0:
96,96,2263,1,8,0:0:0:0:
304,36,2536,1,0,0:0:0:0:
264,136,2672,1,0,0:0:0:0:
248,352,2945,1,8,0:0:0:0:
264,136,3217,2,0,B|232:136|232:136|168:168,1,67.4999976158142
184,260,3490,6,0,L|96:260,2,67.4999976158142,10|0|0,0:0|0:0|0:0,0:0:0:0:
316,88,4036,1,0,0:0:0:0:
132,196,4308,1,2,0:0:0:0:
72,288,4445,1,8,0:0:0:0:
308,239,4717,2,0,L|288:304,1,67.4999976158142,2|0,0:0|0:0,0:0:0:0:
116,172,5127,1,2,0:0:0:0:
32,240,5399,2,0,B|64:220|64:220|96:216,2,67.4999976158142,2|0|0,0:0|0:0|0:0,0:0:0:0:
104,320,5808,5,2,0:0:0:0:
192,256,5945,1,8,0:0:0:0:
220,44,6217,1,0,0:0:0:0:
127,234,6490,2,0,L|247:274,1,67.4999976158142,0|2,0:0|0:0,0:0:0:0:
264,52,6899,2,0,L|198:39,1,67.4999976158142,2|8,0:0|0:0,0:0:0:0:
127,234,7308,1,0,0:0:0:0:
340,188,7581,1,0,0:0:0:0:
53,186,7854,6,0,L|145:246,1,87.7499928836826
264,208,8127,1,0,0:0:0:0:
126,233,8263,1,0,0:0:0:0:
136,60,8399,2,0,L|216:108,1,87.7499928836826
332,36,8672,1,0,0:0:0:0:
211,105,8808,1,0,0:0:0:0:
332,176,8945,1,0,0:0:0:0:
208,236,9081,1,0,0:0:0:0:
128,352,9217,2,0,L|196:264,1,87.7499928836826
312,336,9490,2,0,B|364:300|364:300|416:360|488:328,1,175.499985767365
492,112,10036,5,0,0:0:0:0:
396,160,10172,1,0,0:0:0:0:
480,228,10308,1,0,0:0:0:0:
376,256,10445,1,2,0:0:0:0:
456,328,10581,1,8,0:0:0:0:
240,332,10854,2,0,L|328:352,1,67.4999976158142
288,240,11127,1,0,0:0:0:0:
136,264,11263,2,0,L|208:248,1,67.4999976158142
136,164,11536,1,0,0:0:0:0:
144,16,11672,1,0,0:0:0:0:
472,108,11945,1,0,0:0:0:0:
256,104,12217,5,2,0:0:0:0:
160,52,12354,2,0,P|124:68|92:100,1,67.4999976158142
180,164,12627,1,0,0:0:0:0:
236,256,12763,2,2,P|276:224|284:192,1,67.4999976158142
180,164,13036,1,8,0:0:0:0:
281,210,13172,5,2,0:0:0:0:
180,164,13308,2,0,P|212:140|284:140,1,67.4999976158142
348,140,13581,1,8,0:0:0:0:
420,220,13717,1,2,0:0:0:0:
128,364,14127,1,0,0:0:0:0:
12,180,14399,5,2,0:0:0:0:
96,112,14536,1,0,0:0:0:0:
151,207,14672,2,8,L|243:191,1,67.4999976158142
200,304,14945,1,0,0:0:0:0:
300,268,15081,1,0,0:0:0:0:
218,196,15217,2,0,P|194:228|162:252,1,67.4999976158142,2|8,0:0|0:0,0:0:0:0:
128,148,15490,1,0,0:0:0:0:
216,84,15627,1,0,0:0:0:0:
218,196,15763,1,0,0:0:0:0:
336,280,15899,1,0,0:0:0:0:
416,224,16036,2,0,P|360:184|264:192,1,134.999995231628
160,40,16581,6,0,L|72:136,1,101.250000286102,2|0,0:0|0:0,0:0:0:0:
256,188,16854,1,0,0:0:0:0:
91,269,16990,6,0,L|160:344,1,101.250000286102,2|0,0:0|0:0,0:0:0:0:
376,295,17263,1,0,0:0:0:0:
256,188,17399,1,0,0:0:0:0:
436,48,17536,1,0,0:0:0:0:
426,207,17672,2,0,L|377:295,1,101.250000286102
256,188,17945,1,0,0:0:0:0:
80,176,18081,1,0,0:0:0:0:
136,320,18217,6,0,B|152:272|188:268|188:268|216:312|248:312|248:312|300:316|320:288|320:288|344:264|396:312,1,303.750000858307
260,240,18763,1,0,0:0:0:0:
44,260,19036,1,0,0:0:0:0:
116,348,19172,2,0,L|200:328,1,67.4999976158142,8|0,0:0|0:0,0:0:0:0:
120,240,19445,1,0,0:0:0:0:
228,228,19581,1,0,0:0:0:0:
276,324,19717,1,2,0:0:0:0:
332,232,19854,2,0,P|317:160|265:117,1,134.999995231628
352,44,20263,1,2,0:0:0:0:
244,48,20399,2,0,L|176:76,1,67.4999976158142
148,176,20672,2,0,L|210:151,1,67.4999976158142
188,256,20945,5,0,0:0:0:0:
156,360,21081,2,0,P|196:368|228:360,1,67.4999976158142
188,256,21354,1,2,0:0:0:0:
288,292,21490,2,0,P|300:252|288:212,1,67.4999976158142,0|8,0:0|0:0,0:0:0:0:
404,216,21763,2,0,P|430:195|447:166,1,67.4999976158142,2|0,0:0|0:0,0:0:0:0:
348,124,22036,1,0,0:0:0:0:
276,44,22172,1,2,0:0:0:0:
188,104,22308,1,0,0:0:0:0:
260,188,22445,1,0,0:0:0:0:
176,256,22581,2,0,P|196:282|227:294,1,67.4999976158142
260,188,22854,1,0,0:0:0:0:
156,156,22990,1,0,0:0:0:0:
227,294,23127,5,0,0:0:0:0:
408,188,23263,1,0,0:0:0:0:
408,188,23399,1,0,0:0:0:0:
248,216,23672,5,2,0:0:0:0:
172,152,23808,2,0,P|132:136|100:152,1,67.4999976158142,8|0,0:0|0:0,0:0:0:0:
32,216,24081,1,0,0:0:0:0:
56,320,24217,2,0,P|96:352|136:360,1,67.4999976158142,2|8,0:0|0:0,0:0:0:0:
220,364,24490,1,8,0:0:0:0:
328,360,24627,1,0,0:0:0:0:
436,348,24763,2,0,B|476:324|484:268,1,67.4999976158142,2|0,0:0|0:0,0:0:0:0:
92,104,25308,6,0,P|83:170|107:232,1,134.999995231628,8|0,0:0|0:0,0:0:0:0:
252,160,25581,1,2,0:0:0:0:
148,284,25717,6,0,P|201:323|267:332,1,134.999995231628,8|0,0:0|0:0,0:0:0:0:
252,160,25990,1,8,0:0:0:0:
328,316,26127,6,0,P|382:277|411:217,1,134.999995231628,8|0,0:0|0:0,0:0:0:0:
252,160,26399,1,8,0:0:0:0:
412,160,26536,6,0,P|392:96|344:50,1,134.999995231628,8|0,0:0|0:0,0:0:0:0:
252,160,26808,1,0,0:0:0:0:
264,272,26945,6,0,B|263:271|263:271|301:327|301:327|352:284,1,134.999995231628
360,252,27217,2,0,P|292:220|272:224,1,67.4999976158142
368,96,27627,5,2,0:0:0:0:
448,168,27763,1,0,0:0:0:0:
329,192,27899,2,0,P|348:238|382:268,1,67.4999976158142,8|0,0:0|0:0,0:0:0:0:
480,272,28172,2,0,P|489:303|475:333,1,67.4999976158142
400,368,28445,1,2,0:0:0:0:
296,376,28581,2,0,P|232:368|160:288,1,134.999995231628
120,236,28990,1,8,0:0:0:0:
104,128,29127,2,0,L|144:40,2,67.4999976158142
52,340,29672,5,2,0:0:0:0:
120,236,29808,2,0,B|200:236|200:236,1,67.4999976158142
264,312,30081,1,0,0:0:0:0:
352,252,30217,1,2,0:0:0:0:
448,304,30354,2,0,P|456:264|440:216,1,67.4999976158142,2|0,0:0|0:0,0:0:0:0:
376,160,30627,1,8,0:0:0:0:
324,68,30763,1,0,0:0:0:0:
248,144,30899,1,0,0:0:0:0:
188,52,31036,2,0,P|148:84|140:132,1,67.4999976158142,2|0,0:0|0:0,0:0:0:0:
124,204,31308,2,0,P|142:248|179:265,1,67.4999976158142,8|0,2:0|2:0,2:0:0:0:
248,144,31581,1,0,0:0:0:0:
328,212,31717,1,0,0:0:0:0:
208,320,31854,6,0,P|240:352|264:352,1,67.4999976158142,8|0,0:0|0:0,0:0:0:0:
360,320,32127,1,2,0:0:0:0:
280,240,32263,1,0,0:0:0:0:
392,224,32399,1,8,0:0:0:0:
328,136,32536,1,2,0:0:0:0:
408,56,32672,2,0,B|376:40|376:40|232:40,1,134.999995231628
168,56,33081,1,0,0:0:0:0:
64,88,33217,1,0,0:0:0:0:
152,144,33354,1,0,0:0:0:0:
56,192,33490,2,10,P|64:272|112:312,1,134.999995231628
200,304,34036,6,2,P|216:240|288:200,1,101.250000286102,8|2,0:0|0:0,0:0:0:0:
432,248,34308,1,2,0:0:0:0:
304,96,34445,1,0,0:0:0:0:
464,100,34581,5,2,0:0:0:0:
432,248,34717,2,0,P|392:304|328:320,1,101.250000286102,2|8,0:0|0:0,0:0:0:0:
200,304,34990,1,0,0:0:0:0:
104,172,35127,5,0,0:0:0:0:
212,52,35263,1,2,0:0:0:0:
372,56,35399,2,0,P|428:80|452:136,1,101.250000286102
432,248,35672,1,8,0:0:0:0:
132,124,35945,1,0,0:0:0:0:
212,340,36217,6,0,P|100:308|52:236,1,202.500000572205,8|2,0:0|0:0,0:0:0:0:
318,13,36763,6,0,P|411:50|468:133,1,202.500000572205,8|2,0:0|0:0,0:0:0:0:
80,64,37308,1,8,0:0:0:0:
264,304,37581,5,2,0:0:0:0:
372,60,37854,1,8,0:0:0:0:
128,296,38127,1,2,0:0:0:0:
436,196,38399,1,8,0:0:0:0:
148,48,38672,5,2,0:0:0:0:
340,308,38945,1,8,0:0:0:0:
44,180,39217,1,2,0:0:0:0:
340,308,39490,2,0,L|460:280,1,101.250000286102
332,164,39763,2,0,L|431:184,1,101.250000286102
276,232,40036,1,0,0:0:0:0:
180,360,40172,2,0,P|144:312|132:260,1,101.250000286102
100,164,40445,1,0,0:0:0:0:
80,48,40581,5,2,0:0:0:0:
368,200,40854,1,8,0:0:0:0:
48,256,41127,1,2,0:0:0:0:
272,24,41399,1,8,0:0:0:0:
48,256,41672,1,2,0:0:0:0:
368,208,41945,1,8,0:0:0:0:
88,40,42217,1,2,0:0:0:0:
256,312,42490,1,8,0:0:0:0:
208,224,42763,5,0,0:0:0:0:
332,124,42899,1,0,0:0:0:0:
204,224,43036,1,0,0:0:0:0:
328,124,43172,1,0,0:0:0:0:
100,128,43308,1,0,0:0:0:0:
180,336,43445,1,0,0:0:0:0:
100,128,43581,1,0,0:0:0:0:
180,336,43717,1,0,0:0:0:0:
40,168,43854,6,0,L|16:192,9,33.7500000953674
104,252,44399,1,0,0:0:0:0:
292,360,44672,1,10,0:0:0:0:
256,192,44808,12,0,47127,0:0:0:0:
