osu file format v14

[General]
AudioFilename: audio.mp3
AudioLeadIn: 0
PreviewTime: 9898
Countdown: 0
SampleSet: Normal
StackLeniency: 0.7
Mode: 0
LetterboxInBreaks: 0
WidescreenStoryboard: 1

[Editor]
DistanceSpacing: 1
BeatDivisor: 4
GridSize: 8
TimelineZoom: 1

[Metadata]
Title:Game Time (Feat. Dr. Awkward)
TitleUnicode:Game Time (Feat. Dr. Awkward)
Artist:Mike Ault
ArtistUnicode:Mike Ault
Creator:Steffen
Version:Easy Ground Goal
Source:Rocket League
Tags:OST rap Freestyle hoops trailer -Pootis- Zing
BeatmapID:1125831
BeatmapSetID:531218

[Difficulty]
HPDrainRate:2
CircleSize:3
OverallDifficulty:3
ApproachRate:3
SliderMultiplier:1.49999990463257
SliderTickRate:1

[Events]
//Background and Video events
0,0,"Ground Goal osu BG.jpg",0,0
//Break Periods
//Storyboard Layer 0 (Background)
//Storyboard Layer 1 (Fail)
//Storyboard Layer 2 (Pass)
//Storyboard Layer 3 (Foreground)
//Storyboard Sound Samples

[TimingPoints]
-873,545.454545454546,4,1,1,100,1,0
3489,-100,4,1,1,100,0,0
36217,-133.333333333333,4,1,1,100,0,1
44808,-100,4,1,1,80,0,0
46990,-100,4,1,1,20,0,0

[HitObjects]
256,192,217,12,0,1854,0:0:0:0:
352,288,2944,5,2,0:0:0:0:
432,160,3490,2,0,P|424:72|368:16,1,149.999990463257
288,136,4581,1,0,0:0:0:0:
136,128,5126,1,2,0:0:0:0:
72,8,5672,6,0,P|16:48|0:128,1,149.999990463257
32,272,6762,1,2,0:0:0:0:
168,200,7308,1,0,0:0:0:0:
208,344,7854,2,0,P|288:304|304:232,2,149.999990463257,8|0|8,0:0|0:0|0:0,0:0:0:0:
168,200,9490,1,4,0:0:0:0:
320,200,10035,5,0,0:0:0:0:
376,336,10581,2,0,P|440:296|456:208,1,149.999990463257
376,104,11671,1,2,0:0:0:0:
232,72,12217,2,0,B|128:56|88:144,1,149.999990463257
64,272,13308,1,2,0:0:0:0:
200,216,13853,1,4,0:0:0:0:
64,272,14399,6,0,P|112:352|168:368,1,149.999990463257
264,256,15490,1,2,0:0:0:0:
376,352,16035,1,8,0:0:0:0:
408,208,16581,2,0,L|441:40,2,149.999990463257
320,328,18217,1,4,0:0:0:0:
168,320,18762,5,2,0:0:0:0:
248,192,19308,1,8,0:0:0:0:
352,296,19853,2,0,P|384:224|368:144,1,149.999990463257,2|8,0:0|0:0,0:0:0:0:
288,32,20945,2,0,P|216:8|144:24,1,149.999990463257,2|8,0:0|0:0,0:0:0:0:
8,80,22035,1,2,0:0:0:0:
88,208,22580,1,8,0:0:0:0:
208,120,23126,5,10,0:0:0:0:
256,264,23671,2,0,P|328:264|400:200,1,149.999990463257,2|8,0:0|0:0,0:0:0:0:
464,88,24762,1,2,0:0:0:0:
256,192,25308,12,4,26944,0:0:0:0:
40,184,28035,6,0,P|64:272|136:304,1,149.999990463257,2|8,0:0|0:0,0:0:0:0:
256,328,29126,1,2,0:0:0:0:
408,312,29671,2,0,P|466:267|480:176,1,149.999990463257,8|2,0:0|0:0,0:0:0:0:
376,96,30762,1,8,0:0:0:0:
264,192,31308,1,2,0:0:0:0:
120,216,31853,6,0,P|144:296|200:344,1,149.999990463257,8|2,0:0|0:0,0:0:0:0:
344,320,32944,2,0,P|312:240|240:176,1,149.999990463257,8|2,0:0|0:0,0:0:0:0:
144,112,34035,1,8,0:0:0:0:
72,248,34580,1,8,0:0:0:0:
224,248,35126,1,8,0:0:0:0:
128,360,35671,1,6,0:0:0:0:
240,360,36217,6,0,P|296:336|336:280,1,112.499997138977,8|2,0:0|0:0,0:0:0:0:
408,216,37308,1,8,0:0:0:0:
440,328,37853,1,2,0:0:0:0:
328,297,38399,2,0,P|272:273|232:217,1,112.499997138977,8|2,0:0|0:0,0:0:0:0:
344,200,39489,1,8,0:0:0:0:
248,144,40035,1,2,0:0:0:0:
136,160,40581,6,0,P|152:216|208:248,2,112.499997138977,8|2|8,0:0|0:0|0:0,0:0:0:0:
240,120,42217,1,2,0:0:0:0:
304,24,42762,2,0,P|352:72|360:128,1,112.499997138977,8|0,0:0|0:0,0:0:0:0:
320,216,43853,2,0,P|256:232|192:216,1,112.499997138977,8|4,0:0|0:0,0:0:0:0:
256,192,44945,12,0,47127,0:0:0:0:
