osu file format v14

[General]
AudioFilename: audio.mp3
AudioLeadIn: 0
PreviewTime: 54733
Countdown: 0
SampleSet: Soft
StackLeniency: 0.7
Mode: 0
LetterboxInBreaks: 0
WidescreenStoryboard: 1

[Editor]
Bookmarks: 7520,23258,78340,109815,125553,144733,158996,162438,182602
DistanceSpacing: 1.2
BeatDivisor: 4
GridSize: 4
TimelineZoom: 1.2

[Metadata]
Title:Egao no Dessin
TitleUnicode:笑顔のデッサン
Artist:Mikazuki Yozora(CV:Inoue Marina)&Kashiwazaki Sena(CV:Ito Kanae)
ArtistUnicode:三日月夜空(CV:井上麻里奈)&柏崎星奈(CV:伊藤かな恵)
Creator:Chaoslitz
Version:Tomodachi
Source:僕は友達が少ない
Tags:boku wa tomodachi ga sukunai haganai rinjinbu ova ed Gaia hotaru yamazo 田村信二 Shinji Tamura
BeatmapID:1297979
BeatmapSetID:615376

[Difficulty]
HPDrainRate:6
CircleSize:4.2
OverallDifficulty:7
ApproachRate:8.2
SliderMultiplier:1.7
SliderTickRate:1

[Events]
//Background and Video events
0,0,"sb/bg.jpg",0,0
//Break Periods
2,15389,22538
2,141491,144013
//Storyboard Layer 0 (Background)
//Storyboard Layer 1 (Fail)
//Storyboard Layer 2 (Pass)
//Storyboard Layer 3 (Foreground)
Sprite,Foreground,Centre,"sb\by.png",320,240 S,0,19324,,0.4 F,0,19324,19570,0,1 M,0,19324,22274,320,380 F,0,19570,22274,1 F,0,22274,22397,1,0
//Storyboard Sound Samples

[TimingPoints]
-348,491.803278688525,4,2,1,50,1,0
7520,-133.333333333333,4,2,1,50,0,0
23258,-100,4,2,1,70,0,0
38996,-100,4,2,1,75,0,0
54733,-83.3333333333333,4,2,1,85,0,1
56701,-76.9230769230769,4,2,1,85,0,1
57684,-100,4,2,1,85,0,1
58176,-83.3333333333333,4,2,1,85,0,1
64570,-76.9230769230769,4,2,1,85,0,1
65799,-100,4,2,1,85,0,1
66537,-83.3333333333333,4,2,1,85,0,1
68504,-76.9230769230769,4,2,1,85,0,1
69488,-100,4,2,1,85,0,1
69979,-83.3333333333333,4,2,1,85,0,1
73668,-100,4,2,1,85,0,1
73914,-66.6666666666667,4,2,1,85,0,1
74406,-83.3333333333333,4,2,1,85,0,1
77602,-100,4,2,1,85,0,1
77848,-66.6666666666667,4,2,1,85,0,1
78340,-133.333333333333,4,2,1,50,0,0
85717,-111.111111111111,4,2,1,50,0,0
86209,-111.111111111111,4,2,1,60,0,0
94078,-100,4,2,1,75,0,0
109815,-83.3333333333333,4,2,1,85,0,1
111783,-76.9230769230769,4,2,1,85,0,1
112766,-100,4,2,1,85,0,1
113258,-83.3333333333333,4,2,1,85,0,1
119652,-76.9230769230769,4,2,1,85,0,1
120881,-100,4,2,1,85,0,1
121619,-83.3333333333333,4,2,1,85,0,1
123586,-76.9230769230769,4,2,1,85,0,1
124570,-100,4,2,1,85,0,1
125553,-83.3333333333333,4,2,1,85,0,0
144733,-133.333333333333,4,2,1,40,0,0
148668,-200,4,2,1,40,0,0
149406,-133.333333333333,4,2,1,45,0,0
151373,-133.333333333333,4,2,1,50,0,0
153094,-100,4,2,1,60,0,0
155061,-100,4,2,1,70,0,0
157520,-133.333333333333,4,2,1,60,0,0
158012,-133.333333333333,4,2,1,70,0,0
158504,-133.333333333333,4,2,1,80,0,0
158996,-83.3333333333333,4,2,1,85,0,1
160963,-76.9230769230769,4,2,1,85,0,1
161947,-100,4,2,1,85,0,1
162438,-83.3333333333333,4,2,1,85,0,1
168832,-76.9230769230769,4,2,1,85,0,1
170061,-100,4,2,1,85,0,1
170799,-83.3333333333333,4,2,1,85,0,1
172766,-76.9230769230769,4,2,1,85,0,1
173750,-100,4,2,1,85,0,1
174733,-100,4,2,1,60,0,0
182602,-83.3333333333333,4,2,1,85,0,1
184570,-76.9230769230769,4,2,1,85,0,1
185799,-100,4,2,1,85,0,1
186537,-83.3333333333333,4,2,1,85,0,1
188504,-76.9230769230769,4,2,1,85,0,1
189488,-100,4,2,1,85,0,1
189733,-76.9230769230769,4,2,1,85,0,1
189979,-100,4,2,1,85,0,1
190225,-83.3333333333333,4,2,1,85,0,1
193914,-66.6666666666667,4,2,1,85,0,1
194406,-83.3333333333333,4,2,1,85,0,1
197848,-66.6666666666667,4,2,1,85,0,0
198217,-66.6666666666667,4,2,1,60,0,0
198340,-100,4,2,1,50,0,0

[Colours]
Combo1 : 255,252,173
Combo2 : 252,191,220
Combo3 : 174,245,252

[HitObjects]
164,99,7520,6,0,P|136:102|98:106,2,63.7500024318696,4|2|0,0:0|0:0|0:0,0:0:0:0:
189,178,8258,1,0,0:0:0:0:
189,178,8504,2,0,P|144:183|87:190,1,95.6250036478044,2|2,0:0|0:0,0:0:0:0:
348,99,11455,6,0,P|376:102|414:106,2,63.7500024318696,0|2|0,0:0|0:0|0:0,0:0:0:0:
323,178,12192,1,0,0:0:0:0:
323,178,12438,2,0,P|368:183|425:190,1,95.6250036478044,2|2,0:0|0:0,0:0:0:0:
51,255,23258,6,0,P|46:297|58:338,1,85,4|2,0:0|0:0,0:0:0:0:
176,328,23750,1,8,0:0:0:0:
176,328,23873,2,0,P|181:286|169:245,1,85,2|8,0:0|0:1,0:0:0:0:
105,194,24242,1,2,0:0:0:0:
205,102,24488,1,8,0:1:0:0:
205,102,24611,1,8,0:1:0:0:
205,102,24733,2,0,L|294:95,1,85,8|0,0:0|0:0,0:0:0:0:
307,107,25102,1,2,0:0:0:0:
324,118,25225,6,0,L|413:111,1,85,8|2,0:1|0:0,0:0:0:0:
461,219,25717,1,8,0:0:0:0:
461,219,25840,2,0,L|376:225,1,85,2|8,0:0|0:1,0:0:0:0:
297,202,26209,1,2,0:0:0:0:
316,374,26455,1,8,0:1:0:0:
376,225,26701,2,0,L|366:316,1,85,8|0,0:0|0:0,0:0:0:0:
316,374,27070,1,2,0:0:0:0:
316,374,27192,5,8,0:1:0:0:
256,278,27438,1,2,0:0:0:0:
160,353,27684,2,0,P|118:347|72:343,1,85,8|0,0:0|0:0,0:0:0:0:
46,348,28053,2,0,P|21:299|66:224,1,127.5,10|0,0:1|0:0,0:0:0:0:
119,196,28545,1,0,0:0:0:0:
119,196,28668,2,0,P|124:217|127:243,2,42.5,8|0|0,0:0|0:0|0:0,0:0:0:0:
151,96,29160,6,0,P|158:54|162:11,1,85,10|0,0:1|0:0,0:0:0:0:
135,101,29529,2,0,P|95:115|55:133,1,85,2|0,0:0|0:0,0:0:0:0:
148,113,29897,2,0,P|164:126|180:140,1,42.5,2|0,0:0|0:0,0:0:0:0:
243,190,30143,2,0,P|238:210|235:231,2,42.5,2|8|8,0:0|0:1|0:1,0:0:0:0:
265,170,30512,1,0,0:0:0:0:
265,170,30635,2,0,P|308:162|347:175,1,85,8|2,0:0|0:0,0:0:0:0:
512,95,31127,6,0,P|458:128|397:115,1,127.5,2|0,0:0|0:0,0:0:0:0:
357,47,31619,2,0,L|346:174,1,127.5,8|8,0:0|0:1,0:0:0:0:
317,251,32111,1,2,0:0:0:0:
467,208,32356,1,8,0:1:0:0:
467,208,32479,1,0,0:0:0:0:
467,208,32602,2,0,P|471:251|475:295,1,85,8|0,0:0|0:0,0:0:0:0:
374,320,33094,6,0,P|334:334|294:352,1,85,8|0,0:1|0:0,0:0:0:0:
385,330,33463,2,0,P|417:357|452:383,1,85,2|0,0:0|0:0,0:0:0:0:
389,313,33832,2,0,P|392:292|396:271,1,42.5,10|0,0:1|0:0,0:0:0:0:
373,192,34078,2,0,P|314:169|258:195,1,127.5,2|2,0:0|0:0,0:0:0:0:
211,267,34570,2,0,P|215:290|218:317,2,42.5,8|0|0,0:0|0:0|0:0,0:0:0:0:
190,117,35061,6,0,P|147:112|105:108,1,85,8|2,0:1|0:0,0:0:0:0:
4,223,35553,2,0,P|46:218|88:214,1,85,10|0,0:0|0:0,0:0:0:0:
113,228,35922,2,0,P|127:268|121:310,1,85,8|0,0:1|0:0,0:0:0:0:
108,337,36291,1,10,0:1:0:0:
233,371,36537,2,0,P|229:321|224:279,1,85,8|2,0:0|0:0,0:0:0:0:
216,257,36906,1,0,0:0:0:0:
216,257,37029,6,0,P|259:271|303:265,1,85,8|2,0:1|0:0,0:0:0:0:
463,201,37520,1,8,0:0:0:0:
463,201,37643,2,0,P|420:187|376:193,1,85,2|8,0:0|0:1,0:0:0:0:
353,201,38012,2,0,P|357:158|361:116,1,85,0|8,0:0|0:1,0:0:0:0:
365,86,38381,1,0,0:0:0:0:
365,86,38504,2,0,P|327:49|245:63,1,127.5,10|0,0:0|0:0,0:0:0:0:
193,108,38996,6,0,P|153:123|112:118,1,85,4|2,0:0|0:0,0:0:0:0:
14,202,39488,1,8,0:0:0:0:
14,202,39611,2,0,P|57:206|99:210,1,85,2|8,0:0|0:1,0:0:0:0:
127,214,39979,1,2,0:0:0:0:
111,117,40225,1,8,0:1:0:0:
85,300,40471,2,0,P|145:309|207:265,1,127.5,8|0,0:0|0:0,0:0:0:0:
220,202,40963,6,0,L|228:287,1,85,8|2,0:1|0:0,0:0:0:0:
351,373,41455,1,8,0:0:0:0:
351,373,41578,2,0,L|359:288,1,85,2|8,0:0|0:1,0:0:0:0:
341,263,41947,2,0,P|393:259|436:254,1,85,2|8,0:1|0:1,0:0:0:0:
438,254,42315,1,0,0:0:0:0:
450,252,42438,1,8,0:0:0:0:
507,133,42684,1,0,0:0:0:0:
507,133,42807,1,0,0:0:0:0:
507,133,42930,6,0,P|467:117|425:122,1,85,8|0,0:1|0:0,0:0:0:0:
296,159,43422,1,10,0:0:0:0:
370,61,43668,2,0,P|375:124|380:188,1,127.5,8|0,0:1|0:0,0:0:0:0:
382,217,44160,1,8,0:1:0:0:
346,320,44406,1,10,0:0:0:0:
441,359,44652,1,0,2:0:0:0:
441,359,44774,1,0,2:0:0:0:
441,359,44897,6,0,P|450:317|440:277,1,85,10|2,2:1|2:0,2:0:0:0:
382,217,45266,1,0,0:0:0:0:
382,216,45389,2,0,P|339:221|297:225,1,85,8|8,0:0|0:1,0:0:0:0:
284,227,45758,1,0,0:0:0:0:
271,228,45881,1,2,0:0:0:0:
182,270,46127,1,8,0:1:0:0:
85,224,46373,2,0,P|57:226|35:228,2,42.5,8|0|0,0:0|0:0|0:0,0:0:0:0:
189,185,46865,6,0,P|185:227|182:270,1,85,8|2,0:1|0:0,0:0:0:0:
336,353,47356,1,8,0:0:0:0:
336,353,47479,2,0,P|334:311|329:269,1,85,2|8,0:0|0:1,0:0:0:0:
335,239,47848,2,0,P|378:220|437:239,1,85,2|8,0:0|0:1,0:0:0:0:
426,230,48217,1,0,0:0:0:0:
436,236,48340,1,8,0:0:0:0:
508,141,48586,1,2,0:0:0:0:
451,36,48832,6,0,P|408:39|366:42,1,85,8|2,0:1|0:0,0:0:0:0:
298,141,49324,1,8,0:0:0:0:
298,141,49447,2,0,P|340:138|382:134,1,85,2|8,0:0|0:1,0:0:0:0:
411,125,49815,2,0,P|407:167|402:209,1,85,2|8,0:0|0:1,0:0:0:0:
404,222,50184,1,0,0:0:0:0:
406,234,50307,1,8,0:0:0:0:
364,340,50553,1,0,0:0:0:0:
364,340,50676,1,0,0:0:0:0:
364,340,50799,6,0,P|307:363|235:318,1,127.5,8|0,0:1|0:0,0:0:0:0:
206,269,51291,2,0,P|163:272|121:277,1,85,10|0,0:0|0:0,0:0:0:0:
103,288,51660,1,8,0:1:0:0:
84,298,51783,2,0,P|43:250|47:188,1,127.5,8|0,0:1|0:0,0:0:0:0:
101,126,52274,1,8,0:0:0:0:
193,181,52520,1,0,0:0:0:0:
193,181,52643,1,0,0:0:0:0:
193,181,52766,6,0,P|235:176|277:172,1,85,8|0,0:1|0:0,0:0:0:0:
423,42,53258,2,0,P|382:38|338:33,1,85,10|0,0:1|0:0,0:0:0:0:
311,19,53627,2,0,P|317:65|322:123,1,85,10|0,0:1|0:0,0:0:0:0:
277,171,53996,1,8,0:1:0:0:
277,171,54119,1,0,0:0:0:0:
277,171,54242,1,8,0:0:0:0:
455,236,54488,1,8,0:0:0:0:
455,236,54611,1,8,0:0:0:0:
455,236,54733,6,0,P|449:286|444:337,1,101.999996887207,4|0,0:0|0:0,0:0:0:0:
456,371,55102,1,0,0:0:0:0:
456,371,55225,2,0,P|408:350|354:360,1,101.999996887207,8|0,0:0|0:0,0:0:0:0:
238,267,55717,2,0,P|287:278|334:261,1,101.999996887207,8|0,0:1|0:0,0:0:0:0:
359,235,56086,1,0,0:0:0:0:
359,235,56209,2,0,P|353:161|348:112,1,101.999996887207,8|0,0:0|0:0,0:0:0:0:
298,65,56578,1,0,0:0:0:0:
298,65,56701,6,0,P|249:40|196:52,1,110.499994941712,0|0,3:0|0:0,0:0:0:0:
182,181,57070,2,0,P|230:205|282:193,1,110.499994941712,0|0,3:0|0:0,0:0:0:0:
240,123,57438,1,2,3:2:0:0:
68,192,57684,5,0,0:0:0:0:
71,204,57807,1,8,0:0:0:0:
74,216,57930,2,0,L|70:259,1,42.5,8|0,0:1|0:0,0:0:0:0:
10,342,58176,6,0,P|61:335|107:353,1,101.999996887207,10|0,0:0|0:0,0:0:0:0:
184,379,58545,1,0,0:0:0:0:
184,379,58668,6,0,P|190:324|194:271,1,101.999996887207,8|0,0:1|0:0,0:0:0:0:
369,173,59160,2,0,P|364:224|359:274,1,101.999996887207,8|0,0:0|0:0,0:0:0:0:
366,309,59529,1,0,0:0:0:0:
366,309,59652,2,0,P|313:315|254:323,1,101.999996887207,8|2,0:1|0:0,0:0:0:0:
193,277,60020,1,0,0:0:0:0:
193,277,60143,2,0,P|173:229|183:179,1,101.999996887207,8|0,0:0|0:0,0:0:0:0:
242,126,60512,1,0,0:0:0:0:
242,126,60635,5,8,0:1:0:0:
157,46,60881,1,0,0:0:0:0:
135,59,61003,1,0,0:0:0:0:
111,67,61126,1,8,0:0:0:0:
85,67,61249,1,0,0:0:0:0:
59,58,61373,2,0,P|64:83|67:108,1,50.9999984436036,8|8,0:1|0:1,0:0:0:0:
9,170,61619,2,0,P|56:191|105:183,1,101.999996887207,2|8,0:0|0:1,0:0:0:0:
256,264,62111,2,0,P|205:269|153:274,1,101.999996887207,8|8,0:0|0:1,0:0:0:0:
104,359,62479,1,8,0:0:0:0:
104,359,62602,6,0,P|154:354|205:349,1,101.999996887207,4|0,0:0|0:0,0:0:0:0:
408,359,63094,1,8,0:0:0:0:
382,356,63216,1,0,0:0:0:0:
357,354,63339,1,0,0:0:0:0:
331,351,63462,1,0,0:0:0:0:
306,349,63586,2,0,P|286:292|307:245,1,101.999996887207,8|0,0:1|0:0,0:0:0:0:
360,204,63955,1,0,0:0:0:0:
360,204,64078,2,0,P|411:216|456:197,1,101.999996887207,8|0,0:0|0:0,0:0:0:0:
454,119,64447,1,0,0:0:0:0:
454,119,64570,6,0,P|388:106|349:127,1,110.499994941712,0|0,3:0|0:0,0:0:0:0:
285,171,64938,1,0,3:0:0:0:
285,171,65061,2,0,P|278:142|269:110,1,55.2499974708558,8|0,0:0|0:0,0:0:0:0:
220,225,65307,1,0,3:0:0:0:
220,225,65430,2,0,P|168:211|110:198,1,110.499994941712,2|0,0:0|0:0,0:0:0:0:
91,202,65799,6,0,P|56:208|37:209,1,42.5,8|0,0:1|0:0,0:0:0:0:
0,274,66045,1,10,0:0:0:0:
72,358,66291,1,0,0:0:0:0:
72,358,66414,1,0,0:0:0:0:
72,358,66537,6,0,P|142:375|206:327,1,152.999995330811,8|0,0:1|0:0,0:0:0:0:
234,251,67029,2,0,P|229:216|224:194,2,50.9999984436036,10|0|0,0:0|0:0|0:0,0:0:0:0:
263,270,67397,1,8,0:1:0:0:
263,269,67520,2,0,P|312:259|358:279,1,101.999996887207,8|0,0:1|0:0,0:0:0:0:
495,182,68012,1,8,0:0:0:0:
470,199,68134,1,0,0:0:0:0:
440,208,68257,1,8,0:0:0:0:
410,206,68380,1,8,0:0:0:0:
383,194,68504,6,0,P|377:140|371:83,1,110.499994941712,0|0,3:0|0:0,0:0:0:0:
189,89,68873,2,0,P|239:109|290:133,1,110.499994941712,2|0,3:2|0:0,0:0:0:0:
333,8,69242,2,0,P|310:24|287:39,1,55.2499974708558,8|0,3:1|0:0,0:0:0:0:
290,133,69488,6,0,P|292:154|294:175,2,42.5,8|0|2,0:1|0:0|0:0,0:0:0:0:
307,261,69979,5,8,0:0:0:0:
307,261,70102,2,0,P|305:285|301:321,1,50.9999984436036,8|0,0:0|0:0,0:0:0:0:
231,366,70348,1,8,0:1:0:0:
231,366,70471,5,0,3:0:0:0:
49,341,70717,1,2,0:0:0:0:
74,159,70963,1,8,0:0:0:0:
256,184,71209,1,8,0:1:0:0:
49,341,71455,6,0,P|100:347|155:355,1,101.999996887207,2|0,3:2|0:0,0:0:0:0:
231,365,71824,2,0,P|294:325|302:248,1,152.999995330811,8|0,3:2|0:0,0:0:0:0:
256,184,72315,1,0,0:0:0:0:
256,184,72438,5,10,0:1:0:0:
176,231,72684,1,8,0:1:0:0:
169,217,72807,1,0,0:0:0:0:
162,203,72930,2,0,L|168:147,1,50.9999984436036,10|0,0:0|0:0,0:0:0:0:
265,82,73176,1,8,0:1:0:0:
265,82,73299,2,0,P|261:136|254:195,1,101.999996887207,2|0,0:0|0:0,0:0:0:0:
303,252,73668,6,0,L|308:309,1,42.5,8|0,0:1|0:0,0:0:0:0:
354,358,73914,6,0,P|293:292|214:333,1,191.250007295609,10|0,3:2|0:0,0:0:0:0:
281,366,74406,5,0,3:0:0:0:
463,341,74652,1,2,0:0:0:0:
438,159,74898,1,8,0:0:0:0:
256,184,75144,1,8,0:1:0:0:
463,341,75389,6,0,P|412:347|357:355,1,101.999996887207,2|0,3:2|0:0,0:0:0:0:
281,365,75758,2,0,P|218:325|210:248,1,152.999995330811,8|0,3:2|0:0,0:0:0:0:
256,184,76249,1,0,0:0:0:0:
256,184,76373,5,10,0:1:0:0:
350,258,76619,1,8,0:1:0:0:
364,265,76742,1,0,0:0:0:0:
378,272,76865,2,0,L|434:266,1,50.9999984436036,10|0,0:0|0:0,0:0:0:0:
502,174,77111,1,8,0:1:0:0:
502,174,77233,2,0,P|451:180|401:186,1,101.999996887207,2|0,0:0|0:0,0:0:0:0:
330,148,77602,6,0,P|335:110|337:89,1,42.5,8|0,0:1|0:0,0:0:0:0:
384,42,77848,6,0,P|297:62|315:6,1,191.250007295609,10|0,3:2|0:0,0:0:0:0:
384,42,78340,6,0,P|422:40|458:35,1,63.7500024318696,4|0,0:0|0:0,0:0:0:0:
335,105,78832,2,0,P|287:78|215:93,1,127.500004863739,2|2,0:0|0:0,0:0:0:0:
151,149,79570,1,0,0:0:0:0:
151,149,79815,2,0,P|157:194|159:227,1,63.7500024318696,2|0,0:0|0:0,0:0:0:0:
236,255,80307,6,0,P|232:297|227:321,1,63.7500024318696,2|0,0:0|0:0,0:0:0:0:
152,366,80799,2,0,P|87:368|43:319,1,127.500004863739,2|2,0:0|0:0,0:0:0:0:
27,238,81537,1,0,0:0:0:0:
27,238,81783,2,0,P|67:242|93:250,1,63.7500024318696,2|0,0:0|0:0,0:0:0:0:
136,173,82274,5,2,0:0:0:0:
118,85,82520,1,0,0:0:0:0:
30,66,82766,2,0,P|34:115|38:138,1,63.7500024318696,0|0,0:0|0:0,0:0:0:0:
51,144,83135,2,0,P|89:171|136:173,1,95.6250036478044,2|0,0:1|0:0,0:0:0:0:
203,113,83750,1,2,0:0:0:0:
203,113,83996,1,0,0:0:0:0:
240,192,84242,6,0,P|284:211|330:203,2,95.6250036478044,2|0|0,0:0|0:0|0:0,0:0:0:0:
295,121,85225,2,0,L|298:89,3,31.8750012159348,2|0|0|0,0:0|0:0|0:0|0:0,0:0:0:0:
291,63,85717,6,0,P|329:60|367:56,1,76.4999976654053,8|0,0:1|0:0,0:0:0:0:
512,128,86209,6,0,P|458:112|409:139,1,114.749996498108,2|0,0:0|0:0,0:0:0:0:
395,162,86701,2,0,P|391:217|385:277,1,114.749996498108,8|8,0:1|0:1,0:0:0:0:
411,353,87192,1,2,0:0:0:0:
306,300,87438,1,8,0:1:0:0:
306,300,87561,1,0,0:0:0:0:
306,300,87684,2,0,P|304:280|300:262,2,38.2499988327027,8|0|0,0:1|0:0|0:0,0:0:0:0:
206,352,88176,6,0,P|155:365|95:336,2,114.749996498108,8|2|2,0:1|0:0|0:0,0:0:0:0:
306,300,89160,2,0,P|302:341|298:380,1,76.4999976654053,2|8,0:0|0:1,0:0:0:0:
256,224,89652,1,2,0:0:0:0:
256,224,89774,1,0,0:0:0:0:
256,224,89897,2,0,P|237:226|218:229,1,38.2499988327027
157,286,90143,6,0,P|117:290|61:298,1,76.4999976654053,8|2,0:1|0:0,0:0:0:0:
30,216,90635,2,0,P|67:210|105:207,1,76.4999976654053,2|0,0:0|0:0,0:0:0:0:
132,209,91004,2,0,P|158:157|130:93,1,114.749996498108,8|10,0:1|0:1,0:0:0:0:
120,89,91496,1,0,0:0:0:0:
120,89,91619,2,0,P|91:93|66:96,2,38.2499988327027,8|0|2,0:1|0:0|0:1,0:0:0:0:
206,10,92111,6,0,L|199:60,3,38.2499988327027,8|0|2|0,0:1|0:0|0:0|0:0,0:0:0:0:
280,29,92602,2,0,L|273:79,1,38.2499988327027,10|0,0:0|0:0,0:0:0:0:
354,48,92848,2,0,L|347:98,1,38.2499988327027,0|8,0:0|0:1,0:0:0:0:
428,67,93094,1,8,0:0:0:0:
428,67,93217,2,0,L|416:155,1,76.4999976654053,8|8,0:0|0:0,0:0:0:0:
339,165,93586,1,10,0:1:0:0:
339,165,93709,2,0,P|344:204|348:259,1,76.4999976654053,8|8,0:0|0:0,0:0:0:0:
401,302,94078,6,0,P|406:344|394:385,1,85,4|2,0:0|0:0,0:0:0:0:
276,375,94570,1,8,0:0:0:0:
276,375,94693,2,0,P|271:333|283:292,1,85,2|8,0:0|0:1,0:0:0:0:
347,241,95062,1,2,0:0:0:0:
256,148,95307,1,8,0:1:0:0:
165,241,95553,2,0,P|125:246|81:251,1,85,8|0,0:0|0:0,0:0:0:0:
56,333,95922,1,0,0:0:0:0:
56,333,96045,6,0,P|98:328|140:322,1,85,8|2,0:1|0:0,0:0:0:0:
326,377,96537,1,8,0:0:0:0:
326,377,96660,2,0,P|283:372|241:366,1,85,2|8,0:0|0:1,0:0:0:0:
212,372,97029,2,0,P|217:328|221:287,1,85,2|8,0:1|0:1,0:0:0:0:
221,274,97397,1,0,0:0:0:0:
220,261,97520,1,8,0:0:0:0:
389,166,97766,1,0,0:0:0:0:
389,166,97889,1,0,0:0:0:0:
389,166,98012,6,0,P|402:205|394:247,1,85,8|0,0:1|0:0,0:0:0:0:
348,367,98504,1,10,0:0:0:0:
451,303,98750,2,0,P|388:292|324:284,1,127.5,8|0,0:1|0:0,0:0:0:0:
300,280,99242,1,8,0:1:0:0:
215,349,99488,2,0,P|172:353|130:357,1,85,10|0,0:0|0:0,0:0:0:0:
51,364,99856,1,0,0:0:0:0:
51,363,99979,6,0,P|45:321|37:280,1,85,8|2,0:1|0:0,0:0:0:0:
174,164,100471,2,0,P|170:206|165:248,1,85,8|0,0:0|0:0,0:0:0:0:
164,261,100840,1,8,0:1:0:0:
163,273,100963,1,0,0:0:0:0:
85,206,101209,1,8,0:1:0:0:
256,225,101455,2,0,L|249:280,2,42.5,8|0|0,0:0|0:0|0:0,0:0:0:0:
218,91,101947,6,0,P|261:88|302:83,1,85,8|2,0:1|0:0,0:0:0:0:
464,131,102438,1,8,0:0:0:0:
464,131,102561,2,0,P|421:135|379:138,1,85,2|8,0:0|0:1,0:0:0:0:
358,160,102930,2,0,P|344:190|364:258,1,85,2|8,0:0|0:1,0:0:0:0:
358,250,103299,1,0,0:0:0:0:
367,259,103422,1,8,0:0:0:0:
475,286,103668,1,2,0:0:0:0:
397,366,103914,6,0,P|344:369|288:376,1,85,8|2,0:1|0:0,0:0:0:0:
200,283,104406,1,8,0:0:0:0:
200,283,104529,2,0,P|158:286|115:289,1,85,2|8,0:0|0:1,0:0:0:0:
90,305,104897,2,0,P|67:301|44:298,2,42.5,2|0|8,0:0|0:0|0:1,0:0:0:0:
162,373,105389,1,8,0:0:0:0:
280,343,105635,1,0,0:0:0:0:
280,343,105758,1,0,0:0:0:0:
280,343,105881,6,0,P|275:272|270:213,1,127.5,8|0,0:1|0:0,0:0:0:0:
243,137,106373,2,0,P|198:131|153:152,1,85,10|0,0:0|0:0,0:0:0:0:
148,161,106742,1,8,0:1:0:0:
134,177,106865,2,0,P|72:193|8:128,1,127.5,8|0,0:1|0:0,0:0:0:0:
85,114,107356,1,8,0:0:0:0:
69,235,107602,1,0,0:0:0:0:
69,235,107725,1,0,0:0:0:0:
69,235,107848,6,0,P|73:277|76:319,1,85,8|0,0:1|0:0,0:0:0:0:
279,358,108340,2,0,P|237:350|196:362,1,85,10|0,0:1|0:0,0:0:0:0:
170,376,108709,2,0,P|175:332|178:291,1,85,10|0,0:1|0:0,0:0:0:0:
203,270,109078,2,0,P|202:248|199:227,1,42.5,8|0,0:1|0:0,0:0:0:0:
148,158,109324,5,8,0:0:0:0:
178,144,109446,1,8,0:0:0:0:
212,142,109569,1,8,0:0:0:0:
243,154,109692,1,8,0:0:0:0:
268,177,109815,6,0,P|323:185|375:149,1,101.999996887207,4|0,0:0|0:0,0:0:0:0:
391,142,110184,1,0,0:0:0:0:
391,142,110307,2,0,P|387:192|382:247,1,101.999996887207,8|0,0:0|0:0,0:0:0:0:
512,351,110799,2,0,P|468:329|406:345,1,101.999996887207,8|0,0:1|0:0,0:0:0:0:
394,364,111168,1,0,0:0:0:0:
394,364,111291,2,0,P|337:368|282:373,1,101.999996887207,8|0,0:0|0:0,0:0:0:0:
223,326,111660,1,0,0:0:0:0:
223,326,111783,6,0,P|174:351|121:339,1,110.499994941712,0|0,3:0|0:0,0:0:0:0:
107,210,112152,2,0,P|154:186|207:198,1,110.499994941712,0|0,3:0|0:0,0:0:0:0:
165,268,112520,1,2,3:2:0:0:
26,241,112766,5,0,0:0:0:0:
23,229,112889,1,8,0:0:0:0:
20,217,113012,2,0,L|24:174,1,42.5,8|0,0:1|0:0,0:0:0:0:
0,86,113258,6,0,P|54:81|106:75,1,101.999996887207,10|0,0:0|0:0,0:0:0:0:
175,48,113627,1,0,0:0:0:0:
175,48,113750,6,0,P|191:96|180:145,1,101.999996887207,8|0,0:1|0:0,0:0:0:0:
108,340,114242,2,0,P|92:292|103:243,1,101.999996887207,8|0,0:0|0:0,0:0:0:0:
132,226,114611,1,0,0:0:0:0:
132,226,114733,2,0,P|186:221|238:215,1,101.999996887207,8|2,0:1|0:0,0:0:0:0:
306,169,115102,1,0,0:0:0:0:
306,169,115225,2,0,P|358:159|407:186,1,101.999996887207,8|0,0:0|0:0,0:0:0:0:
451,248,115594,1,0,0:0:0:0:
451,248,115717,5,8,0:1:0:0:
381,358,115963,1,0,0:0:0:0:
357,367,116085,1,0,0:0:0:0:
331,368,116208,1,8,0:0:0:0:
307,361,116331,1,0,0:0:0:0:
286,347,116455,2,0,P|289:316|292:294,1,50.9999984436036,8|8,0:1|0:1,0:0:0:0:
198,269,116701,2,0,P|204:321|208:371,1,101.999996887207,2|8,0:0|0:1,0:0:0:0:
371,277,117192,2,0,P|366:226|361:175,1,101.999996887207,8|8,0:0|0:1,0:0:0:0:
359,90,117561,1,8,0:0:0:0:
359,89,117684,6,0,P|309:106|261:96,1,101.999996887207,4|0,0:0|0:0,0:0:0:0:
40,173,118176,1,8,0:0:0:0:
64,164,118298,1,0,0:0:0:0:
89,163,118421,1,0,0:0:0:0:
114,169,118544,1,0,0:0:0:0:
137,181,118668,2,0,P|131:119|126:78,1,101.999996887207,8|0,0:1|0:0,0:0:0:0:
202,48,119037,1,0,0:0:0:0:
202,48,119160,2,0,P|208:98|212:149,1,101.999996887207,8|0,0:0|0:0,0:0:0:0:
263,208,119529,1,0,0:0:0:0:
263,208,119652,6,0,P|209:202|153:194,1,110.499994941712,0|0,3:0|0:0,0:0:0:0:
76,224,120020,1,0,3:0:0:0:
76,224,120143,2,0,P|112:219|158:220,1,55.2499974708558,8|0,0:0|0:0,0:0:0:0:
208,279,120389,1,0,3:0:0:0:
208,279,120512,2,0,P|213:334|177:375,1,110.499994941712,2|0,0:0|0:0,0:0:0:0:
157,376,120881,6,0,P|126:371|104:368,1,42.5,8|0,0:1|0:0,0:0:0:0:
37,374,121127,1,10,0:0:0:0:
0,257,121373,1,0,0:0:0:0:
0,257,121496,1,0,0:0:0:0:
0,257,121619,6,0,P|58:213|142:243,1,152.999995330811,8|0,0:1|0:0,0:0:0:0:
198,278,122111,2,0,P|203:302|205:328,2,50.9999984436036,10|0|0,0:0|0:0|0:0,0:0:0:0:
227,259,122479,1,8,0:1:0:0:
227,259,122602,2,0,P|276:269|322:249,1,101.999996887207,8|0,0:1|0:0,0:0:0:0:
319,132,123094,1,8,0:0:0:0:
290,122,123216,1,0,0:0:0:0:
259,122,123339,1,8,0:0:0:0:
230,131,123462,1,8,0:0:0:0:
208,151,123586,6,0,P|217:204|227:261,1,110.499994941712,0|0,3:0|0:0,0:0:0:0:
50,305,123955,2,0,P|92:271|134:234,1,110.499994941712,2|0,3:2|0:0,0:0:0:0:
211,343,124324,2,0,P|184:333|158:325,1,55.2499974708558,8|0,3:1|0:0,0:0:0:0:
134,233,124570,6,0,P|130:210|126:191,2,42.5,8|0|2,0:1|0:0|0:0,0:0:0:0:
211,343,125061,5,8,0:0:0:0:
241,356,125183,1,8,0:0:0:0:
275,358,125306,1,8,0:1:0:0:
307,347,125429,1,8,0:0:0:0:
332,326,125553,6,0,P|378:304|429:311,1,101.999996887207,4|8,0:0|0:1,0:0:0:0:
459,329,125922,1,0,0:0:0:0:
459,329,126045,2,0,P|463:298|468:263,1,50.9999984436036,10|0,0:0|0:0,0:0:0:0:
507,204,126291,1,0,0:0:0:0:
507,204,126414,2,0,P|505:178|501:153,1,50.9999984436036,2|8,0:0|0:1,0:0:0:0:
460,47,126660,6,0,L|407:41,2,50.9999984436036,0|2|0,0:0|0:0|0:0,0:0:0:0:
406,120,127029,2,0,L|353:114,1,50.9999984436036,10|0,0:0|0:0,0:0:0:0:
352,193,127274,2,0,L|299:187,1,50.9999984436036,2|0,0:0|0:0,0:0:0:0:
132,213,127520,6,0,P|181:205|227:225,1,101.999996887207,10|0,0:1|0:0,0:0:0:0:
273,295,127889,1,8,0:1:0:0:
273,295,128012,2,0,L|267:350,1,50.9999984436036,10|0,0:0|0:0,0:0:0:0:
354,381,128258,1,8,0:1:0:0:
354,381,128381,6,0,L|365:279,1,101.999996887207,2|0,0:0|0:0,0:0:0:0:
375,267,128750,1,0,0:0:0:0:
384,255,128873,1,2,0:0:0:0:
393,243,128996,2,0,P|422:247|452:255,1,50.9999984436036,10|0,0:0|0:0,0:0:0:0:
507,161,129242,1,8,0:1:0:0:
507,160,129365,6,0,P|457:167|412:145,1,101.999996887207,2|0,0:0|0:0,0:0:0:0:
398,123,129733,2,0,P|402:84|405:61,1,50.9999984436036,8|0,0:1|0:0,0:0:0:0:
258,131,129979,1,8,0:0:0:0:
266,149,130102,2,0,P|262:174|260:199,1,50.9999984436036,2|0,0:0|0:0,0:0:0:0:
323,77,130348,1,0,0:0:0:0:
323,77,130471,6,0,P|326:51|328:26,1,50.9999984436036,8|0,0:1|0:0,0:0:0:0:
171,175,130717,2,0,P|176:200|179:225,1,50.9999984436036,10|0,0:1|0:0,0:0:0:0:
343,225,130963,2,0,P|335:250|325:272,1,50.9999984436036,8|0,0:0|0:0,0:0:0:0:
136,310,131209,1,8,0:1:0:0:
136,310,131332,6,0,P|191:320|241:297,1,101.999996887207,2|0,0:0|0:0,0:0:0:0:
244,280,131701,2,0,P|250:306|254:337,1,50.9999984436036,2|0,0:0|0:0,0:0:0:0:
389,370,131947,1,8,0:0:0:0:
389,370,132070,2,0,P|353:362|318:358,1,50.9999984436036,2|0,0:0|0:0,0:0:0:0:
325,272,132315,6,0,P|378:248|430:265,1,101.999996887207,2|0,0:0|0:0,0:0:0:0:
450,276,132684,1,0,0:0:0:0:
450,276,132807,2,0,P|455:306|458:336,2,50.9999984436036,2|10|0,0:0|0:0|0:0,0:0:0:0:
502,197,133176,2,0,P|506:171|508:146,1,50.9999984436036,0|2,0:0|0:0,0:0:0:0:
454,33,133422,6,0,P|401:23|355:41,1,101.999996887207,6|8,0:0|0:1,0:0:0:0:
283,90,133791,1,0,0:0:0:0:
283,90,133914,2,0,P|286:111|289:140,1,50.9999984436036,10|0,0:0|0:0,0:0:0:0:
331,221,134160,2,0,P|328:242|325:271,1,50.9999984436036,2|0,0:0|0:0,0:0:0:0:
228,268,134406,6,0,P|236:317|243:383,1,101.999996887207,10|0,0:1|0:0,0:0:0:0:
241,369,134774,1,0,0:0:0:0:
241,369,134897,2,0,P|273:357|305:352,1,50.9999984436036,10|0,0:0|0:0,0:0:0:0:
151,328,135143,2,0,P|118:318|86:314,1,50.9999984436036,2|0,0:0|0:0,0:0:0:0:
3,369,135389,6,0,P|18:295|25:251,1,101.999996887207,0|0,3:0|0:0,0:0:0:0:
26,157,135758,2,0,P|82:206|117:235,1,101.999996887207,2|0,3:2|0:0,0:0:0:0:
149,297,136127,2,0,P|125:306|101:315,1,50.9999984436036,2|0,3:2|0:0,0:0:0:0:
190,220,136373,6,0,P|194:194|198:169,2,50.9999984436036,2|0|0,0:0|0:0|0:0,0:0:0:0:
237,293,136742,1,8,0:1:0:0:
237,293,136865,2,0,P|297:334|367:311,1,152.999995330811,10|0,0:0|0:0,0:0:0:0:
425,255,137356,6,0,P|421:229|417:204,3,50.9999984436036,8|2|8|2,0:1|0:0|0:1|0:0,0:0:0:0:
437,174,137848,2,0,P|442:146|444:123,3,50.9999984436036,8|2|0|2,0:0|0:0|0:0|0:0,0:0:0:0:
441,87,138340,5,8,0:1:0:0:
410,61,138462,1,0,0:0:0:0:
371,53,138585,1,10,0:1:0:0:
332,65,138708,1,0,0:0:0:0:
304,95,138833,1,10,0:0:0:0:
276,125,138956,1,0,0:0:0:0:
237,137,139079,1,2,0:0:0:0:
198,129,139202,1,0,0:0:0:0:
167,103,139324,6,0,P|116:110|65:114,1,101.999996887207,10|0,0:1|0:0,0:0:0:0:
7,200,139692,1,0,0:0:0:0:
7,200,139815,2,0,P|32:197|57:194,1,50.9999984436036,8|0,0:0|0:0,0:0:0:0:
85,319,140061,2,0,P|59:321|34:324,1,50.9999984436036,10|0,0:1|0:0,0:0:0:0:
136,245,140307,2,0,P|186:238|237:233,1,101.999996887207,2|0,0:0|0:0,0:0:0:0:
251,239,140676,1,0,0:0:0:0:
265,244,140799,1,8,0:0:0:0:
163,369,141045,1,8,0:0:0:0:
163,369,141168,1,8,0:0:0:0:
163,369,141291,5,4,0:0:0:0:
321,219,144733,6,0,P|319:251|314:292,1,63.7500024318696,0|0,0:0|0:0,0:0:0:0:
390,338,145225,2,0,P|442:371|502:354,1,127.500004863739,2|0,0:0|0:0,0:0:0:0:
512,265,145963,2,0,P|459:231|399:248,1,127.500004863739,2|0,0:0|0:0,0:0:0:0:
400,247,146701,1,0,0:0:0:0:
256,161,146947,6,0,P|315:177|368:144,1,127.500004863739,2|0,0:0|0:0,0:0:0:0:
300,67,147684,2,0,L|304:99,2,31.8750012159348,0|0|2,0:0|0:0|0:0,0:0:0:0:
256,161,148176,2,0,P|212:167|153:173,1,95.6250036478044,0|0,0:0|0:0,0:0:0:0:
148,183,148668,6,0,P|110:177|77:173,1,63.75,4|0,0:3|0:0,0:0:0:0:
13,198,149160,5,4,0:0:0:0:
45,291,149406,2,0,P|79:287|120:284,1,63.7500024318696,0|8,0:0|0:1,0:0:0:0:
167,344,149897,1,0,0:0:0:0:
167,344,150143,2,0,P|220:338|270:333,2,95.6250036478044,2|0|2,0:0|0:0|0:0,0:0:0:0:
240,254,151127,5,0,0:1:0:0:
344,307,151373,2,0,P|340:343|335:371,2,63.7500024318696,0|10|0,0:0|0:1|0:0,0:0:0:0:
385,227,152111,2,0,P|432:220|476:238,2,95.6250036478044,2|0|0,0:0|0:0|0:0,0:0:0:0:
344,307,153094,5,6,0:0:0:0:
264,266,153340,1,2,0:1:0:0:
305,186,153586,1,8,0:1:0:0:
305,186,153709,2,0,P|309:141|312:101,1,85,2|0,0:0|0:0,0:0:0:0:
314,80,154078,2,0,P|284:49|243:40,1,85,10|0,0:1|0:0,0:0:0:0:
223,49,154447,2,0,P|173:87|108:80,1,127.5,2|10,0:0|0:1,0:0:0:0:
100,74,154938,1,0,0:0:0:0:
90,64,155061,5,6,0:0:0:0:
7,135,155307,1,2,0:0:0:0:
38,240,155553,1,8,0:0:0:0:
38,240,155676,2,0,P|42:260|45:288,2,42.5,2|0|8,0:0|0:0|0:1,0:0:0:0:
111,204,156045,1,8,0:1:0:0:
111,204,156168,2,0,L|125:307,1,85,10|0,0:0|0:0,0:0:0:0:
77,351,156537,1,10,0:0:0:0:
192,241,156783,1,8,0:0:0:0:
256,192,157029,12,0,158504,0:0:0:0:
344,307,158996,6,0,P|292:295|235:329,1,101.999996887207,4|0,0:0|0:0,0:0:0:0:
224,340,159365,1,0,0:0:0:0:
224,340,159488,2,0,P|177:358|128:346,1,101.999996887207,8|0,0:0|0:0,0:0:0:0:
12,289,159979,2,0,P|7:235|0:186,1,101.999996887207,8|0,0:1|0:0,0:0:0:0:
8,151,160348,1,0,0:0:0:0:
8,151,160471,2,0,P|51:126|101:132,1,101.999996887207,8|0,0:0|0:0,0:0:0:0:
149,202,160840,1,0,0:0:0:0:
149,202,160963,6,0,P|197:224|249:210,1,110.499994941712,0|0,3:0|0:0,0:0:0:0:
262,83,161332,2,0,P|212:59|159:73,1,110.499994941712,0|0,3:0|0:0,0:0:0:0:
205,142,161700,1,2,3:2:0:0:
343,117,161947,5,0,0:0:0:0:
346,105,162070,1,8,0:0:0:0:
349,93,162193,2,0,L|345:50,1,42.5,8|0,0:1|0:0,0:0:0:0:
427,19,162438,6,0,L|435:119,1,101.999996887207,10|0,0:0|0:0,0:0:0:0:
468,198,162807,1,0,0:0:0:0:
468,198,162930,6,0,P|419:204|366:208,1,101.999996887207,8|0,0:1|0:0,0:0:0:0:
172,282,163422,2,0,P|221:272|268:294,1,101.999996887207,8|0,0:0|0:0,0:0:0:0:
289,321,163791,1,0,0:0:0:0:
289,321,163914,2,0,P|334:341|384:331,1,101.999996887207,8|2,0:1|0:0,0:0:0:0:
459,298,164283,1,0,0:0:0:0:
459,298,164406,2,0,L|468:198,1,101.999996887207,8|0,0:0|0:0,0:0:0:0:
450,113,164774,1,0,0:0:0:0:
450,113,164897,5,8,0:1:0:0:
313,141,165143,1,0,0:0:0:0:
304,165,165265,1,0,0:0:0:0:
303,191,165388,1,8,0:0:0:0:
310,215,165511,1,0,0:0:0:0:
324,236,165635,2,0,P|355:233|377:230,1,50.9999984436036,8|8,0:1|0:1,0:0:0:0:
269,300,165881,2,0,L|167:288,1,101.999996887207,2|8,0:0|0:1,0:0:0:0:
29,142,166373,2,0,L|130:130,1,101.999996887207,8|8,0:0|0:1,0:0:0:0:
149,210,166742,1,8,0:0:0:0:
149,210,166865,6,0,L|47:221,1,101.999996887207,4|0,0:0|0:0,0:0:0:0:
106,344,167356,1,8,0:0:0:0:
125,360,167478,1,0,0:0:0:0:
149,369,167601,1,0,0:0:0:0:
174,371,167724,1,0,0:0:0:0:
198,365,167848,2,0,P|253:341|297:349,1,101.999996887207,8|0,0:1|0:0,0:0:0:0:
373,372,168217,1,0,0:0:0:0:
373,372,168340,2,0,P|378:321|382:270,1,101.999996887207,8|0,0:0|0:0,0:0:0:0:
440,213,168709,1,0,0:0:0:0:
440,212,168832,6,0,P|386:223|334:193,1,110.499994941712,0|0,3:0|0:0,0:0:0:0:
309,124,169201,1,0,3:0:0:0:
309,124,169324,2,0,P|316:88|322:61,1,55.2499974708558,8|0,0:0|0:0,0:0:0:0:
231,153,169570,1,0,3:0:0:0:
231,153,169692,2,0,P|224:81|218:30,1,110.499994941712,2|0,0:0|0:0,0:0:0:0:
219,21,170061,6,0,P|186:31|164:35,1,42.5,8|0,0:1|0:0,0:0:0:0:
96,28,170307,1,10,0:0:0:0:
20,141,170553,1,0,0:0:0:0:
20,141,170676,1,0,0:0:0:0:
20,141,170799,6,0,P|69:184|157:171,1,152.999995330811,8|0,0:1|0:0,0:0:0:0:
231,153,171291,2,0,P|235:125|238:97,2,50.9999984436036,10|0|0,0:0|0:0|0:0,0:0:0:0:
243,186,171660,1,8,0:1:0:0:
243,186,171783,2,0,P|248:212|252:246,1,50.9999984436036,8|0,0:1|0:0,0:0:0:0:
168,257,172029,2,0,P|173:283|177:317,1,50.9999984436036,8|0,0:1|0:0,0:0:0:0:
102,350,172274,2,0,P|172:333|237:381,1,152.999995330811,8|8,0:0|0:0,0:0:0:0:
313,363,172766,6,0,P|321:309|330:252,1,110.499994941712,0|0,3:0|0:0,0:0:0:0:
511,265,173135,2,0,P|460:282|407:303,1,110.499994941712,2|0,3:2|0:0,0:0:0:0:
370,178,173504,2,0,P|392:195|414:211,1,55.2499974708558,8|0,3:1|0:0,0:0:0:0:
485,119,173750,6,0,P|463:121|443:125,2,42.5,8|0|2,0:1|0:0|0:0,0:0:0:0:
377,58,174242,1,8,0:0:0:0:
377,58,174365,1,8,0:1:0:0:
377,58,174488,2,0,P|356:55|334:52,1,42.5,2|0,0:0|0:0,0:0:0:0:
256,96,174733,6,0,P|215:101|171:104,1,85,2|0,0:0|0:0,0:0:0:0:
82,73,175225,2,0,P|78:52|72:31,2,42.5,8|0|0,0:0|0:0|0:0,0:0:0:0:
18,140,175717,2,0,P|14:182|29:221,1,85,2|0,0:0|0:0,0:0:0:0:
42,239,176086,1,0,0:0:0:0:
42,239,176209,2,0,P|84:234|126:229,1,85,8|0,0:0|0:0,0:0:0:0:
200,306,176701,6,0,P|136:311|73:319,2,127.5,0|2|2,0:0|0:0|0:0,0:0:0:0:
256,232,177684,2,0,L|256:188,2,42.5,0|0|2,0:0|0:0|0:0,0:0:0:0:
312,306,178176,2,0,P|354:311|396:318,1,85,10|0,0:0|0:0,0:0:0:0:
423,329,178545,1,0,0:0:0:0:
422,329,178668,6,0,P|467:323|523:318,1,85,8|0,0:1|0:0,0:0:0:0:
457,234,179160,2,0,P|450:190|465:149,1,85,10|0,0:0|0:0,0:0:0:0:
487,135,179529,1,0,0:0:0:0:
487,135,179652,2,0,P|490:108|493:80,1,42.5,0|0,0:0|0:0,0:0:0:0:
407,81,179897,2,0,P|410:54|413:26,1,42.5,2|0,0:0|0:0,0:0:0:0:
327,119,180143,1,8,0:0:0:0:
255,65,180389,1,0,0:0:0:0:
185,119,180635,5,0,0:0:0:0:
185,119,180758,2,0,L|135:125,2,42.5,8|0|0,0:0|0:0|0:0,0:0:0:0:
199,134,181127,2,0,L|193:180,1,42.5,8|0,0:0|0:0,0:0:0:0:
272,192,181373,2,0,L|266:238,1,42.5,8|8,0:0|0:1,0:0:0:0:
345,250,181619,1,2,0:0:0:0:
345,250,181742,1,8,0:0:0:0:
345,250,181865,2,0,L|339:296,1,42.5,8|0,0:1|0:0,0:0:0:0:
288,363,182111,2,0,P|245:365|203:369,1,85,10|8,0:0|0:1,0:0:0:0:
123,329,182479,1,8,0:0:0:0:
123,329,182602,6,0,P|76:348|27:337,1,101.999996887207,4|0,0:0|0:0,0:0:0:0:
17,219,183094,1,8,0:0:0:0:
38,205,183216,1,0,0:0:0:0:
63,199,183339,1,0,0:0:0:0:
88,200,183462,1,0,0:0:0:0:
112,210,183586,6,0,P|158:229|207:218,1,101.999996887207,8|0,0:1|0:0,0:0:0:0:
266,154,183955,1,0,0:0:0:0:
266,154,184078,2,0,P|312:135|361:146,1,101.999996887207,8|0,0:0|0:0,0:0:0:0:
436,180,184447,1,0,0:0:0:0:
436,180,184570,6,0,L|425:293,1,110.499994941712,0|0,3:0|0:0,0:0:0:0:
382,362,184938,1,0,3:0:0:0:
382,362,185061,2,0,P|412:369|442:376,1,55.2499974708558,8|0,0:0|0:0,0:0:0:0:
341,288,185307,1,0,3:0:0:0:
341,288,185430,2,0,P|286:293|231:299,1,110.499994941712,2|0,0:0|0:0,0:0:0:0:
216,284,185799,6,0,P|211:311|206:336,1,42.5,8|0,0:1|0:0,0:0:0:0:
141,373,186045,1,10,0:0:0:0:
31,316,186291,1,0,0:0:0:0:
31,316,186414,1,0,0:0:0:0:
31,316,186537,6,0,P|8:265|55:183,1,152.999995330811,8|0,0:1|0:0,0:0:0:0:
134,197,187029,2,0,P|138:221|142:256,2,50.9999984436036,10|0|0,0:0|0:0|0:0,0:0:0:0:
156,169,187397,1,8,0:1:0:0:
156,169,187520,2,0,L|219:163,1,50.9999984436036,8|0,0:1|0:0,0:0:0:0:
256,232,187766,2,0,L|319:226,1,50.9999984436036,8|0,0:1|0:0,0:0:0:0:
356,295,188012,1,8,0:0:0:0:
356,295,188135,1,0,0:0:0:0:
356,295,188258,2,0,L|419:289,1,50.9999984436036,8|8,0:0|0:0,0:0:0:0:
481,245,188504,6,0,P|487:190|493:133,1,110.499994941712,0|0,3:0|0:0,0:0:0:0:
315,99,188873,2,0,P|359:128|405:162,1,110.499994941712,2|0,3:2|0:0,0:0:0:0:
473,51,189242,2,0,P|447:61|421:71,1,55.2499974708558,8|0,3:1|0:0,0:0:0:0:
405,162,189488,6,0,L|400:208,1,42.5,8|0,0:1|0:0,0:0:0:0:
330,265,189733,6,0,P|334:292|335:319,1,55.2499974708558,2|0,0:0|0:0,0:0:0:0:
256,362,189979,5,8,0:0:0:0:
218,365,190101,1,8,0:0:0:0:
185,347,190224,1,8,0:0:0:0:
167,314,190347,1,8,0:0:0:0:
171,276,190471,5,0,3:0:0:0:
214,95,190717,5,2,0:0:0:0:
214,95,190840,1,0,0:0:0:0:
214,95,190963,2,0,P|188:98|163:100,1,50.9999984436036,8|0,0:0|0:0,0:0:0:0:
193,186,191209,2,0,P|167:189|142:191,1,50.9999984436036,8|0,0:1|0:0,0:0:0:0:
40,214,191455,6,0,P|32:263|56:306,1,101.999996887207,2|0,3:2|0:0,0:0:0:0:
4,372,191824,2,0,P|62:325|154:369,1,152.999995330811,8|0,3:2|0:0,0:0:0:0:
208,375,192315,1,0,0:0:0:0:
208,375,192438,6,0,L|213:324,1,50.9999984436036,10|0,0:1|0:0,0:0:0:0:
299,311,192684,2,0,L|293:361,1,50.9999984436036,8|0,0:1|0:0,0:0:0:0:
378,347,192930,2,0,L|384:297,1,50.9999984436036,10|0,0:0|0:0,0:0:0:0:
497,224,193176,1,8,0:1:0:0:
497,224,193299,2,0,L|395:212,1,101.999996887207,2|0,0:0|0:0,0:0:0:0:
379,218,193668,2,0,P|374:194|375:168,1,50.9999984436036,10|0,0:1|0:0,0:0:0:0:
437,78,193914,6,0,P|371:141|288:108,1,191.250007295609,10|0,3:2|0:0,0:0:0:0:
256,34,194406,5,0,3:0:0:0:
74,76,194652,1,2,0:0:0:0:
74,76,194774,1,0,0:0:0:0:
74,76,194897,2,0,P|77:101|80:126,1,50.9999984436036,8|0,0:0|0:0,0:0:0:0:
165,55,195143,2,0,P|168:80|171:105,1,50.9999984436036,8|0,0:1|0:0,0:0:0:0:
142,194,195389,6,0,P|96:218|46:212,1,101.999996887207,2|0,3:2|0:0,0:0:0:0:
0,280,195758,2,0,P|71:260|131:304,1,152.999995330811,8|0,3:2|0:0,0:0:0:0:
186,370,196250,1,0,0:0:0:0:
186,370,196373,6,0,L|244:364,1,50.9999984436036,10|0,0:1|0:0,0:0:0:0:
266,284,196619,2,0,L|215:289,1,50.9999984436036,8|0,0:1|0:0,0:0:0:0:
244,209,196865,2,0,L|294:203,1,50.9999984436036,10|0,0:0|0:0,0:0:0:0:
381,263,197111,1,8,0:1:0:0:
381,262,197233,2,0,P|386:211|391:160,1,101.999996887207,2|0,0:0|0:0,0:0:0:0:
402,146,197602,2,0,L|398:90,1,50.9999984436036,10|0,0:1|0:0,0:0:0:0:
329,42,197848,6,0,P|414:9|481:70,1,191.250007295609,10|0,3:2|0:0,0:0:0:0:
