osu file format v14

[General]
AudioFilename: audio.mp3
AudioLeadIn: 0
PreviewTime: 54733
Countdown: 0
SampleSet: Soft
StackLeniency: 0.7
Mode: 0
LetterboxInBreaks: 0
WidescreenStoryboard: 1

[Editor]
Bookmarks: 7520,23258,26209,38012,48586,66045,78340,103914,109815,125553,144733,158996,160963,162438,182602
DistanceSpacing: 0.8
BeatDivisor: 4
GridSize: 4
TimelineZoom: 0.9

[Metadata]
Title:Egao no Dessin
TitleUnicode:笑顔のデッサン
Artist:Mikazuki Yozora(CV:Inoue Marina)&Kashiwazaki Sena(CV:Ito Kanae)
ArtistUnicode:三日月夜空(CV:井上麻里奈)&柏崎星奈(CV:伊藤かな恵)
Creator:Chaoslitz
Version:Normal
Source:僕は友達が少ない
Tags:boku wa tomodachi ga sukunai haganai rinjinbu ova ed Gaia hotaru yamazo 田村信二 Shinji Tamura
BeatmapID:1303737
BeatmapSetID:615376

[Difficulty]
HPDrainRate:4
CircleSize:3
OverallDifficulty:4
ApproachRate:5
SliderMultiplier:1.2
SliderTickRate:1

[Events]
//Background and Video events
0,0,"sb/bg.jpg",0,0
//Break Periods
2,15389,22058
//Storyboard Layer 0 (Background)
//Storyboard Layer 1 (Fail)
//Storyboard Layer 2 (Pass)
//Storyboard Layer 3 (Foreground)
Sprite,Foreground,Centre,"sb\by.png",320,240 S,0,19324,,0.4 F,0,19324,19570,0,1 M,0,19324,22274,320,380 F,0,19570,22274,1 F,0,22274,22397,1,0
//Storyboard Sound Samples

[TimingPoints]
-348,491.803278688525,4,2,1,100,1,0
7520,-100,4,2,1,50,0,0
23258,-100,4,2,1,70,0,0
38996,-100,4,2,1,75,0,0
54733,-100,4,2,1,85,0,1
56701,-100,4,2,1,85,0,1
57684,-100,4,2,1,85,0,1
58176,-100,4,2,1,85,0,1
64570,-100,4,2,1,85,0,1
65799,-100,4,2,1,85,0,1
66537,-100,4,2,1,85,0,1
68504,-100,4,2,1,85,0,1
69488,-100,4,2,1,85,0,1
69979,-100,4,2,1,85,0,1
73668,-100,4,2,1,85,0,1
73914,-100,4,2,1,85,0,1
74406,-100,4,2,1,85,0,1
77602,-100,4,2,1,85,0,1
77848,-100,4,2,1,85,0,1
78340,-100,4,2,1,50,0,0
85717,-100,4,2,1,50,0,0
86209,-100,4,2,1,60,0,0
94078,-100,4,2,1,75,0,0
109815,-100,4,2,1,85,0,1
111783,-100,4,2,1,85,0,1
112766,-100,4,2,1,85,0,1
113258,-100,4,2,1,85,0,1
119652,-100,4,2,1,85,0,1
120881,-100,4,2,1,85,0,1
121619,-100,4,2,1,85,0,1
123586,-100,4,2,1,85,0,1
124570,-100,4,2,1,85,0,1
125553,-100,4,2,1,85,0,0
144733,-100,4,2,1,40,0,0
148668,-100,4,2,1,40,0,0
149406,-100,4,2,1,45,0,0
151373,-100,4,2,1,50,0,0
153094,-100,4,2,1,60,0,0
155061,-100,4,2,1,70,0,0
157520,-100,4,2,1,60,0,0
158012,-100,4,2,1,70,0,0
158504,-100,4,2,1,80,0,0
158996,-100,4,2,1,85,0,1
160963,-100,4,2,1,85,0,1
161947,-100,4,2,1,85,0,1
162438,-100,4,2,1,85,0,1
168832,-100,4,2,1,85,0,1
170061,-100,4,2,1,85,0,1
170799,-100,4,2,1,85,0,1
172766,-100,4,2,1,85,0,1
173750,-100,4,2,1,85,0,1
174733,-100,4,2,1,60,0,0
182602,-100,4,2,1,85,0,1
184570,-100,4,2,1,85,0,1
185799,-100,4,2,1,85,0,1
186537,-100,4,2,1,85,0,1
188504,-100,4,2,1,85,0,1
189488,-100,4,2,1,85,0,1
189733,-100,4,2,1,85,0,1
189979,-100,4,2,1,85,0,1
190225,-100,4,2,1,85,0,1
193914,-100,4,2,1,85,0,1
194406,-100,4,2,1,85,0,1
197848,-100,4,2,1,85,0,0
198217,-100,4,2,1,60,0,0
198340,-100,4,2,1,50,0,0

[Colours]
Combo1 : 255,252,173
Combo2 : 252,191,220
Combo3 : 174,245,252

[HitObjects]
49,75,7520,6,0,P|129:45|197:97,1,180,4|0,0:0|0:0,0:0:0:0:
209,143,8504,2,0,L|298:135,1,90,2|2,0:0|0:0,0:0:0:0:
462,308,11455,6,0,P|382:338|314:286,1,180,0|0,0:0|0:0,0:0:0:0:
303,241,12439,2,0,L|213:248,1,90,2|2,0:0|0:0,0:0:0:0:
115,263,23258,5,4,0:0:0:0:
64,344,23750,2,0,P|121:356|177:335,1,120,8|2,0:0|0:0,0:0:0:0:
212,303,24488,2,0,L|206:228,2,60,8|8|0,0:1|0:0|0:0,0:0:0:0:
256,320,25225,5,8,0:1:0:0:
342,362,25717,2,0,P|401:355|461:348,1,120,8|2,0:0|0:0,0:0:0:0:
491,311,26455,1,8,0:1:0:0:
491,311,26701,2,0,L|498:236,1,60,8|0,0:0|0:0,0:0:0:0:
497,203,27192,5,8,0:1:0:0:
458,111,27684,2,0,P|400:95|338:141,1,120,8|2,0:0|0:0,0:0:0:0:
323,162,28422,1,0,0:0:0:0:
323,162,28668,2,0,P|292:172|248:168,1,60,8|0,0:0|0:0,0:0:0:0:
223,146,29160,6,0,P|179:96|71:113,1,180,10|2,0:1|0:0,0:0:0:0:
43,146,30143,1,2,0:0:0:0:
77,235,30635,2,0,L|70:311,1,60,8|2,0:0|0:0,0:0:0:0:
38,330,31127,6,0,L|159:320,1,120,2|8,0:0|0:0,0:0:0:0:
243,363,32111,2,0,L|364:353,1,120,2|8,0:0|0:0,0:0:0:0:
409,362,32848,1,0,0:0:0:0:
409,362,33094,6,0,P|452:313|427:200,1,180,8|10,0:1|0:1,0:0:0:0:
391,183,34078,1,2,0:0:0:0:
310,235,34570,2,0,L|236:227,1,60,8|0,0:0|0:0,0:0:0:0:
215,195,35061,6,0,L|155:201,1,60,8|2,0:1|0:0,0:0:0:0:
116,231,35553,2,0,P|59:241|12:207,1,120,10|8,0:0|0:1,0:0:0:0:
0,156,36291,1,10,0:1:0:0:
0,156,36537,2,0,L|6:81,1,60,8|2,0:0|0:0,0:0:0:0:
21,50,37029,5,8,0:1:0:0:
99,105,37520,2,0,L|158:98,1,60,8|0,0:0|0:0,0:0:0:0:
203,80,38012,2,0,L|262:73,1,60,0|8,0:0|0:1,0:0:0:0:
307,55,38504,1,10,0:0:0:0:
398,83,38996,6,0,P|437:147|321:217,1,240,4|2,0:0|0:0,0:0:0:0:
282,195,40225,1,8,0:1:0:0:
282,195,40471,2,0,L|223:202,1,60,8|0,0:0|0:0,0:0:0:0:
178,181,40963,5,8,0:1:0:0:
82,193,41455,1,8,0:0:0:0:
82,193,41701,2,0,P|76:252|70:312,1,120,0|8,0:0|0:1,0:0:0:0:
152,360,42684,6,0,P|214:369|268:345,1,120,0|0,0:0|0:0,0:0:0:0:
300,314,43422,1,10,0:0:0:0:
300,314,43668,2,0,P|354:291|413:301,1,120,8|8,0:1|0:1,0:0:0:0:
457,320,44406,2,0,L|463:260,1,60,10|0,0:0|2:0,0:0:0:0:
469,212,44897,5,10,2:1:0:0:
407,137,45389,2,0,L|402:76,2,60,8|8|2,0:0|0:1|0:0,0:0:0:0:
382,178,46127,1,8,0:1:0:0:
382,178,46373,2,0,L|321:183,1,60,8|0,0:0|0:0,0:0:0:0:
282,209,46865,6,0,P|233:186|162:203,1,120,8|8,0:1|0:0,0:0:0:0:
161,293,47848,2,0,P|210:316|281:299,1,120,2|8,0:0|0:0,0:0:0:0:
319,290,48586,6,0,P|376:277|430:301,1,120,2|2,0:0|0:0,0:0:0:0:
465,335,49324,1,8,0:0:0:0:
508,249,49815,2,0,L|500:118,1,120,2|8,0:0|0:0,0:0:0:0:
497,81,50553,1,0,0:0:0:0:
497,81,50799,6,0,P|455:53|374:78,1,120,8|10,0:1|0:0,0:0:0:0:
351,93,51537,1,0,0:0:0:0:
351,93,51783,2,0,P|300:152|184:125,1,180,8|0,0:1|0:0,0:0:0:0:
171,110,52766,5,8,0:1:0:0:
85,153,53258,2,0,L|73:276,1,120,10|0,0:1|0:0,0:0:0:0:
89,317,53996,2,0,L|13:327,2,60,8|8|8,0:1|0:0|0:0,0:0:0:0:
121,352,54733,6,0,P|178:365|233:343,1,120,4|8,0:0|0:0,0:0:0:0:
277,258,55717,2,0,P|331:235|389:249,1,120,8|8,0:1|0:0,0:0:0:0:
429,274,56455,1,0,0:0:0:0:
429,274,56701,6,0,L|421:369,2,90,0|0|2,3:0|3:0|3:2,0:0:0:0:
461,183,57930,1,8,0:1:0:0:
461,183,58176,2,0,L|454:112,1,60,10|0,0:0|0:0,0:0:0:0:
431,80,58668,5,8,0:1:0:0:
335,68,59160,2,0,L|343:-1,2,60,8|0|8,0:0|0:0|0:1,0:0:0:0:
258,126,60143,2,0,L|180:133,1,60,8|0,0:0|0:0,0:0:0:0:
162,164,60635,6,0,L|84:171,1,60,8|0,0:1|0:0,0:0:0:0:
61,196,61127,2,0,P|53:224|55:254,1,60,8|8,0:0|0:1,0:0:0:0:
69,300,61619,2,0,L|192:291,1,120,2|8,0:0|0:0,0:0:0:0:
264,350,62602,6,0,L|387:341,1,120,4|8,0:0|0:0,0:0:0:0:
475,312,63586,2,0,P|502:244|481:184,1,120,8|8,0:1|0:0,0:0:0:0:
458,168,64324,1,0,0:0:0:0:
458,168,64570,6,0,L|472:57,2,90,0|0|0,3:0|3:0|3:0,0:0:0:0:
362,173,65799,1,8,0:1:0:0:
362,173,66045,2,0,L|301:166,1,60,10|0,0:0|0:0,0:0:0:0:
254,161,66537,5,8,0:1:0:0:
174,214,67029,2,0,P|159:147|190:88,2,120,10|8|8,0:0|0:1|0:0,0:0:0:0:
200,253,68258,1,8,0:0:0:0:
200,253,68504,6,0,L|304:262,2,90,0|2|8,3:0|3:2|3:1,0:0:0:0:
178,296,69488,2,0,L|110:290,2,60,8|2|8,0:1|0:0|0:0,0:0:0:0:
256,351,70471,6,0,P|304:306|416:340,1,180,0|8,3:0|0:1,0:0:0:0:
450,352,71455,2,0,P|456:308|461:263,1,90,2|8,3:2|3:2,0:0:0:0:
449,48,74406,6,0,P|401:93|289:59,1,180,0|8,3:0|0:1,0:0:0:0:
255,47,75390,2,0,P|249:91|244:136,1,90,2|8,3:2|3:2,0:0:0:0:
60,192,78340,5,4,0:0:0:0:
127,259,78832,2,0,L|255:249,1,120,2|2,0:0|0:0,0:0:0:0:
290,229,79570,2,0,L|282:300,2,60,0|2|0,0:0|0:0|0:0,0:0:0:0:
296,181,80307,5,2,0:0:0:0:
274,87,80799,2,0,P|219:64|161:78,1,120,2|2,0:0|0:0,0:0:0:0:
117,97,81537,1,0,0:0:0:0:
117,97,81783,2,0,L|124:168,1,60,2|0,0:0|0:0,0:0:0:0:
130,204,82274,5,2,0:0:0:0:
66,276,82766,2,0,P|114:300|193:277,1,120,0|0,0:0|0:0,0:0:0:0:
216,260,83504,1,0,0:0:0:0:
216,260,83750,2,0,L|223:331,1,60,2|0,0:0|0:0,0:0:0:0:
258,350,84242,6,0,P|312:367|376:231,1,240,2|2,0:0|0:0,0:0:0:0:
291,190,85717,2,0,L|296:130,1,60,8|0,0:1|0:0,0:0:0:0:
327,92,86209,6,0,P|270:111|211:98,1,120,2|8,0:0|0:1,0:0:0:0:
140,36,87192,2,0,P|81:24|26:44,1,120,2|8,0:0|0:1,0:0:0:0:
0,83,87930,1,0,0:0:0:0:
0,83,88176,6,0,L|15:287,1,180,8|2,0:1|0:0,0:0:0:0:
26,308,89160,1,2,0:0:0:0:
104,252,89652,2,0,L|165:247,1,60,2|0,0:0|0:0,0:0:0:0:
201,217,90143,2,0,L|262:212,1,60,8|2,0:1|0:0,0:0:0:0:
298,182,90635,6,0,P|354:166|408:190,1,120,2|8,0:0|0:1,0:0:0:0:
439,226,91373,1,10,0:1:0:0:
439,226,91619,2,0,P|439:260|436:286,1,60,8|2,0:1|0:0,0:0:0:0:
424,332,92111,5,8,0:1:0:0:
333,367,92602,2,0,L|271:362,1,60,10|0,0:0|0:0,0:0:0:0:
246,321,93094,2,0,L|184:326,1,60,8|0,0:0|0:0,0:0:0:0:
144,349,93586,2,0,L|84:344,1,60,10|0,0:1|0:0,0:0:0:0:
33,366,94078,6,0,P|7:300|142:217,1,240,4|2,0:0|0:0,0:0:0:0:
166,226,95307,1,8,0:1:0:0:
166,226,95553,2,0,P|206:228|245:214,1,60,8|0,0:0|0:0,0:0:0:0:
264,195,96045,5,8,0:1:0:0:
319,273,96537,1,8,0:0:0:0:
319,273,96783,2,0,P|389:265|453:260,1,120,0|8,0:0|0:1,0:0:0:0:
504,191,97766,2,0,P|521:149|498:70,1,120,0|0,0:0|0:0,0:0:0:0:
471,43,98504,1,10,0:0:0:0:
471,43,98750,2,0,P|401:51|337:56,1,120,8|8,0:1|0:1,0:0:0:0:
314,86,99488,2,0,L|253:80,1,60,10|0,0:0|0:0,0:0:0:0:
210,61,99979,5,8,0:1:0:0:
135,120,100471,2,0,L|74:125,2,60,8|0|0,0:0|0:0|0:0,0:0:0:0:
176,145,101209,1,8,0:1:0:0:
176,145,101455,2,0,L|181:206,1,60,8|0,0:0|0:0,0:0:0:0:
160,248,101947,6,0,P|137:297|154:368,1,120,8|8,0:1|0:0,0:0:0:0:
244,369,102930,2,0,P|267:320|250:249,1,120,2|8,0:0|0:0,0:0:0:0:
241,211,103668,6,0,P|297:237|357:226,1,120,2|2,0:0|0:0,0:0:0:0:
385,193,104406,1,8,0:0:0:0:
371,98,104897,2,0,P|315:72|255:83,1,120,2|8,0:0|0:0,0:0:0:0:
218,106,105635,1,0,0:0:0:0:
218,106,105881,6,0,P|159:114|106:88,1,120,8|10,0:1|0:0,0:0:0:0:
76,50,106619,1,0,0:0:0:0:
76,50,106865,2,0,P|102:123|40:206,1,180,8|0,0:1|0:0,0:0:0:0:
2,216,107848,5,8,0:1:0:0:
26,308,108340,2,0,L|152:296,1,120,10|0,0:1|0:0,0:0:0:0:
192,306,109078,2,0,L|186:377,2,60,8|8|8,0:1|0:0|0:0,0:0:0:0:
228,274,109815,6,0,P|285:263|345:288,1,120,4|8,0:0|0:0,0:0:0:0:
428,324,110799,2,0,L|439:204,1,120,8|8,0:1|0:0,0:0:0:0:
451,158,111537,1,0,0:0:0:0:
451,158,111783,6,0,L|445:59,2,90,0|0|2,3:0|3:0|3:2,0:0:0:0:
354,160,113012,1,8,0:1:0:0:
354,160,113258,2,0,L|279:167,1,60,10|0,0:0|0:0,0:0:0:0:
248,151,113750,5,8,0:1:0:0:
161,192,114242,2,0,L|92:183,2,60,8|0|8,0:0|0:0|0:1,0:0:0:0:
190,283,115225,2,0,L|259:292,1,60,8|0,0:0|0:0,0:0:0:0:
282,325,115717,6,0,L|365:319,1,60,8|0,0:1|0:0,0:0:0:0:
380,349,116209,2,0,L|463:343,1,60,8|8,0:0|0:1,0:0:0:0:
478,373,116701,2,0,L|495:245,1,120,2|8,0:0|0:0,0:0:0:0:
470,160,117684,6,0,P|416:136|357:150,1,120,4|8,0:0|0:0,0:0:0:0:
271,189,118668,2,0,P|213:202|159:178,1,120,8|8,0:1|0:0,0:0:0:0:
130,139,119406,1,0,0:0:0:0:
130,139,119652,6,0,L|136:40,2,90,0|0|0,3:0|3:0|3:0,0:0:0:0:
41,175,120881,1,8,0:1:0:0:
41,175,121127,2,0,P|48:221|52:255,1,60,10|0,0:0|0:0,0:0:0:0:
76,274,121619,5,8,0:1:0:0:
140,345,122111,2,0,P|85:367|28:356,2,120,10|8|8,0:0|0:1|0:0,0:0:0:0:
176,314,123340,1,8,0:0:0:0:
176,314,123586,6,0,L|182:215,2,90,0|2|8,3:0|3:2|3:1,0:0:0:0:
221,330,124570,2,0,P|250:326|280:324,1,60,8|2,0:1|0:0,0:0:0:0:
321,350,125061,2,0,P|350:349|380:343,1,60,8|8,0:0|0:1,0:0:0:0:
421,319,125553,6,0,L|431:187,1,120,4|10,0:0|0:0,0:0:0:0:
437,103,126537,2,0,P|383:78|326:92,1,120,8|10,0:1|0:0,0:0:0:0:
287,120,127274,1,2,0:0:0:0:
287,120,127520,6,0,P|229:134|176:109,1,120,10|10,0:1|0:0,0:0:0:0:
157,65,128258,2,0,P|97:53|38:81,1,120,8|0,0:1|0:0,0:0:0:0:
4,102,128996,2,0,P|11:132|16:161,1,60,10|8,0:0|0:1,0:0:0:0:
18,208,129488,5,8,0:1:0:0:
108,238,129979,2,0,P|103:275|98:308,1,60,8|0,0:0|0:0,0:0:0:0:
64,330,130471,2,0,P|122:322|180:349,1,120,8|8,0:1|0:0,0:0:0:0:
221,365,131209,1,8,0:1:0:0:
221,365,131455,6,0,L|299:357,1,60,8|2,0:1|0:0,0:0:0:0:
324,338,131947,2,0,P|381:351|434:325,1,120,8|0,0:0|0:0,0:0:0:0:
455,281,132684,1,0,0:0:0:0:
455,281,132930,2,0,L|448:208,1,60,10|0,0:0|0:0,0:0:0:0:
443,173,133422,5,6,0:0:0:0:
361,124,133914,2,0,L|369:65,1,60,10|2,0:0|0:0,0:0:0:0:
403,31,134406,2,0,L|276:42,1,120,10|10,0:1|0:0,0:0:0:0:
243,67,135143,1,2,0:0:0:0:
243,67,135389,6,0,P|177:37|85:105,1,180,0|2,3:0|3:2,0:0:0:0:
63,128,136373,2,0,P|70:187|74:247,1,120,2|10,0:0|0:0,0:0:0:0:
53,340,137356,6,0,P|84:342|111:334,1,60,8|8,0:1|0:1,0:0:0:0:
152,308,137848,2,0,P|183:306|210:313,1,60,8|0,0:0|0:0,0:0:0:0:
254,333,138340,2,0,L|328:326,1,60,8|10,0:1|0:1,0:0:0:0:
355,351,138832,2,0,L|429:344,1,60,10|2,0:0|0:0,0:0:0:0:
459,328,139324,6,0,P|500:248|460:164,1,180,10|10,0:1|0:1,0:0:0:0:
423,147,140307,2,0,P|372:171|310:155,1,120,2|8,0:0|0:0,0:0:0:0:
256,78,141291,1,4,0:0:0:0:
160,147,144733,6,0,P|166:184|169:213,1,60,0|0,0:0|0:0,0:0:0:0:
170,254,145225,2,0,P|137:280|21:229,1,180,2|2,0:0|0:0,0:0:0:0:
60,144,146455,2,0,P|63:113|65:84,1,60,0|0,0:0|0:0,0:0:0:0:
106,58,146947,6,0,P|177:45|223:65,1,120,2|0,0:0|0:0,0:0:0:0:
256,93,147684,2,0,P|290:90|317:86,1,60,0|2,0:0|0:0,0:0:0:0:
359,66,148176,1,0,0:0:0:0:
448,101,148668,1,4,0:3:0:0:
400,186,149160,6,0,P|404:229|406:260,1,60,4|0,0:0|0:0,0:0:0:0:
444,273,149652,2,0,P|437:315|435:335,1,60,8|0,0:1|0:0,0:0:0:0:
395,359,150143,2,0,P|322:312|235:340,1,180,2|2,0:0|0:0,0:0:0:0:
155,287,151373,6,0,L|164:217,2,60,0|10|0,0:0|0:1|0:0,0:0:0:0:
137,331,152111,2,0,P|76:331|37:219,1,180,2|0,0:0|0:0,0:0:0:0:
53,192,153094,5,6,0:0:0:0:
256,192,153340,12,8,156783,0:0:0:0:
162,90,158996,6,0,P|104:76|48:97,1,120,4|8,0:0|0:0,0:0:0:0:
53,192,159979,2,0,P|110:205|166:184,1,120,8|8,0:1|0:0,0:0:0:0:
207,158,160717,1,0,0:0:0:0:
207,158,160963,6,0,L|198:47,2,90,0|0|2,3:0|3:0|3:2,0:0:0:0:
276,224,162192,1,8,0:1:0:0:
276,224,162438,2,0,P|272:253|268:283,1,60,10|0,0:0|0:0,0:0:0:0:
287,328,162930,5,8,0:1:0:0:
383,311,163422,2,0,L|390:375,2,60,8|0|8,0:0|0:0|0:1,0:0:0:0:
411,271,164160,1,2,0:0:0:0:
411,271,164406,2,0,P|415:224|419:191,1,60,8|0,0:0|0:0,0:0:0:0:
443,171,164897,6,0,P|441:141|437:111,1,60,8|0,0:1|0:0,0:0:0:0:
432,63,165389,2,0,P|404:52|374:54,1,60,8|8,0:0|0:1,0:0:0:0:
331,78,165881,2,0,P|278:102|221:85,1,120,2|8,0:0|0:0,0:0:0:0:
142,31,166865,6,0,L|129:167,1,120,4|8,0:0|0:0,0:0:0:0:
39,179,167848,2,0,L|52:315,1,120,8|8,0:1|0:0,0:0:0:0:
75,341,168586,1,0,0:0:0:0:
75,341,168832,6,0,L|-33:352,2,90,0|0|0,3:0|3:0|3:0,0:0:0:0:
161,299,170061,1,8,0:1:0:0:
161,299,170307,2,0,L|239:308,1,60,10|0,0:0|0:0,0:0:0:0:
267,315,170799,5,8,0:1:0:0:
348,264,171291,2,0,P|362:321|341:376,2,120,10|8|8,0:0|0:1|0:0,0:0:0:0:
327,220,172520,1,0,0:0:0:0:
327,220,172766,6,0,L|416:212,2,90,0|2|8,3:0|3:2|3:1,0:0:0:0:
302,178,173750,2,0,L|230:183,1,60,8|2,0:1|0:0,0:0:0:0:
211,144,174242,2,0,L|139:149,1,60,8|2,0:0|0:0,0:0:0:0:
119,112,174733,5,2,0:0:0:0:
23,102,175225,1,8,0:0:0:0:
63,191,175717,2,0,L|53:317,1,120,2|8,0:0|0:0,0:0:0:0:
31,353,176455,1,0,0:0:0:0:
31,353,176701,6,0,P|93:306|195:330,1,180,0|2,0:0|0:0,0:0:0:0:
222,357,177684,1,0,0:0:0:0:
320,323,178176,2,0,L|379:328,1,60,10|0,0:0|0:0,0:0:0:0:
424,346,178668,5,8,0:1:0:0:
489,276,179160,2,0,L|494:215,1,60,10|0,0:0|0:0,0:0:0:0:
485,168,179652,2,0,P|434:195|358:171,1,120,0|8,0:0|0:0,0:0:0:0:
347,144,180389,1,0,0:0:0:0:
347,144,180635,6,0,P|350:95|354:68,1,60,0|0,0:0|0:0,0:0:0:0:
348,36,181127,2,0,P|297:43|269:44,1,60,8|8,0:0|0:0,0:0:0:0:
241,52,181619,2,0,P|186:28|128:40,1,120,2|10,0:0|0:0,0:0:0:0:
53,100,182602,6,0,P|36:157|53:223,1,120,4|8,0:0|0:0,0:0:0:0:
98,297,183586,2,0,L|221:288,1,120,8|8,0:1|0:0,0:0:0:0:
265,283,184324,1,0,0:0:0:0:
265,283,184570,6,0,P|259:335|255:379,2,90,0|0|0,3:0|3:0|3:0,0:0:0:0:
359,268,185799,1,8,0:1:0:0:
359,268,186045,2,0,P|366:217|368:189,1,60,10|0,0:0|0:0,0:0:0:0:
372,160,186537,5,8,0:1:0:0:
318,80,187029,2,0,P|250:86|191:90,1,120,10|8,0:0|0:1,0:0:0:0:
155,112,187766,1,8,0:1:0:0:
155,112,188012,2,0,P|102:104|77:102,1,60,8|8,0:0|0:0,0:0:0:0:
53,126,188504,6,0,P|48:81|43:36,2,90,0|2|8,3:0|3:2|3:1,0:0:0:0:
111,202,189733,1,2,0:0:0:0:
111,202,189979,2,0,P|118:230|114:260,1,60,8|8,0:0|0:0,0:0:0:0:
96,305,190471,5,0,3:0:0:0:
96,305,190717,2,0,P|57:311|21:321,2,60,2|8|8,0:0|0:0|0:1,0:0:0:0:
117,348,191455,2,0,P|163:352|214:358,1,90,2|8,3:2|3:2,0:0:0:0:
416,217,194406,5,0,3:0:0:0:
416,217,194652,2,0,P|455:223|491:233,2,60,2|8|8,0:0|0:0|0:1,0:0:0:0:
395,260,195390,2,0,P|349:264|298:270,1,90,2|8,3:2|3:2,0:0:0:0:
186,243,196373,6,0,P|183:211|178:173,1,60,10|8,0:1|0:1,0:0:0:0:
191,136,196865,2,0,P|235:130|280:124,2,90,10|2|10,0:0|0:0|0:1,0:0:0:0:
170,91,197848,2,0,P|128:78|85:89,1,90,10|0,3:2|0:0,0:0:0:0:
