osu file format v14

[General]
AudioFilename: audio.mp3
AudioLeadIn: 0
PreviewTime: 54733
Countdown: 0
SampleSet: Soft
StackLeniency: 0.7
Mode: 0
LetterboxInBreaks: 0
WidescreenStoryboard: 1

[Editor]
Bookmarks: 7520,23258,78340,109815,125553,144733,158996,162438,182602
DistanceSpacing: 1.1
BeatDivisor: 4
GridSize: 4
TimelineZoom: 1.2

[Metadata]
Title:Egao no Dessin
TitleUnicode:笑顔のデッサン
Artist:Mikazuki Yozora(CV:Inoue Marina)&Kashiwazaki Sena(CV:Ito Kanae)
ArtistUnicode:三日月夜空(CV:井上麻里奈)&柏崎星奈(CV:伊藤かな恵)
Creator:Chaoslitz
Version:Gaia's Hard
Source:僕は友達が少ない
Tags:boku wa tomodachi ga sukunai haganai rinjinbu ova ed Gaia hotaru yamazo 田村信二 Shinji Tamura
BeatmapID:1310918
BeatmapSetID:615376

[Difficulty]
HPDrainRate:5
CircleSize:4
OverallDifficulty:6
ApproachRate:7
SliderMultiplier:1.5
SliderTickRate:1

[Events]
//Background and Video events
0,0,"sb/bg.jpg",0,0
//Break Periods
2,15389,22358
2,78540,85309
2,141491,147768
//Storyboard Layer 0 (Background)
//Storyboard Layer 1 (Fail)
//Storyboard Layer 2 (Pass)
//Storyboard Layer 3 (Foreground)
Sprite,Foreground,Centre,"sb\anna.png",320,240 S,0,19324,,0.4 F,0,19324,19570,0,1 M,0,19324,22274,320,380 F,0,19570,22274,1 F,0,22274,22397,1,0
//Storyboard Sound Samples

[TimingPoints]
-348,491.803278688525,4,2,1,50,1,0
7520,-125,4,2,1,50,0,0
23258,-100,4,2,1,70,0,0
38996,-100,4,2,1,75,0,0
54733,-90.9090909090909,4,2,1,85,0,1
56701,-90.9090909090909,4,2,1,85,0,1
57684,-90.9090909090909,4,2,1,85,0,1
58176,-90.9090909090909,4,2,1,85,0,1
64570,-90.9090909090909,4,2,1,85,0,1
65799,-90.9090909090909,4,2,1,85,0,1
66537,-90.9090909090909,4,2,1,85,0,1
68504,-90.9090909090909,4,2,1,85,0,1
69488,-90.9090909090909,4,2,1,85,0,1
69979,-90.9090909090909,4,2,1,85,0,1
73668,-90.9090909090909,4,2,1,85,0,1
73914,-90.9090909090909,4,2,1,85,0,1
74406,-90.9090909090909,4,2,1,85,0,1
77602,-90.9090909090909,4,2,1,85,0,1
77848,-90.9090909090909,4,2,1,85,0,1
78340,-100,4,2,1,50,0,0
85717,-100,4,2,1,50,0,0
86209,-100,4,2,1,60,0,0
94078,-100,4,2,1,75,0,0
109815,-90.9090909090909,4,2,1,85,0,1
111783,-90.9090909090909,4,2,1,85,0,1
112766,-90.9090909090909,4,2,1,85,0,1
113258,-90.9090909090909,4,2,1,85,0,1
119652,-90.9090909090909,4,2,1,85,0,1
120881,-90.9090909090909,4,2,1,85,0,1
121619,-90.9090909090909,4,2,1,85,0,1
123586,-90.9090909090909,4,2,1,85,0,1
124570,-90.9090909090909,4,2,1,85,0,1
125553,-100,4,2,1,85,0,0
144733,-100,4,2,1,40,0,0
148668,-142.857142857143,4,2,1,40,0,0
149406,-100,4,2,1,45,0,0
151373,-100,4,2,1,50,0,0
157520,-100,4,2,1,60,0,0
158012,-100,4,2,1,70,0,0
158504,-100,4,2,1,80,0,0
158996,-90.9090909090909,4,2,1,85,0,1
160963,-90.9090909090909,4,2,1,85,0,1
161947,-90.9090909090909,4,2,1,85,0,1
162438,-90.9090909090909,4,2,1,85,0,1
168832,-90.9090909090909,4,2,1,85,0,1
170061,-90.9090909090909,4,2,1,85,0,1
170799,-90.9090909090909,4,2,1,85,0,1
172766,-90.9090909090909,4,2,1,85,0,1
173750,-90.9090909090909,4,2,1,85,0,1
174733,-125,4,2,1,60,0,0
181619,-111.111111111111,4,2,1,60,0,0
182111,-100,4,2,1,60,0,0
182602,-90.9090909090909,4,2,1,85,0,1
184570,-90.9090909090909,4,2,1,85,0,1
185799,-90.9090909090909,4,2,1,85,0,1
186537,-90.9090909090909,4,2,1,85,0,1
188504,-90.9090909090909,4,2,1,85,0,1
189488,-90.9090909090909,4,2,1,85,0,1
189733,-90.9090909090909,4,2,1,85,0,1
189979,-90.9090909090909,4,2,1,85,0,1
190225,-90.9090909090909,4,2,1,85,0,1
193914,-90.9090909090909,4,2,1,85,0,1
194406,-90.9090909090909,4,2,1,85,0,1
197848,-83.3333333333333,4,2,1,85,0,0
198217,-100,4,2,1,60,0,0
198340,-100,4,2,1,50,0,0

[Colours]
Combo1 : 255,252,173
Combo2 : 252,191,220
Combo3 : 174,245,252

[HitObjects]
52,160,7520,6,0,L|128:148,1,60,6|2,0:0|0:0,0:0:0:0:
156,80,8012,2,0,L|232:68,1,60,2|2,0:0|0:0,0:0:0:0:
284,116,8504,2,0,P|296:172|260:212,1,90,2|2,0:0|0:0,0:0:0:0:
460,224,11455,6,0,L|384:236,1,60,2|2,0:0|0:0,0:0:0:0:
356,304,11947,2,0,L|280:316,1,60,2|2,0:0|0:0,0:0:0:0:
228,268,12439,2,0,P|216:212|252:172,1,90,2|2,0:0|0:0,0:0:0:0:
76,212,23258,6,0,P|69:256|68:308,1,75,4|2,0:0|0:0,0:0:0:0:
156,260,23750,2,0,L|288:240,1,112.5,8|8,0:0|0:1,0:0:0:0:
296,208,24242,2,0,P|271:206|224:188,1,75,2|8,0:0|0:1,0:0:0:0:
168,120,24733,2,0,P|202:105|239:100,1,75,8|0,0:0|0:0,0:0:0:0:
304,36,25225,2,0,L|400:60,1,75,8|2,0:1|0:0,0:0:0:0:
464,72,25717,2,0,P|488:108|484:196,1,112.5,8|8,0:0|0:1,0:0:0:0:
460,208,26209,2,0,L|452:296,1,75,2|8,0:0|0:1,0:0:0:0:
364,304,26701,2,0,L|370:229,1,75,8|0,0:0|0:0,0:0:0:0:
332,148,27192,5,8,0:1:0:0:
244,124,27438,1,2,0:0:0:0:
176,184,27684,2,0,P|139:195|92:204,1,75,8|0,0:0|0:0,0:0:0:0:
60,184,28053,2,0,P|28:124|64:68,1,112.5,10|0,0:1|0:0,0:0:0:0:
108,24,28668,2,0,P|122:63|128:112,1,75,8|0,0:0|0:0,0:0:0:0:
176,184,29160,2,0,P|230:170|292:168,1,112.5,10|2,0:1|0:0,0:0:0:0:
332,148,29652,2,0,P|368:164|420:164,1,75,0|2,0:0|0:0,0:0:0:0:
460,96,30143,2,0,B|428:172|476:172|448:248,1,150,2|8,0:0|0:0,0:0:0:0:
380,300,30881,1,2,0:0:0:0:
380,300,31004,1,0,0:0:0:0:
380,300,31127,6,0,P|322:306|256:316,1,112.5,2|0,0:0|0:0,0:0:0:0:
236,348,31619,2,0,P|180:340|124:333,1,112.5,8|8,0:0|0:1,0:0:0:0:
80,324,32111,2,0,P|68:288|80:248,1,75,2|8,0:0|0:1,0:0:0:0:
148,200,32602,2,0,P|160:164|148:124,1,75,8|0,0:0|0:0,0:0:0:0:
180,44,33094,2,0,P|216:84|292:68,1,112.5,8|2,0:1|0:0,0:0:0:0:
312,64,33586,1,0,0:0:0:0:
400,24,33832,2,0,L|376:192,1,150,10|0,0:1|0:0,0:0:0:0:
448,228,34570,2,0,P|461:268|460:316,1,75,8|0,0:0|0:0,0:0:0:0:
428,332,34938,1,0,0:0:0:0:
428,332,35061,6,0,L|336:344,1,75,8|2,0:1|0:0,0:0:0:0:
272,300,35553,2,0,L|192:292,1,75,10|0,0:0|0:0,0:0:0:0:
152,284,35922,2,0,P|128:244|160:176,1,112.5,8|10,0:1|0:1,0:0:0:0:
192,108,36537,2,0,P|156:101|104:96,1,75,8|2,0:0|0:0,0:0:0:0:
224,16,37029,2,0,P|262:7|320:0,1,75,8|2,0:1|0:0,0:0:0:0:
340,16,37397,1,0,0:0:0:0:
340,16,37520,1,8,0:0:0:0:
396,84,37766,1,0,0:0:0:0:
352,164,38012,2,0,P|335:205|336:256,1,75,0|8,0:0|0:1,0:0:0:0:
244,332,38504,2,0,P|240:294|224:260,1,75,10|0,0:0|0:0,0:0:0:0:
188,236,38873,1,0,0:0:0:0:
188,236,38996,6,0,P|106:247|16:256,1,150,4|8,0:0|0:0,0:0:0:0:
16,168,39733,2,0,P|90:160|164:149,1,150,0|8,0:0|0:1,0:0:0:0:
240,96,40471,2,0,P|248:60|252:16,1,75,8|0,0:0|0:0,0:0:0:0:
356,100,40963,2,0,P|388:152|476:160,1,150,8|8,0:1|0:0,0:0:0:0:
504,256,41701,1,0,0:0:0:0:
504,256,41824,1,8,0:1:0:0:
504,256,41947,2,0,P|461:261|408:272,1,75,2|8,0:1|0:1,0:0:0:0:
372,336,42438,2,0,P|332:328|284:320,1,75,8|0,0:0|0:0,0:0:0:0:
236,256,42930,6,0,P|199:267|140:272,2,75,8|0|10,0:1|0:0|0:0,0:0:0:0:
184,184,43668,2,0,P|187:132|200:28,1,150,8|8,0:1|0:1,0:0:0:0:
288,16,44406,2,0,P|292:58|300:100,1,75,10|0,0:0|0:0,0:0:0:0:
375,135,44897,2,0,P|409:131|467:119,1,75,10|2,0:1|0:0,0:0:0:0:
486,98,45266,1,0,0:0:0:0:
486,98,45389,2,0,P|481:153|483:199,1,75,8|8,0:0|0:1,0:0:0:0:
500,216,45758,1,0,0:0:0:0:
500,216,45881,2,0,P|504:271|503:317,1,75,2|8,0:0|0:1,0:0:0:0:
432,344,46373,2,0,P|402:335|344:328,1,75,8|0,0:0|0:0,0:0:0:0:
288,248,46865,6,0,B|184:272|184:272|165:258|131:245,2,150,8|8|2,0:1|0:0|0:0,0:0:0:0:
340,172,48094,1,8,0:1:0:0:
340,172,48340,2,0,P|341:133|320:92,1,75,8|2,0:0|0:0,0:0:0:0:
288,20,48832,2,0,L|200:40,1,75,8|2,0:1|0:0,0:0:0:0:
128,20,49324,2,0,P|72:40|72:112,1,112.5,8|8,0:0|0:1,0:0:0:0:
76,128,49815,2,0,L|88:220,1,75,2|8,0:0|0:1,0:0:0:0:
20,264,50307,2,0,P|4:304|8:344,1,75,8|0,0:0|0:0,0:0:0:0:
40,364,50676,1,0,0:0:0:0:
40,364,50799,6,0,L|160:344,1,112.5,8|0,0:1|0:0,0:0:0:0:
184,312,51291,2,0,P|236:324|260:336,1,75,10|0,0:0|0:0,0:0:0:0:
340,296,51783,2,0,P|372:248|328:192,1,112.5,8|0,0:1|0:0,0:0:0:0:
316,172,52274,2,0,P|264:184|240:196,1,75,8|0,0:0|0:0,0:0:0:0:
168,148,52766,2,0,P|152:100|168:60,1,75,8|0,0:1|0:0,0:0:0:0:
68,148,53258,2,0,B|60:228|60:228|32:260,2,112.5,10|10|8,0:1|0:1|0:1,0:0:0:0:
44,108,54119,1,0,0:0:0:0:
44,108,54242,1,8,0:0:0:0:
84,29,54488,1,8,0:0:0:0:
84,29,54611,1,8,0:0:0:0:
84,29,54733,6,0,B|151:32|193:50|193:50|202:25|226:7,1,165.000005035401,4|8,0:0|0:0,0:0:0:0:
371,115,55717,2,0,B|438:111|480:94|480:94|489:118|511:136,1,165.000005035401,8|8,0:1|0:0,0:0:0:0:
442,195,56455,1,0,0:0:0:0:
442,195,56701,2,0,P|432:241|422:327,1,123.75000377655,0|0,3:0|3:0,0:0:0:0:
439,359,57192,1,0,0:0:0:0:
339,377,57438,2,0,P|254:365|163:353,1,165.000005035401,2|8,3:2|0:1,0:0:0:0:
165,264,58176,2,0,L|69:288,1,82.5000025177003,10|0,0:0|0:0,0:0:0:0:
41,292,58545,1,0,0:0:0:0:
41,292,58668,6,0,P|-15:228|25:168,1,165.000005035401,8|8,0:1|0:0,0:0:0:0:
72,92,59406,1,0,0:0:0:0:
72,92,59529,1,0,0:0:0:0:
72,92,59652,2,0,P|113:98|156:100,1,82.5000025177003,8|2,0:1|0:0,0:0:0:0:
224,44,60143,2,0,P|265:37|308:36,1,82.5000025177003,8|0,0:0|0:0,0:0:0:0:
404,20,60635,2,0,P|393:66|384:124,1,82.5000025177003,8|0,0:1|0:0,0:0:0:0:
256,212,61127,2,0,P|246:171|239:131,1,82.5000025177003,8|8,0:0|0:1,0:0:0:0:
464,128,61619,2,0,P|432:168|324:148,1,165.000005035401,2|8,0:0|0:0,0:0:0:0:
252,104,62356,1,8,0:1:0:0:
252,104,62479,1,8,0:0:0:0:
252,104,62602,6,0,B|212:72|168:80|168:80|148:120|84:128,1,165.000005035401,4|8,0:0|0:0,0:0:0:0:
40,292,63586,2,0,B|80:324|124:316|124:316|144:276|208:268,1,165.000005035401,8|8,0:1|0:0,0:0:0:0:
252,216,64324,1,0,0:0:0:0:
252,216,64570,2,0,P|267:256|272:304,1,82.5000025177003,0|0,3:0|0:0,0:0:0:0:
280,340,64938,1,0,3:0:0:0:
280,340,65061,1,8,0:0:0:0:
364,380,65307,1,0,3:0:0:0:
364,380,65430,2,0,L|380:244,1,123.75000377655,2|8,0:0|0:1,0:0:0:0:
356,168,66045,2,0,P|402:181|444:188,1,82.5000025177003,10|0,0:0|0:0,0:0:0:0:
412,84,66537,6,0,P|352:60|268:116,1,165.000005035401,8|10,0:1|0:0,0:0:0:0:
264,200,67274,1,0,0:0:0:0:
264,200,67397,1,8,0:1:0:0:
264,200,67520,2,0,L|156:216,1,82.5000025177003,8|0,0:1|0:0,0:0:0:0:
120,148,68012,2,0,L|16:128,1,82.5000025177003,8|8,0:0|0:0,0:0:0:0:
8,100,68381,1,8,0:0:0:0:
8,100,68504,2,0,P|18:165|24:236,1,123.75000377655,0|2,3:0|3:2,0:0:0:0:
16,268,68996,1,0,0:0:0:0:
64,348,69242,2,0,P|124:296|228:312,1,165.000005035401,8|2,3:1|0:0,0:0:0:0:
293,180,69979,2,0,P|233:216|153:196,1,123.75000377655,8|8,0:0|0:1,0:0:0:0:
160,172,70471,6,0,P|166:119|172:72,1,82.5000025177003,0|2,3:0|0:0,0:0:0:0:
256,12,70963,2,0,P|260:52|266:93,1,82.5000025177003,8|8,0:0|0:1,0:0:0:0:
324,164,71455,2,0,P|384:154|448:136,2,123.75000377655,2|8|0,3:2|3:2|0:0,0:0:0:0:
252,220,72438,1,10,0:1:0:0:
176,168,72684,1,8,0:1:0:0:
104,224,72930,2,0,P|96:252|96:284,1,41.2500012588501,10|0,0:0|0:0,0:0:0:0:
192,320,73299,2,0,P|250:311|348:296,1,123.75000377655,2|8,0:0|0:1,0:0:0:0:
372,192,73914,2,0,P|368:136|380:68,1,123.75000377655,10|0,3:2|0:0,0:0:0:0:
388,24,74406,6,0,L|288:44,1,82.5000025177003,0|2,3:0|0:0,0:0:0:0:
192,16,74897,2,0,L|92:36,1,82.5000025177003,8|8,0:0|0:1,0:0:0:0:
60,108,75389,2,0,P|28:72|32:-12,2,123.75000377655,2|8|0,3:2|3:2|0:0,0:0:0:0:
152,112,76373,1,10,0:1:0:0:
184,196,76619,1,8,0:1:0:0:
124,264,76865,2,0,L|72:272,1,41.2500012588501,10|0,0:0|0:0,0:0:0:0:
24,352,77233,2,0,P|91:358|152:368,1,123.75000377655,2|8,0:0|0:1,0:0:0:0:
216,308,77848,2,0,P|277:298|338:293,1,123.75000377655,10|0,3:2|0:0,0:0:0:0:
376,312,78340,5,4,0:0:0:0:
88,56,86209,6,0,P|72:96|136:152,1,112.5,2|0,0:0|0:0,0:0:0:0:
148,168,86701,2,0,L|264:144,1,112.5,8|8,0:1|0:1,0:0:0:0:
300,160,87192,2,0,P|316:208|288:256,1,75,2|8,0:0|0:1,0:0:0:0:
224,256,87684,2,0,P|208:289|213:326,1,75,0|0,0:0|0:0,0:0:0:0:
288,376,88176,2,0,L|400:360,1,112.5,8|2,0:1|0:0,0:0:0:0:
444,348,88668,1,0,0:0:0:0:
472,264,88914,2,0,P|456:191|436:116,1,150,2|8,0:0|0:1,0:0:0:0:
428,28,89652,2,0,P|389:45|356:64,1,75,2|0,0:0|0:0,0:0:0:0:
272,48,90143,6,0,P|232:43|184:36,2,75,8|2|2,0:1|0:0|0:0,0:0:0:0:
300,132,90881,1,0,0:0:0:0:
300,132,91004,2,0,P|238:138|156:152,1,112.5,8|10,0:1|0:1,0:0:0:0:
112,96,91619,2,0,P|105:139|100:188,1,75,8|2,0:1|0:1,0:0:0:0:
160,256,92111,2,0,B|93:233|88:284|8:256,2,150,8|10|8,0:1|0:0|0:0,0:0:0:0:
200,280,93217,2,0,P|212:316|216:372,1,75,8|8,0:0|0:0,0:0:0:0:
256,376,93586,1,10,0:1:0:0:
256,376,93709,2,0,P|296:374|344:348,1,75,8|8,0:0|0:0,0:0:0:0:
360,328,94078,6,0,L|376:172,1,150,4|8,0:0|0:0,0:0:0:0:
352,92,94815,2,0,P|300:36|228:76,1,150,8|8,0:1|0:1,0:0:0:0:
164,108,95553,2,0,P|121:97|80:80,1,75,8|0,0:0|0:0,0:0:0:0:
32,20,96045,2,0,P|44:68|64:172,1,150,8|8,0:1|0:0,0:0:0:0:
12,240,96783,1,0,0:0:0:0:
12,240,96906,1,8,0:1:0:0:
12,240,97029,2,0,P|2:285|0:336,1,75,2|8,0:1|0:1,0:0:0:0:
60,380,97520,2,0,P|94:377|136:364,1,75,8|0,0:0|0:0,0:0:0:0:
192,296,98012,6,0,P|239:307|264:320,2,75,8|0|10,0:1|0:0|0:0,0:0:0:0:
296,216,98750,2,0,P|370:206|452:180,1,150,8|8,0:1|0:1,0:0:0:0:
468,100,99488,2,0,P|461:64|448:20,1,75,10|0,0:0|0:0,0:0:0:0:
360,28,99979,2,0,P|370:64|377:100,1,75,8|2,0:1|0:0,0:0:0:0:
340,128,100348,1,0,0:0:0:0:
340,128,100471,2,0,P|305:123|272:100,1,75,8|0,0:0|0:0,0:0:0:0:
236,76,100840,1,8,0:1:0:0:
236,76,100963,2,0,P|195:87|160:104,1,75,0|8,0:0|0:1,0:0:0:0:
104,168,101455,2,0,P|108:216|116:256,1,75,8|0,0:0|0:0,0:0:0:0:
164,316,101947,6,0,P|112:272|24:308,2,150,8|8|2,0:1|0:0|0:0,0:0:0:0:
240,364,103176,1,8,0:1:0:0:
240,364,103422,2,0,P|277:363|332:348,1,75,8|2,0:0|0:0,0:0:0:0:
368,280,103914,2,0,L|356:200,1,75,8|2,0:1|0:0,0:0:0:0:
284,152,104406,2,0,P|291:92|292:28,1,112.5,8|8,0:0|0:1,0:0:0:0:
264,8,104897,2,0,P|216:8|180:40,1,75,2|8,0:0|0:1,0:0:0:0:
140,92,105389,2,0,L|52:76,1,75,8|0,0:0|0:0,0:0:0:0:
24,68,105758,1,0,0:0:0:0:
24,68,105881,6,0,L|40:200,1,112.5,8|0,0:1|0:0,0:0:0:0:
56,220,106373,2,0,P|91:197|132:188,1,75,10|0,0:0|0:0,0:0:0:0:
248,132,106865,2,0,P|284:172|272:244,1,112.5,8|0,0:1|0:0,0:0:0:0:
272,272,107356,2,0,P|236:249|196:240,1,75,8|0,0:0|0:0,0:0:0:0:
124,280,107848,2,0,P|112:336|136:376,1,75,8|0,0:1|0:0,0:0:0:0:
200,208,108340,2,0,L|184:76,2,112.5,10|10|8,0:1|0:1|0:1,0:0:0:0:
272,272,109324,1,0,0:0:0:0:
283,275,109446,1,0,0:0:0:0:
294,279,109569,1,0,0:0:0:0:
307,282,109692,1,0,0:0:0:0:
319,286,109815,6,0,L|483:264,1,165.000005035401,4|8,0:0|0:0,0:0:0:0:
504,84,110799,2,0,L|337:105,1,165.000005035401,8|8,0:1|0:0,0:0:0:0:
268,52,111537,1,0,0:0:0:0:
268,52,111783,2,0,P|216:24|152:52,1,123.75000377655,0|0,3:0|3:0,0:0:0:0:
148,88,112274,1,0,0:0:0:0:
224,156,112520,2,0,P|237:235|250:327,1,165.000005035401,2|8,3:2|0:1,0:0:0:0:
172,368,113258,2,0,P|136:364|96:340,1,82.5000025177003,10|0,0:0|0:0,0:0:0:0:
80,300,113627,1,0,0:0:0:0:
80,300,113750,6,0,L|54:132,1,165.000005035401,8|8,0:1|0:0,0:0:0:0:
28,48,114488,1,0,0:0:0:0:
28,48,114611,1,0,0:0:0:0:
28,48,114733,2,0,L|124:64,1,82.5000025177003,8|2,0:1|0:0,0:0:0:0:
192,28,115225,2,0,L|288:12,1,82.5000025177003,8|0,0:0|0:0,0:0:0:0:
380,0,115717,2,0,P|364:40|376:92,1,82.5000025177003,8|0,0:1|0:0,0:0:0:0:
504,184,116209,2,0,P|506:141|488:101,1,82.5000025177003,8|8,0:0|0:1,0:0:0:0:
372,168,116701,2,0,P|291:183|208:196,1,165.000005035401,2|8,0:0|0:0,0:0:0:0:
128,156,117438,1,8,0:1:0:0:
128,156,117561,1,8,0:0:0:0:
128,156,117684,6,0,P|76:196|96:288,1,165.000005035401,4|8,0:0|0:0,0:0:0:0:
344,364,118668,2,0,P|354:282|292:229,1,165.000005035401,8|8,0:1|0:0,0:0:0:0:
212,196,119406,1,0,0:0:0:0:
212,196,119652,2,0,L|220:104,1,82.5000025177003,0|0,3:0|0:0,0:0:0:0:
224,68,120020,1,0,3:0:0:0:
224,68,120143,1,8,0:0:0:0:
316,16,120389,1,0,3:0:0:0:
316,16,120512,2,0,P|322:82|336:168,1,123.75000377655,2|8,0:0|0:1,0:0:0:0:
408,188,121127,2,0,P|446:174|496:164,1,82.5000025177003,10|0,0:0|0:0,0:0:0:0:
468,276,121619,6,0,B|384:304|384:252|304:276,1,165.000005035401,8|10,0:1|0:0,0:0:0:0:
240,336,122356,1,0,0:0:0:0:
240,336,122479,1,8,0:1:0:0:
240,336,122602,2,0,P|200:348|152:348,1,82.5000025177003,8|0,0:1|0:0,0:0:0:0:
84,296,123094,2,0,P|64:260|76:200,1,82.5000025177003,8|8,0:0|0:0,0:0:0:0:
92,180,123463,1,8,0:0:0:0:
92,180,123586,2,0,L|76:48,1,123.75000377655,0|2,3:0|3:2,0:0:0:0:
72,12,124078,1,0,0:0:0:0:
184,88,124324,2,0,P|236:120|344:80,1,165.000005035401,8|2,3:1|0:0,0:0:0:0:
440,80,125061,2,0,L|436:152,1,41.2500012588501,8|8,0:0|0:0,0:0:0:0:
492,196,125430,1,8,0:0:0:0:
492,196,125553,6,0,L|508:304,1,75,4|8,0:0|0:1,0:0:0:0:
456,348,126045,1,10,0:0:0:0:
380,296,126291,1,0,0:0:0:0:
380,296,126414,1,2,0:0:0:0:
380,296,126537,2,0,P|346:281|284:284,1,75,8|2,0:1|0:0,0:0:0:0:
232,328,127029,2,0,L|136:344,1,75,10|2,0:0|0:0,0:0:0:0:
76,300,127520,2,0,P|32:260|48:196,1,112.5,10|8,0:1|0:1,0:0:0:0:
64,176,128012,1,10,0:0:0:0:
132,116,128258,2,0,P|207:102|284:84,1,150,8|0,0:1|0:0,0:0:0:0:
360,44,128996,2,0,P|361:92|352:144,1,75,10|8,0:0|0:1,0:0:0:0:
300,188,129488,6,0,P|356:236|332:324,1,150,8|8,0:1|0:0,0:0:0:0:
260,316,130225,1,0,0:0:0:0:
260,316,130471,2,0,P|228:276|248:228,1,75,8|10,0:1|0:1,0:0:0:0:
208,168,130963,2,0,P|171:187|116:204,1,75,8|8,0:0|0:1,0:0:0:0:
48,200,131455,2,0,L|56:48,1,150,8|8,0:1|0:0,0:0:0:0:
140,20,132192,1,0,0:0:0:0:
140,20,132438,2,0,P|179:32|224:40,1,75,0|0,0:0|0:0,0:0:0:0:
276,104,132930,2,0,P|313:98|372:84,1,75,10|0,0:0|0:0,0:0:0:0:
448,36,133422,6,0,B|424:112|472:112|436:200,1,150,6|10,0:0|0:0,0:0:0:0:
456,272,134160,1,2,0:0:0:0:
456,272,134406,2,0,P|416:264|356:256,1,75,10|0,0:1|0:0,0:0:0:0:
304,300,134897,2,0,L|256:312,3,37.5,10|0|2|0,0:0|0:0|0:0|0:0,0:0:0:0:
224,316,135389,2,0,L|88:296,1,112.5,0|2,3:0|3:2,0:0:0:0:
68,292,135881,1,0,0:0:0:0:
36,208,136127,1,2,3:2:0:0:
36,208,136373,2,0,B|29:158|16:104|16:104|56:56,1,150,2|10,0:0|0:0,0:0:0:0:
116,16,137111,1,0,0:0:0:0:
180,80,137356,6,0,P|188:117|168:176,1,75,8|8,0:1|0:1,0:0:0:0:
172,284,137848,2,0,P|200:258|261:246,1,75,8|0,0:0|0:0,0:0:0:0:
344,196,138340,2,0,P|307:184|266:137,1,75,8|10,0:1|0:1,0:0:0:0:
356,112,138832,2,0,L|448:88,1,75,10|2,0:0|0:0,0:0:0:0:
508,168,139324,2,0,P|494:237|488:304,1,112.5,10|0,0:1|0:0,0:0:0:0:
500,324,139815,1,8,0:0:0:0:
404,360,140061,2,0,P|334:331|244:328,1,150,10|0,0:1|0:0,0:0:0:0:
176,296,140799,2,0,P|132:316|88:320,1,75,8|8,0:0|0:0,0:0:0:0:
68,300,141168,1,8,0:0:0:0:
68,300,141291,5,4,0:0:0:0:
96,112,148668,6,0,P|128:88|184:96,1,78.7499975967408,4|0,0:3|0:0,0:0:0:0:
192,104,149160,6,0,L|176:220,1,104.999996795654,4|8,0:0|0:1,0:0:0:0:
177,208,150635,1,8,0:1:0:0:
177,208,151619,1,10,0:1:0:0:
177,208,152602,1,8,0:1:0:0:
264,260,152848,5,2,0:0:0:0:
264,260,152971,1,2,0:0:0:0:
264,260,153094,1,6,0:0:0:0:
300,172,153340,2,0,L|288:80,1,75,2|8,0:0|0:1,0:0:0:0:
312,56,153709,2,0,P|356:40|412:88,1,112.5,2|10,0:0|0:1,0:0:0:0:
472,152,154324,1,2,0:0:0:0:
472,152,154447,1,2,0:0:0:0:
472,152,154570,2,0,L|462:226,1,75,10|8,0:1|0:1,0:0:0:0:
496,312,155061,5,6,0:0:0:0:
420,356,155307,2,0,P|386:348|344:344,1,75,2|8,0:0|0:0,0:0:0:0:
300,348,155676,2,0,L|168:364,1,112.5,2|8,0:0|0:1,0:0:0:0:
144,348,156168,2,0,P|124:308|140:260,1,75,10|10,0:0|0:1,0:0:0:0:
156,244,156537,1,8,0:2:0:0:
132,156,156783,1,8,0:0:0:0:
256,192,156906,12,0,158504,0:0:0:0:
297,143,158996,6,0,B|396:112|396:112|423:132|424:172,1,165.000005035401,4|8,0:0|0:0,0:0:0:0:
337,324,159979,2,0,B|238:355|238:355|211:335|210:295,1,165.000005035401,8|8,0:1|0:0,0:0:0:0:
176,217,160717,1,0,0:0:0:0:
176,217,160963,2,0,P|128:253|52:245,1,123.75000377655,0|0,3:0|3:0,0:0:0:0:
36,216,161455,1,0,0:0:0:0:
92,144,161701,2,0,B|72:24|72:24|120:40,1,165.000005035401,2|8,3:2|0:1,0:0:0:0:
196,72,162438,2,0,L|284:52,1,82.5000025177003,10|0,0:0|0:0,0:0:0:0:
312,28,162807,1,0,0:0:0:0:
312,28,162930,6,0,B|420:48|420:48|414:77|416:104,1,165.000005035401,8|8,0:1|0:0,0:0:0:0:
488,157,163668,1,0,0:0:0:0:
488,157,163791,1,0,0:0:0:0:
488,157,163914,2,0,P|508:201|500:261,1,82.5000025177003,8|2,0:1|0:0,0:0:0:0:
457,310,164406,2,0,P|417:306|373:278,1,82.5000025177003,8|0,0:0|0:0,0:0:0:0:
300,242,164897,2,0,P|258:267|208:270,1,82.5000025177003,8|8,0:1|0:1,0:0:0:0:
68,149,165389,2,0,P|108:156|142:178,1,82.5000025177003,8|8,0:0|0:1,0:0:0:0:
214,376,165881,2,0,P|146:356|126:264,1,165.000005035401,2|8,0:0|0:0,0:0:0:0:
143,179,166619,1,8,0:1:0:0:
143,179,166742,1,8,0:0:0:0:
143,179,166865,6,0,B|128:72|128:72|152:64|184:40,1,165.000005035401,4|8,0:0|0:0,0:0:0:0:
360,44,167848,2,0,B|385:63|409:71|409:71|394:178,1,165.000005035401,8|8,0:1|0:0,0:0:0:0:
452,248,168586,1,0,0:0:0:0:
452,248,168832,2,0,P|406:258|364:272,1,82.5000025177003,0|0,3:0|0:0,0:0:0:0:
348,308,169201,1,0,3:0:0:0:
348,308,169324,1,8,0:0:0:0:
268,352,169570,1,0,3:0:0:0:
268,352,169692,2,0,P|225:347|132:328,1,123.75000377655,2|8,0:0|0:1,0:0:0:0:
120,244,170307,2,0,L|112:156,1,82.5000025177003,10|0,0:0|0:0,0:0:0:0:
25,97,170799,6,0,P|81:57|185:81,1,165.000005035401,8|10,0:1|0:0,0:0:0:0:
260,120,171537,1,0,0:0:0:0:
260,120,171660,1,8,0:1:0:0:
260,120,171783,2,0,P|284:76|276:28,1,82.5000025177003,8|8,0:1|0:1,0:0:0:0:
376,8,172274,2,0,P|404:36|412:96,1,82.5000025177003,8|0,0:0|0:0,0:0:0:0:
488,132,172766,2,0,L|472:268,1,123.75000377655,0|2,3:0|3:2,0:0:0:0:
468,300,173258,1,0,0:0:0:0:
392,348,173504,2,0,P|328:344|300:240,1,165.000005035401,8|2,3:1|0:0,0:0:0:0:
276,172,174242,2,0,P|224:200|176:204,1,82.5000025177003,8|2,0:0|0:0,0:0:0:0:
160,188,174611,1,0,0:0:0:0:
160,188,174733,6,0,L|36:176,1,120,2|8,0:0|0:0,0:0:0:0:
140,40,175717,2,0,L|259:51,1,120,2|8,0:0|0:0,0:0:0:0:
424,12,176701,2,0,P|413:91|408:144,1,120,0|0,0:0|0:0,0:0:0:0:
340,176,177438,2,0,P|347:235|354:295,1,120,2|2,0:0|0:0,0:0:0:0:
296,356,178176,2,0,P|271:353|220:336,1,60,10|0,0:0|0:0,0:0:0:0:
172,292,178668,6,0,P|112:306|36:312,1,120,8|10,0:1|0:0,0:0:0:0:
20,148,179652,2,0,P|79:133|156:128,1,120,0|8,0:0|0:0,0:0:0:0:
216,92,180389,1,0,0:0:0:0:
276,148,180635,1,0,0:0:0:0:
276,148,180758,1,8,0:0:0:0:
276,148,180881,2,0,P|274:185|264:232,1,60,0|8,0:0|0:0,0:0:0:0:
221,282,181373,1,8,0:0:0:0:
213,290,181496,1,8,0:1:0:0:
205,298,181619,2,0,L|156:289,2,33.7499989700318,2|8|8,0:0|0:0|0:1,0:0:0:0:
284,352,182111,2,0,P|324:345|376:328,1,75,10|8,0:0|0:1,0:0:0:0:
380,300,182479,1,8,0:0:0:0:
380,300,182602,6,0,B|339:252|354:191|354:191|415:169,1,165.000005035401,4|8,0:0|0:0,0:0:0:0:
228,30,183586,2,0,B|269:78|254:139|254:139|208:155,1,165.000005035401,8|8,0:1|0:0,0:0:0:0:
109,117,184324,1,0,0:0:0:0:
109,117,184570,2,0,P|120:179|125:233,1,82.5000025177003,0|0,3:0|0:0,0:0:0:0:
85,224,184938,1,0,3:0:0:0:
85,224,185061,2,0,P|75:271|73:320,1,82.5000025177003,8|0,0:0|3:0,0:0:0:0:
97,344,185430,2,0,P|157:368|221:328,1,123.75000377655,2|8,0:0|0:1,0:0:0:0:
246,262,186045,2,0,P|290:242|338:250,1,82.5000025177003,10|0,0:0|0:0,0:0:0:0:
410,269,186537,6,0,L|382:97,1,165.000005035401,8|10,0:1|0:0,0:0:0:0:
310,52,187274,1,0,0:0:0:0:
310,52,187397,1,8,0:1:0:0:
310,52,187520,2,0,P|267:69|218:84,1,82.5000025177003,8|8,0:1|0:1,0:0:0:0:
156,132,188012,2,0,P|118:126|72:116,1,82.5000025177003,8|8,0:0|0:0,0:0:0:0:
40,88,188381,1,8,0:0:0:0:
40,88,188504,2,0,P|56:168|64:216,1,123.75000377655,0|2,3:0|3:2,0:0:0:0:
56,256,188996,1,0,0:0:0:0:
128,308,189242,2,0,B|240:296|240:296|243:272|252:240,1,165.000005035401,8|2,3:1|0:0,0:0:0:0:
324,192,189979,2,0,L|308:100,1,82.5000025177003,8|8,0:0|0:0,0:0:0:0:
324,68,190348,1,8,0:0:0:0:
324,68,190471,6,0,P|372:44|432:60,1,82.5000025177003,0|2,3:0|0:0,0:0:0:0:
484,176,190963,2,0,P|443:174|408:153,1,82.5000025177003,8|8,0:0|0:1,0:0:0:0:
309,110,191455,2,0,L|332:244,2,123.75000377655,2|8|0,3:2|3:2|0:0,0:0:0:0:
240,52,192438,1,10,0:1:0:0:
152,40,192684,1,8,0:1:0:0:
68,80,192930,2,0,P|56:108|52:148,1,41.2500012588501,10|0,0:0|0:0,0:0:0:0:
8,216,193299,2,0,P|21:280|32:356,1,123.75000377655,2|10,0:0|0:1,0:0:0:0:
128,380,193914,2,0,P|188:368|196:284,1,123.75000377655,10|0,3:2|0:0,0:0:0:0:
192,272,194406,6,0,L|88:256,1,82.5000025177003,0|2,3:0|0:0,0:0:0:0:
240,176,194897,2,0,L|136:160,1,82.5000025177003,8|8,0:0|0:1,0:0:0:0:
248,64,195389,2,0,P|288:36|368:64,2,123.75000377655,2|8|0,3:2|3:2|0:0,0:0:0:0:
204,144,196373,1,10,0:1:0:0:
112,136,196619,1,8,0:1:0:0:
64,60,196865,2,0,L|56:8,1,41.2500012588501,10|0,0:0|0:0,0:0:0:0:
28,136,197233,2,0,P|0:200|4:272,1,123.75000377655,2|10,0:0|0:1,0:0:0:0:
60,324,197848,6,0,B|131:341|128:277|204:296,1,134.999995880127,10|0,3:2|0:0,0:0:0:0:
225,308,198340,1,0,0:0:0:0:
