osu file format v14

[General]
AudioFilename: minna-daisuki-no-uta-full-ver[EMIP3.COM] (1).mp3
AudioLeadIn: 0
PreviewTime: 72550
Countdown: 0
SampleSet: Soft
StackLeniency: 0.7
Mode: 0
LetterboxInBreaks: 0
WidescreenStoryboard: 1

[Editor]
DistanceSpacing: 1.2
BeatDivisor: 4
GridSize: 8
TimelineZoom: 0.9

[Metadata]
Title:Minna Daisuki No Uta
TitleUnicode:Minna Daisuki No Uta
Artist:Mikami Shiori
ArtistUnicode:三上 枝織
Creator:Ars Novaa
Version:Normal
Source:YuruYuri♪♪
Tags:Yuru Yuri
BeatmapID:898079
BeatmapSetID:401482

[Difficulty]
HPDrainRate:3
CircleSize:3
OverallDifficulty:4
ApproachRate:4
SliderMultiplier:1.2
SliderTickRate:1

[Events]
//Background and Video events
0,0,"266896-aliya06.jpg",0,0
//Break Periods
2,102749,122658
2,208178,232801
2,263463,267087
//Storyboard Layer 0 (Background)
//Storyboard Layer 1 (Fail)
//Storyboard Layer 2 (Pass)
//Storyboard Layer 3 (Foreground)
//Storyboard Sound Samples

[TimingPoints]
550,428.571428571429,4,2,0,10,1,0
550,-100,4,2,0,20,0,0
65264,-200,4,2,0,20,0,0
67407,-100,4,2,0,20,0,0
74264,-100,4,2,0,20,0,1
87121,-100,4,2,0,20,0,0
87978,-100,4,2,0,20,0,1
94407,-100,4,2,0,20,0,0
99978,-133.333333333333,4,2,0,20,0,0
102550,-100,4,2,0,20,0,0
171550,-200,4,2,0,20,0,0
173692,-100,4,2,0,20,0,0
180550,-100,4,2,0,20,0,1
193407,-100,4,2,0,20,0,0
194264,-100,4,2,0,20,0,1
200692,-100,4,2,0,20,0,0
235407,-100,4,2,0,20,0,1
248264,-100,4,2,0,20,0,0
249121,-100,4,2,0,20,0,1
255550,-100,4,2,0,20,0,0
261121,-133.333333333333,4,2,0,20,0,0
263478,-100,4,2,0,20,0,0
269692,-133.333333333333,4,2,0,20,0,0
285121,-133.333333333333,4,2,0,20,0,0

[Colours]
Combo1 : 255,0,128
Combo2 : 0,64,128
Combo3 : 18,124,255
Combo4 : 242,24,57

[HitObjects]
88,64,550,6,0,L|208:112,1,120
136,240,1407,1,0,0:0:0:0:
384,96,2264,1,0,0:0:0:0:
376,240,2692,2,2,L|272:304,1,120
176,200,3550,6,0,L|120:88,2,120
192,344,4835,1,0,0:0:0:0:
328,304,5264,2,2,P|368:232|368:184,1,120
112,72,6550,6,0,P|96:120|96:192,2,120
224,160,7835,1,2,0:0:0:0:
344,80,8264,2,0,L|464:128,1,120
360,232,9121,1,0,0:0:0:0:
112,80,9978,1,0,0:0:0:0:
120,224,10407,2,0,L|240:224,1,120
464,48,11692,6,0,L|352:128,1,120
224,80,12550,2,0,L|104:160,1,120
192,272,13407,1,2,0:0:0:0:
392,64,14264,5,0,0:0:0:0:
104,64,15121,2,0,P|80:136|144:280,1,240
272,216,16407,1,0,0:0:0:0:
360,104,16835,1,0,0:0:0:0:
72,64,17692,6,0,L|88:208,1,120
216,240,18550,1,0,0:0:0:0:
360,256,18978,2,2,P|408:224|424:152,1,120
152,72,20264,1,0,0:0:0:0:
104,208,20692,6,0,L|216:296,2,120
184,88,21978,1,0,0:0:0:0:
184,88,22407,1,0,0:0:0:0:
328,72,22835,2,0,B|416:160|416:160|336:256,1,240
112,80,24550,1,2,0:0:0:0:
400,56,25407,5,0,0:0:0:0:
272,120,25835,1,0,0:0:0:0:
144,184,26264,1,0,0:0:0:0:
408,296,27121,2,2,L|352:176,1,120
232,120,27978,2,0,L|128:40,1,120
72,176,28835,1,0,0:0:0:0:
184,264,29264,2,0,P|272:296|400:232,2,240
104,144,31407,6,0,P|144:88|304:72,1,240
224,192,32692,1,0,0:0:0:0:
104,272,33121,2,0,P|216:304|352:296,1,240
256,176,34407,6,0,L|136:120,2,120
376,104,35692,1,0,0:0:0:0:
376,104,36121,1,0,0:0:0:0:
416,240,36550,2,0,P|368:320|232:320,1,240
120,232,37835,1,0,0:0:0:0:
88,96,38264,2,2,L|208:88,1,120
352,72,39121,6,0,L|328:208,1,120
184,176,39978,1,0,0:0:0:0:
64,256,40407,1,0,0:0:0:0:
200,288,40835,2,0,L|336:296,1,120
424,200,41692,6,0,L|336:88,1,120
208,80,42550,1,0,0:0:0:0:
112,192,42978,1,0,0:0:0:0:
232,272,43407,6,0,B|352:272|352:272|432:168,2,240
120,184,45550,1,2,0:0:0:0:
224,80,45978,2,0,L|368:80,1,120
416,208,46835,6,0,L|320:304,2,120
328,96,48121,2,0,L|192:64,1,120
96,160,48978,1,0,0:0:0:0:
192,264,49407,1,0,0:0:0:0:
424,96,50264,6,0,P|352:80|176:88,1,240
104,208,51550,1,0,0:0:0:0:
104,208,51978,1,0,0:0:0:0:
104,208,52407,1,0,0:0:0:0:
224,280,52835,2,2,L|352:248,1,120
392,120,53692,6,0,L|272:80,2,120
312,240,54978,1,0,0:0:0:0:
168,248,55407,1,0,0:0:0:0:
384,56,56264,2,0,L|256:56,1,120
168,160,57121,1,0,0:0:0:0:
432,56,57978,5,0,0:0:0:0:
432,200,58407,1,0,0:0:0:0:
304,272,58835,2,0,P|200:272|160:256,2,120
248,136,60121,6,0,L|128:80,1,120
64,208,60978,2,0,L|184:296,1,120
304,272,61835,1,0,0:0:0:0:
440,224,62264,2,2,P|384:144|240:144,1,240
136,56,63550,5,0,0:0:0:0:
96,192,63978,2,0,L|168:320,1,120
296,304,64835,1,0,0:0:0:0:
352,256,65264,2,0,P|368:192|280:120,1,180
80,296,67407,5,0,0:0:0:0:
80,152,67835,1,0,0:0:0:0:
200,232,68264,5,0,0:0:0:0:
320,304,68692,1,0,0:0:0:0:
408,192,69121,5,0,0:0:0:0:
448,56,69550,1,0,0:0:0:0:
304,64,69978,2,0,P|184:112|120:216,2,240
424,328,72550,1,0,0:0:0:0:
424,184,72978,6,0,L|400:64,1,120
256,48,73835,1,0,0:0:0:0:
192,176,74264,2,2,P|80:184|96:296,2,240
240,312,76407,1,0,0:0:0:0:
368,248,76835,1,0,0:0:0:0:
328,112,77264,6,0,P|272:88|200:104,1,120
264,232,78121,1,0,0:0:0:0:
144,288,78550,2,0,P|80:208|88:72,2,240
352,96,81121,6,0,L|216:80,1,120
88,112,81978,1,0,0:0:0:0:
120,256,82407,1,0,0:0:0:0:
256,296,82835,2,2,L|384:280,2,120
432,56,84550,6,0,P|408:96|336:160,1,120
232,80,85407,1,0,0:0:0:0:
128,184,85835,1,0,0:0:0:0:
240,272,86264,2,2,P|368:216|368:216,1,120
296,88,87121,5,0,0:0:0:0:
152,72,87550,1,0,0:0:0:0:
88,200,87978,2,0,P|136:272|280:296,2,240
176,80,90121,2,2,L|304:96,1,120
176,168,90978,5,0,0:0:0:0:
136,304,91407,1,0,0:0:0:0:
280,320,91835,2,0,P|400:296|416:192,1,240
272,192,93121,2,0,L|176:120,2,120
368,88,94407,6,0,L|464:168,1,120
392,296,95264,1,0,0:0:0:0:
392,296,95478,1,0,0:0:0:0:
184,248,96121,2,0,L|96:144,1,120
232,80,96978,2,0,L|352:72,1,120
392,208,97835,6,0,L|272:280,1,120
144,288,98692,1,0,0:0:0:0:
144,288,98907,1,0,0:0:0:0:
96,80,99550,1,2,0:0:0:0:
200,72,99978,6,0,P|288:112|376:104,1,180.000006866455
344,208,101264,1,0,0:0:0:0:
256,272,101692,2,0,P|200:320|96:296,1,180.000006866455
384,72,123978,6,0,L|256:80,2,120
376,216,125264,1,0,0:0:0:0:
248,288,125692,2,0,P|144:224|136:112,1,240
264,48,126978,5,0,0:0:0:0:
392,112,127407,1,0,0:0:0:0:
272,192,127835,1,0,0:0:0:0:
136,136,128264,2,2,L|88:272,1,120
232,296,129121,2,0,P|360:312|456:248,2,240
112,216,131264,1,0,0:0:0:0:
192,96,131692,6,0,P|232:80|392:176,1,240
256,216,132978,1,0,0:0:0:0:
112,192,133407,2,0,L|56:312,1,120
200,328,134264,6,0,L|344:312,1,120
416,208,135121,1,0,0:0:0:0:
360,80,135550,1,0,0:0:0:0:
216,72,135978,1,0,0:0:0:0:
200,216,136407,2,2,P|160:264|96:296,2,120
120,96,137692,6,0,P|192:72|248:88,1,120
360,152,138550,2,0,L|432:280,1,120
280,288,139407,1,0,0:0:0:0:
168,200,139835,2,2,L|64:104,1,120
72,264,140692,6,0,P|128:312|184:328,2,120
112,128,141978,2,0,L|232:88,1,120
360,144,142835,2,0,L|368:264,2,120
232,72,144121,1,2,0:0:0:0:
136,176,144550,2,0,L|136:296,1,120
280,288,145407,6,0,P|336:272|392:208,1,120
336,96,146264,2,0,L|200:80,1,120
104,176,147121,1,0,0:0:0:0:
160,304,147550,1,0,0:0:0:0:
240,184,147978,5,2,0:0:0:0:
352,272,148407,2,0,L|472:192,1,120
384,80,149264,2,0,L|256:64,1,120
128,112,150121,5,0,0:0:0:0:
192,240,150550,1,0,0:0:0:0:
304,152,150978,1,0,0:0:0:0:
424,72,151407,6,0,L|448:200,1,120
352,296,152264,2,0,L|224:320,1,120
136,208,153121,6,0,P|96:152|104:96,2,120
248,120,154407,1,2,0:0:0:0:
240,264,154835,2,0,P|280:320|424:256,1,240
424,128,156121,1,2,0:0:0:0:
288,72,156550,6,0,B|144:96|144:96|96:208,1,240
224,264,157835,1,0,0:0:0:0:
320,160,158264,1,2,0:0:0:0:
424,256,158692,2,0,P|376:304|304:312,2,120
440,112,159978,6,0,L|320:64,2,120
408,256,161264,1,2,0:0:0:0:
272,288,161692,2,0,P|176:280|128:272,1,120
88,152,162550,2,0,P|112:96|184:80,1,120
256,184,163407,1,0,0:0:0:0:
352,80,163835,6,0,L|432:184,1,120
328,280,164692,1,2,0:0:0:0:
328,280,165121,1,2,0:0:0:0:
184,280,165550,2,0,L|88:192,1,120
176,80,166407,5,0,0:0:0:0:
320,72,166835,2,0,L|456:120,2,120
264,208,168121,1,0,0:0:0:0:
160,304,168550,2,0,P|56:256|88:144,1,240
192,56,169835,5,0,0:0:0:0:
336,80,170264,2,0,L|440:176,1,120
328,264,171121,1,0,0:0:0:0:
264,304,171550,2,2,P|160:232|168:184,1,180
408,40,173692,5,0,0:0:0:0:
120,40,174550,1,0,0:0:0:0:
120,328,175407,1,0,0:0:0:0:
400,256,176264,2,2,P|384:192|216:144,2,240
112,272,178835,1,0,0:0:0:0:
104,128,179264,6,0,L|232:88,1,120
360,56,180121,1,0,0:0:0:0:
376,200,180550,2,2,P|336:288|184:288,2,240
240,152,182692,2,0,L|112:128,1,120
112,272,183550,5,0,0:0:0:0:
256,280,183978,1,0,0:0:0:0:
400,264,184407,2,0,L|424:128,2,120
280,192,185692,1,2,0:0:0:0:
40,48,186550,1,2,0:0:0:0:
96,176,186978,6,0,L|168:288,1,120
296,240,187835,2,0,L|216:136,1,120
336,56,188692,1,0,0:0:0:0:
416,176,189121,2,0,P|440:240|368:312,2,180
312,80,190835,6,0,L|184:64,1,120
80,160,191692,1,0,0:0:0:0:
80,160,192121,1,0,0:0:0:0:
184,264,192550,2,0,L|312:256,1,120
384,136,193407,5,0,0:0:0:0:
264,56,193835,1,0,0:0:0:0:
272,200,194264,2,2,P|216:256|40:272,2,240
368,88,196407,1,0,0:0:0:0:
368,88,196835,1,0,0:0:0:0:
432,216,197264,5,0,0:0:0:0:
304,280,197692,2,0,L|160:296,1,120
120,168,198550,2,0,L|176:56,1,120
320,56,199407,2,0,P|400:112|368:248,1,240
256,160,200692,5,0,0:0:0:0:
136,72,201121,1,0,0:0:0:0:
96,208,201550,2,0,L|144:336,1,120
424,272,202835,1,2,0:0:0:0:
224,64,203692,1,2,0:0:0:0:
112,152,204121,6,0,L|128:288,2,120
240,96,205407,1,0,0:0:0:0:
432,312,206264,5,0,0:0:0:0:
144,320,207121,1,0,0:0:0:0:
336,112,207978,1,0,0:0:0:0:
120,64,234121,5,0,0:0:0:0:
216,176,234550,1,0,0:0:0:0:
312,280,234978,1,0,0:0:0:0:
416,184,235407,2,2,L|408:64,1,120
272,104,236264,2,2,P|232:200|104:224,1,240
224,304,237550,2,0,L|360:320,1,120
424,200,238407,6,0,L|472:72,2,120
296,264,239692,1,0,0:0:0:0:
152,296,240121,1,0,0:0:0:0:
152,152,240550,2,2,P|240:152|272:136,2,120
128,296,241835,5,0,0:0:0:0:
272,288,242264,2,0,L|400:232,1,120
384,96,243121,1,0,0:0:0:0:
240,80,243550,2,0,L|112:104,2,120
368,152,244835,1,2,0:0:0:0:
136,328,245692,6,0,L|264:312,1,120
384,256,246550,1,0,0:0:0:0:
384,256,246978,1,0,0:0:0:0:
368,112,247407,2,0,L|240:96,1,120
120,168,248264,5,0,0:0:0:0:
120,168,248692,1,0,0:0:0:0:
232,256,249121,2,2,P|432:328|456:320,2,240
344,168,251264,2,0,L|288:48,1,120
152,96,252121,5,0,0:0:0:0:
96,232,252550,2,0,L|192:328,1,120
328,312,253407,2,0,L|440:248,1,120
424,112,254264,2,2,P|328:160|184:128,1,240
64,88,255550,6,0,L|72:224,1,120
192,288,256407,1,0,0:0:0:0:
192,288,256835,1,0,0:0:0:0:
400,88,257692,2,0,L|272:80,2,120
408,232,258978,6,0,L|272:248,1,120
152,288,259835,1,2,0:0:0:0:
88,160,260264,1,2,0:0:0:0:
200,72,260692,1,2,0:0:0:0:
312,72,261121,6,0,L|448:192,1,180.000006866455
376,272,262407,1,0,0:0:0:0:
272,288,262835,2,0,P|176:280|176:280,1,90.0000034332277
104,80,268407,6,0,L|112:208,1,120
240,256,269264,1,0,0:0:0:0:
336,216,269692,2,0,P|328:152|216:96,2,180.000006866455
248,280,271835,2,2,L|152:264,1,90.0000034332277
128,120,272692,5,0,0:0:0:0:
280,80,273121,2,0,L|376:80,1,90.0000034332277
376,232,273978,1,0,0:0:0:0:
240,160,274407,1,0,0:0:0:0:
96,208,274835,2,0,P|160:272|264:288,1,180.000006866455
392,240,276121,5,0,0:0:0:0:
384,88,276550,1,0,0:0:0:0:
232,56,276978,2,0,L|128:64,1,90.0000034332277
112,216,277835,1,0,0:0:0:0:
264,192,278264,2,2,L|368:176,2,90.0000034332277
224,336,279550,6,0,L|328:320,1,90.0000034332277
384,184,280407,1,0,0:0:0:0:
384,184,280835,1,0,0:0:0:0:
296,64,281264,2,0,L|192:64,1,90.0000034332277
88,168,282121,2,0,L|120:256,1,90.0000034332277
272,256,282978,5,0,0:0:0:0:
424,216,283407,2,0,L|352:136,2,90.0000034332277
328,336,284692,1,0,0:0:0:0:
256,192,285121,12,2,290264,0:0:0:0:
