osu file format v14

[General]
AudioFilename: audio.mp3
AudioLeadIn: 0
PreviewTime: 212402
Countdown: 0
SampleSet: Normal
StackLeniency: 0.7
Mode: 0
LetterboxInBreaks: 0
WidescreenStoryboard: 0

[Editor]
Bookmarks: 48109
DistanceSpacing: 0.8
BeatDivisor: 4
GridSize: 4
TimelineZoom: 2.999998

[Metadata]
Title:Onna to Onna no Yuri-Game
TitleUnicode:Onna to Onna no Yuri-Game
Artist:Mikami Shiori & Ookubo Rumi
ArtistUnicode:Mikami Shiori & Ookubo Rumi
Creator:KasperBK
Version:Yuri Love Game
Source:Yuru Yuri
Tags:yoshikawa chinatsu akaza akari yryr
BeatmapID:2093675
BeatmapSetID:1000333

[Difficulty]
HPDrainRate:6
CircleSize:4.2
OverallDifficulty:8.3
ApproachRate:9.4
SliderMultiplier:2
SliderTickRate:1

[Events]
//Background and Video events
0,0,"1920x1200-2921049-yuru-yuri-akaza-akari___anime-wallpapers.jpg",0,0
//Break Periods
2,49166,50712
2,161163,162709
2,200020,206377
//Storyboard Layer 0 (Background)
//Storyboard Layer 1 (Fail)
//Storyboard Layer 2 (Pass)
//Storyboard Layer 3 (Foreground)
//Storyboard Sound Samples

[TimingPoints]
510,342.857142857143,4,1,0,70,1,0
510,-125,4,2,0,50,0,0
5995,-125,4,1,1,70,0,0
11481,-100,4,1,1,70,0,0
44395,571.428571428571,4,2,0,40,1,0
51252,285.714285714286,4,3,0,70,1,0
51252,-125,4,2,0,50,0,0
52966,-125,4,3,1,70,0,0
53537,-100,4,3,1,70,0,0
80966,-100,4,2,0,70,0,0
82335,342.857142857143,4,1,0,70,1,0
82335,-142.857142857143,4,2,1,50,0,0
86449,-90.9090909090909,4,1,1,70,0,1
94677,-90.9090909090909,4,2,1,70,0,1
96049,-71.4285714285714,4,1,1,70,0,1
96306,-71.4285714285714,4,1,1,5,0,1
96392,-71.4285714285714,4,1,1,70,0,1
96992,-71.4285714285714,4,1,1,5,0,1
97077,-71.4285714285714,4,1,1,70,0,1
97420,-90.9090909090909,4,1,1,70,0,1
98192,-90.9090909090909,4,1,1,5,0,1
98277,-62.5,4,1,1,70,0,1
98449,-90.9090909090909,4,1,1,70,0,1
99563,-90.9090909090909,4,1,1,5,0,1
99649,-62.5,4,1,1,70,0,1
99820,-90.9090909090909,4,1,1,70,0,1
111135,-62.5,4,1,1,70,0,1
111392,-62.5,4,1,1,5,0,1
111477,-62.5,4,1,1,70,0,1
111735,-62.5,4,1,1,5,0,1
111820,-62.5,4,1,1,70,0,1
112077,-62.5,4,1,1,5,0,1
112163,-62.5,4,1,1,70,0,1
112420,-62.5,4,1,1,5,0,1
112506,-166.666666666667,4,1,1,70,0,1
115763,-166.666666666667,4,1,1,5,0,1
116277,-166.666666666667,4,1,1,70,0,1
116963,-166.666666666667,4,1,1,5,0,1
117306,-166.666666666667,4,1,1,70,0,1
117649,-166.666666666667,4,1,1,5,0,1
117992,-166.666666666667,4,1,1,70,0,1
122020,-166.666666666667,4,1,1,5,0,1
122106,-125,4,1,1,70,0,0
123477,-100,4,1,1,70,0,0
134449,-125,4,1,1,50,0,0
145420,-100,4,1,1,70,0,0
156392,571.428571428571,4,2,1,40,1,0
163249,285.714285714286,4,3,0,70,1,0
163249,-125,4,2,0,50,0,0
164963,-125,4,3,0,70,0,0
165534,-100,4,3,1,70,0,0
192963,571.428571428571,4,2,0,70,1,0
192963,-142.857142857143,4,2,0,70,0,0
206917,342.857142857143,4,1,0,70,1,0
206917,-142.857142857143,4,2,1,50,0,0
212402,-125,4,1,0,70,0,0
212659,-125,4,1,0,5,0,0
212745,-111.111111111111,4,1,0,70,0,0
213002,-111.111111111111,4,1,0,5,0,0
213088,-100,4,1,0,70,0,0
213431,-71.4285714285714,4,1,0,70,0,0
213774,-90.9090909090909,4,1,1,70,0,1
222002,-90.9090909090909,4,2,0,70,0,1
223374,-71.4285714285714,4,1,1,70,0,1
223631,-71.4285714285714,4,1,1,5,0,1
223717,-71.4285714285714,4,1,1,70,0,1
224317,-71.4285714285714,4,1,1,5,0,1
224402,-90.9090909090909,4,1,1,70,0,1
225517,-90.9090909090909,4,1,1,5,0,1
225602,-62.5,4,1,1,70,0,1
225774,-90.9090909090909,4,1,1,70,0,1
226888,-90.9090909090909,4,1,1,5,0,1
226974,-62.5,4,1,1,70,0,1
227145,-90.9090909090909,4,1,1,70,0,1
238459,-62.5,4,1,1,70,0,1
238717,-62.5,4,1,1,5,0,1
238802,-62.5,4,1,1,70,0,1
239059,-62.5,4,1,1,5,0,1
239145,-62.5,4,1,1,70,0,1
239402,-62.5,4,1,1,5,0,1
239488,-62.5,4,1,1,70,0,1
239745,-62.5,4,1,1,5,0,1
239831,-166.666666666667,4,1,1,70,0,1
242574,-250,4,1,1,70,0,1
243431,-166.666666666667,4,1,1,5,0,1
243602,-166.666666666667,4,1,1,70,0,1
243945,-250,4,1,1,70,0,1
244459,-166.666666666667,4,1,1,5,0,1
244631,-250,4,1,1,70,0,1
245145,-166.666666666667,4,1,1,5,0,1
245317,-166.666666666667,4,1,1,70,0,1
248059,-100,4,1,1,70,0,1
250802,-166.666666666667,4,2,0,70,0,1
252174,-200,4,1,1,70,0,1
252517,-200,4,1,1,5,0,1
252859,-200,4,1,1,70,0,1
253202,-200,4,1,1,5,0,1
253545,-166.666666666667,4,1,1,70,0,1
261774,-125,4,1,1,5,0,0

[HitObjects]
165,114,510,5,0,0:0:0:0:
165,114,681,1,0,0:0:0:0:
165,114,852,2,2,P|167:153|145:186,1,80
249,256,1195,1,0,0:0:0:0:
249,256,1367,2,2,P|288:253|321:275,1,80
343,159,1710,1,0,0:0:0:0:
343,159,1881,6,2,P|340:119|362:86,1,80
250,41,2224,1,0,0:0:0:0:
250,41,2395,2,2,P|217:62|178:58,1,80
62,162,2738,2,2,P|59:201|80:234,1,80
279,193,3081,2,2,P|281:153|260:120,1,80
87,218,3424,5,0,0:0:0:0:
87,218,3595,2,2,P|117:242|156:243,1,80
251,326,3938,1,0,0:0:0:0:
251,326,4110,2,2,P|295:309|312:248,1,80
424,237,4452,1,0,0:0:0:0:
424,237,4624,6,2,P|439:201|430:162,1,80
353,77,4967,1,0,0:0:0:0:
353,77,5138,2,2,P|306:81|274:136,1,80
283,223,5481,2,2,P|313:247|352:248,1,80
425,60,5824,2,0,P|394:35|355:34,1,80,2|4,0:0|0:0,0:0:0:0:
50,156,6338,5,0,0:0:0:0:
76,266,6510,1,0,0:0:0:0:
173,326,6681,1,0,0:0:0:0:
420,334,7024,1,0,0:0:0:0:
420,334,7195,2,0,L|420:241,1,80,0|4,0:0|0:0,0:0:0:0:
321,35,7710,5,0,0:0:0:0:
210,49,7881,1,0,0:0:0:0:
104,89,8052,1,0,0:0:0:0:
126,333,8395,1,0,0:0:0:0:
126,333,8567,2,0,L|212:333,1,80,0|4,0:0|0:0,0:0:0:0:
318,333,8910,5,0,0:0:0:0:
432,275,9081,1,0,0:0:0:0:
296,233,9252,1,0,0:0:0:0:
142,188,9424,1,0,0:0:0:0:
307,126,9595,1,0,0:0:0:0:
488,60,9767,1,0,0:0:0:0:
280,32,9938,1,0,0:0:0:0:
181,102,10110,6,2,L|147:82,2,40
236,210,10452,2,2,L|209:257,2,40
329,132,10795,2,2,L|366:118,3,40
389,151,11138,1,0,0:0:0:0:
398,189,11223,1,0,0:0:0:0:
393,228,11309,1,0,0:0:0:0:
374,263,11395,1,0,0:0:0:0:
344,289,11480,5,4,0:0:0:0:
186,289,11652,1,0,0:0:0:0:
186,289,11738,1,0,0:0:0:0:
103,157,11910,1,0,0:0:0:0:
103,157,11995,1,0,0:0:0:0:
245,83,12167,2,0,P|274:91|305:149,2,100
104,163,12681,2,0,P|124:207|170:222,1,100,0|4,0:0|0:0,0:0:0:0:
335,224,13024,5,0,0:0:0:0:
335,224,13110,1,0,0:0:0:0:
396,78,13281,1,0,0:0:0:0:
396,78,13367,1,0,0:0:0:0:
241,41,13538,2,0,P|196:61|181:107,2,100
396,78,14052,1,0,0:0:0:0:
329,225,14224,5,4,0:0:0:0:
173,245,14395,1,0,0:0:0:0:
173,245,14481,1,0,0:0:0:0:
59,138,14652,1,0,0:0:0:0:
59,138,14738,1,0,0:0:0:0:
180,33,14910,2,0,P|210:76|201:135,1,100
386,33,15252,2,0,P|356:76|365:135,1,100
261,277,15595,5,8,0:0:0:0:
261,277,15767,1,8,0:0:0:0:
106,235,15938,1,8,0:0:0:0:
262,192,16110,1,8,0:0:0:0:
416,235,16281,1,8,0:0:0:0:
261,277,16452,1,0,0:0:0:0:
106,235,16624,1,0,0:0:0:0:
104,185,16709,1,0,0:0:0:0:
124,139,16795,1,0,0:0:0:0:
160,106,16881,1,0,0:0:0:0:
208,90,16966,5,4,0:0:0:0:
370,61,17138,1,0,0:0:0:0:
370,61,17224,1,0,0:0:0:0:
446,207,17395,1,0,0:0:0:0:
446,207,17481,1,0,0:0:0:0:
326,313,17652,2,0,P|297:305|266:247,2,100
446,207,18167,2,0,P|425:162|379:147,1,100,0|4,0:0|0:0,0:0:0:0:
223,144,18509,5,0,0:0:0:0:
223,144,18595,1,0,0:0:0:0:
72,192,18766,1,0,0:0:0:0:
72,192,18852,1,0,0:0:0:0:
174,317,19024,2,0,P|221:301|241:257,2,100
72,192,19538,1,0,0:0:0:0:
153,53,19710,5,4,0:0:0:0:
322,60,19881,1,0,0:0:0:0:
322,60,19967,1,0,0:0:0:0:
322,60,20052,2,0,L|429:60,1,100
423,221,20395,1,0,0:0:0:0:
401,264,20480,1,0,0:0:0:0:
351,266,20566,1,0,0:0:0:0:
323,298,20652,1,0,0:0:0:0:
273,296,20738,1,0,0:0:0:0:
248,260,20823,1,0,0:0:0:0:
199,256,20909,1,0,0:0:0:0:
173,216,20995,1,0,0:0:0:0:
173,166,21081,5,4,0:0:0:0:
333,166,21252,1,4,0:0:0:0:
173,166,21424,1,4,0:0:0:0:
36,250,21595,1,4,0:0:0:0:
36,49,21767,2,0,B|117:50|117:50|133:71|133:71|231:71,1,200,4|0,0:0|0:0,0:0:0:0:
391,111,22281,1,0,0:0:0:0:
477,257,22452,6,0,P|451:306|377:336,1,100
308,209,22795,2,0,P|334:160|408:130,1,100
476,257,23138,2,0,P|435:283|386:288,1,100
339,135,23481,2,0,P|379:107|429:103,1,100
477,257,23824,5,0,0:0:0:0:
416,108,23995,1,0,0:0:0:0:
357,257,24167,1,0,0:0:0:0:
301,108,24338,1,0,0:0:0:0:
301,108,24424,1,0,0:0:0:0:
301,108,24510,2,0,P|241:101|195:119,1,100
57,180,24852,1,0,0:0:0:0:
180,283,25024,1,0,0:0:0:0:
312,193,25195,6,0,P|300:142|252:110,1,100
120,184,25538,2,0,P|130:231|168:263,1,100
312,193,25881,2,0,P|363:205|395:253,1,100
275,351,26224,2,0,P|224:339|192:291,1,100
195,303,26481,1,0,0:0:0:0:
195,303,26567,5,0,0:0:0:0:
126,165,26738,1,0,0:0:0:0:
277,101,26910,1,0,0:0:0:0:
432,139,27081,1,0,0:0:0:0:
432,139,27167,1,0,0:0:0:0:
432,139,27252,2,0,P|426:195|388:232,1,100
252,293,27595,1,0,0:0:0:0:
204,276,27680,1,0,0:0:0:0:
157,259,27766,1,0,0:0:0:0:
110,243,27852,1,0,0:0:0:0:
63,224,27938,6,0,L|63:114,1,100,4|0,0:0|0:0,0:0:0:0:
204,44,28281,2,0,P|234:82|235:132,1,100
113,237,28624,2,0,P|83:199|80:150,1,100
204,44,28967,2,0,P|234:82|235:131,1,100
229,294,29310,5,0,0:0:0:0:
389,284,29481,1,0,0:0:0:0:
254,194,29652,1,0,0:0:0:0:
336,55,29824,1,0,0:0:0:0:
455,164,29995,2,0,L|422:282,1,100
271,164,30338,2,0,L|304:282,1,100
124,324,30681,6,0,P|71:302|92:162,1,200
189,66,31195,1,0,0:0:0:0:
310,173,31367,2,0,P|332:264|256:320,1,200
102,328,31881,1,0,0:0:0:0:
102,328,31967,1,0,0:0:0:0:
102,328,32052,5,4,0:0:0:0:
159,177,32224,1,4,0:0:0:0:
321,325,32395,1,4,0:0:0:0:
404,88,32567,1,4,0:0:0:0:
86,49,32910,1,0,0:0:0:0:
86,49,32995,1,0,0:0:0:0:
86,49,33081,2,0,B|86:97|86:97|95:108|95:108|95:162,1,100
174,285,33424,6,0,P|237:277|268:247,1,100,4|0,0:0|0:0,0:0:0:0:
236,96,33767,2,0,P|173:104|142:134,1,100
322,111,34110,2,0,P|350:150|352:200,1,100
178,215,34452,2,0,P|149:175|147:125,1,100
279,32,34795,5,0,0:0:0:0:
447,85,34967,1,0,0:0:0:0:
279,32,35138,1,0,0:0:0:0:
399,166,35310,1,0,0:0:0:0:
279,32,35481,5,0,0:0:0:0:
325,212,35652,1,0,0:0:0:0:
279,32,35824,1,0,0:0:0:0:
224,215,35995,1,0,0:0:0:0:
279,32,36167,6,0,P|333:43|363:95,1,100
366,257,36510,2,0,P|355:311|303:341,1,100
142,336,36852,2,0,P|104:304|97:255,1,100
98,75,37195,2,0,P|129:37|178:30,1,100
177,29,37452,1,0,0:0:0:0:
177,29,37538,5,0,0:0:0:0:
364,64,37710,1,0,0:0:0:0:
292,229,37881,2,0,P|266:270|219:282,1,100
219,282,38138,1,0,0:0:0:0:
219,282,38224,1,0,0:0:0:0:
62,211,38395,1,0,0:0:0:0:
177,72,38567,1,0,0:0:0:0:
227,79,38652,1,0,0:0:0:0:
276,87,38738,1,0,0:0:0:0:
326,95,38824,1,0,0:0:0:0:
375,103,38910,6,0,L|473:123,1,100,4|0,0:0|0:0,0:0:0:0:
450,282,39252,2,0,L|352:262,1,100
222,168,39595,2,2,L|272:149,3,50
89,174,39938,2,2,L|39:155,3,50
118,188,40281,5,0,0:0:0:0:
65,340,40452,1,0,0:0:0:0:
118,188,40624,1,0,0:0:0:0:
186,43,40795,2,0,P|239:34|284:58,1,100
398,163,41138,1,0,0:0:0:0:
303,293,41310,2,0,P|258:313|209:303,1,100
99,187,41652,6,0,L|99:86,1,100,4|0,0:0|0:0,0:0:0:0:
254,132,41995,2,0,L|254:31,1,100
411,69,42338,2,0,L|411:169,1,100
254,132,42681,2,0,L|254:233,1,100
254,232,42938,1,0,0:0:0:0:
254,232,43024,5,4,0:0:0:0:
382,344,43195,1,0,0:0:0:0:
438,192,43367,1,0,0:0:0:0:
283,199,43538,1,0,0:0:0:0:
283,199,43624,1,0,0:0:0:0:
283,199,43710,1,4,0:0:0:0:
121,192,43881,2,0,L|121:88,1,100
121,92,44138,1,0,0:0:0:0:
121,92,44223,1,4,0:0:0:0:
367,84,44395,5,0,0:0:0:0:
367,84,44537,2,0,L|431:105,2,50
289,208,44966,2,0,L|225:229,2,50
200,90,45395,2,0,L|264:69,2,50
112,206,45823,2,0,L|48:227,2,50
248,259,46252,2,0,L|309:236,2,50
410,187,46680,5,0,0:0:0:0:
410,187,46823,2,0,L|433:119,2,50
266,162,47252,2,0,L|282:209,2,50
122,129,47680,2,0,L|54:106,2,50
78,270,48109,2,0,L|125:253,2,50
206,339,48537,2,0,L|143:339,2,50
206,339,48966,1,0,0:0:0:0:
247,55,51252,5,2,0:0:0:0:
254,221,51537,1,2,0:0:0:0:
254,221,51823,1,2,0:0:0:0:
254,221,52109,1,2,0:0:0:0:
134,326,52394,5,0,0:0:0:0:
134,326,52680,2,0,P|92:289|94:182,1,160
118,162,53037,1,0,0:0:0:0:
138,162,53108,1,0,0:0:0:0:
158,162,53179,1,0,0:0:0:0:
178,162,53251,1,0,0:0:0:0:
198,162,53322,1,0,0:0:0:0:
218,162,53394,1,0,0:0:0:0:
238,162,53465,1,0,0:0:0:0:
263,164,53537,6,0,L|372:164,1,100
262,263,53823,2,0,L|371:263,1,100
437,143,54109,1,0,0:0:0:0:
348,34,54252,1,0,0:0:0:0:
405,155,54394,1,0,0:0:0:0:
315,48,54537,1,0,0:0:0:0:
176,67,54680,6,0,B|126:69|126:69|97:110,1,100
72,176,54894,1,0,0:0:0:0:
94,243,54966,2,0,B|123:284|123:284|173:286,1,100
300,226,55252,1,8,0:0:0:0:
232,113,55394,1,8,0:0:0:0:
232,113,55466,1,8,0:0:0:0:
232,113,55537,2,8,B|191:142|191:142|189:192,1,100
308,267,55823,6,0,L|447:236,1,100
334,123,56109,2,0,L|473:92,1,100
305,42,56394,1,0,0:0:0:0:
165,42,56537,1,0,0:0:0:0:
295,81,56680,1,0,0:0:0:0:
155,81,56823,1,0,0:0:0:0:
21,121,56966,5,8,0:0:0:0:
38,261,57109,1,8,0:0:0:0:
104,137,57252,1,8,0:0:0:0:
108,277,57394,2,8,B|123:322|123:322|163:356,1,100
271,265,57680,1,8,0:0:0:0:
271,265,57752,1,8,0:0:0:0:
271,265,57823,2,8,B|256:220|256:220|216:186,1,100
265,54,58109,6,0,B|280:99|280:99|333:108,1,100
402,119,58323,1,0,0:0:0:0:
469,138,58394,2,0,B|454:183|454:183|401:192,1,100
263,221,58680,2,0,B|278:266|278:266|331:275,1,100
329,274,58894,1,0,0:0:0:0:
329,274,58966,1,0,0:0:0:0:
449,196,59109,1,0,0:0:0:0:
383,70,59252,6,0,B|331:78|331:78|316:123,1,100
302,193,59466,1,0,0:0:0:0:
286,261,59537,2,0,B|271:306|271:306|218:315,1,100
115,219,59823,2,8,B|123:167|123:167|168:152,1,100
168,152,60037,1,8,0:0:0:0:
168,152,60109,1,8,0:0:0:0:
320,133,60252,1,8,0:0:0:0:
320,133,60323,1,8,0:0:0:0:
320,133,60394,6,8,B|373:142|373:142|392:187,1,100,8|0,0:0|0:0,0:0:0:0:
337,233,60609,1,0,0:0:0:0:
281,274,60680,2,0,B|226:281|226:281|174:258,1,100
82,166,60966,1,0,0:0:0:0:
37,33,61109,1,0,0:0:0:0:
23,172,61252,1,0,0:0:0:0:
99,51,61395,1,0,0:0:0:0:
238,51,61537,5,8,0:0:0:0:
262,54,61608,1,8,0:0:0:0:
285,64,61679,1,8,0:0:0:0:
305,80,61751,1,8,0:0:0:0:
322,97,61822,1,8,0:0:0:0:
340,115,61894,1,8,0:0:0:0:
359,131,61965,1,8,0:0:0:0:
382,141,62037,1,8,0:0:0:0:
414,151,62109,2,8,L|413:255,1,100
410,322,62394,1,8,0:0:0:0:
414,151,62537,1,8,0:0:0:0:
302,67,62680,6,0,L|189:67,1,100
95,162,62966,2,0,L|208:162,1,100
330,207,63252,1,0,0:0:0:0:
215,287,63394,1,0,0:0:0:0:
355,258,63537,1,0,0:0:0:0:
237,335,63680,1,0,0:0:0:0:
375,297,63823,5,0,0:0:0:0:
345,167,63966,1,0,0:0:0:0:
345,167,64037,1,0,0:0:0:0:
345,167,64109,2,0,B|300:182|300:182|275:236,1,100
138,232,64394,1,0,0:0:0:0:
145,98,64537,1,8,0:0:0:0:
145,98,64609,1,8,0:0:0:0:
145,98,64680,2,8,B|190:83|190:83|215:29,1,100
344,92,64966,5,0,0:0:0:0:
255,200,65109,2,0,B|270:245|270:245|320:278,1,100
189,200,65394,2,0,B|174:155|174:155|124:122,1,100
255,200,65680,2,0,B|270:155|270:155|320:122,1,100
398,240,65966,2,0,B|383:285|383:285|333:318,1,100
198,316,66252,5,8,0:0:0:0:
127,196,66394,1,8,0:0:0:0:
248,124,66537,1,8,0:0:0:0:
319,245,66680,1,8,0:0:0:0:
198,316,66823,1,8,0:0:0:0:
198,316,66894,1,8,0:0:0:0:
198,316,66966,2,8,B|154:287|154:287|139:242,1,100
254,161,67252,6,0,B|299:174|299:174|355:152,1,100
218,46,67537,2,0,B|172:32|172:32|116:54,1,100
254,161,67823,2,0,B|240:206|240:206|259:255,1,100
401,161,68109,2,0,B|414:115|414:115|395:66,1,100
254,161,68394,6,0,B|299:174|299:174|355:152,1,100
210,52,68680,2,0,B|164:38|164:38|115:57,1,100
254,161,68966,2,8,B|273:210|273:210|259:256,1,100
259,255,69180,1,8,0:0:0:0:
259,255,69252,1,8,0:0:0:0:
147,190,69394,1,8,0:0:0:0:
211,63,69537,6,0,B|262:70|262:70|295:105,1,100
270,245,69823,2,0,B|221:264|221:264|175:250,1,100
93,136,70109,1,0,0:0:0:0:
233,136,70252,1,0,0:0:0:0:
102,185,70395,1,0,0:0:0:0:
243,185,70538,1,0,0:0:0:0:
351,274,70680,6,8,B|396:287|396:287|452:265,1,100
445,268,70894,1,8,0:0:0:0:
445,268,70966,1,8,0:0:0:0:
356,172,71109,1,0,0:0:0:0:
264,278,71252,2,8,B|218:291|218:291|162:269,1,100
169,272,71466,1,8,0:0:0:0:
169,272,71538,1,8,0:0:0:0:
106,156,71680,1,0,0:0:0:0:
211,58,71823,6,0,L|321:58,1,100
407,162,72109,1,8,0:0:0:0:
407,162,72180,1,8,0:0:0:0:
407,162,72252,1,8,0:0:0:0:
273,169,72394,1,8,0:0:0:0:
273,169,72465,1,8,0:0:0:0:
273,169,72537,1,8,0:0:0:0:
133,165,72680,2,2,B|133:211|133:211|140:227|140:227|140:263,1,100
272,310,72966,6,0,L|382:310,1,100
456,197,73252,1,8,0:0:0:0:
456,197,73323,1,8,0:0:0:0:
456,197,73395,1,8,0:0:0:0:
323,203,73537,1,8,0:0:0:0:
323,203,73608,1,8,0:0:0:0:
323,203,73680,1,8,0:0:0:0:
183,199,73823,2,2,B|183:163|183:163|176:147|176:147|176:101,1,100
313,42,74109,6,0,B|326:87|326:87|301:142,1,100
259,272,74394,1,8,0:0:0:0:
259,272,74466,1,8,0:0:0:0:
259,272,74537,1,8,0:0:0:0:
218,144,74680,1,8,0:0:0:0:
218,144,74752,1,8,0:0:0:0:
218,144,74823,1,8,0:0:0:0:
124,41,74966,2,0,B|104:89|104:89|128:135,1,100
238,212,75252,6,0,B|291:227|291:227|312:175,1,100
354,58,75537,1,8,0:0:0:0:
354,58,75609,1,8,0:0:0:0:
354,58,75680,1,8,0:0:0:0:
479,132,75823,1,8,0:0:0:0:
486,155,75894,1,8,0:0:0:0:
489,180,75965,1,8,0:0:0:0:
487,205,76037,1,8,0:0:0:0:
481,229,76108,1,10,0:0:0:0:
471,252,76180,1,10,0:0:0:0:
456,272,76251,1,10,0:0:0:0:
439,290,76322,1,8,0:0:0:0:
418,304,76394,6,0,L|316:303,1,100
185,278,76680,1,8,0:0:0:0:
185,278,76752,1,8,0:0:0:0:
185,278,76823,1,8,0:0:0:0:
117,161,76966,1,8,0:0:0:0:
117,161,77037,1,8,0:0:0:0:
117,161,77109,1,8,0:0:0:0:
182,37,77252,2,2,B|204:76|204:76|219:87|219:87|237:118,1,100
310,239,77537,6,0,L|440:239,1,100
365,109,77823,1,8,0:0:0:0:
365,109,77894,1,8,0:0:0:0:
365,109,77966,1,8,0:0:0:0:
236,149,78109,1,8,0:0:0:0:
236,149,78180,1,8,0:0:0:0:
236,149,78252,1,8,0:0:0:0:
140,250,78394,2,2,B|117:289|117:289|102:300|102:300|84:331,1,100
277,327,78680,5,8,0:0:0:0:
301,325,78751,1,8,0:0:0:0:
325,318,78822,1,8,0:0:0:0:
348,307,78894,1,8,0:0:0:0:
367,291,78965,1,8,0:0:0:0:
382,271,79037,1,8,0:0:0:0:
393,248,79108,1,8,0:0:0:0:
399,224,79179,1,8,0:0:0:0:
399,199,79251,1,8,0:0:0:0:
395,175,79322,1,8,0:0:0:0:
385,152,79394,1,8,0:0:0:0:
371,131,79465,1,8,0:0:0:0:
353,114,79537,1,8,0:0:0:0:
331,102,79608,1,8,0:0:0:0:
308,94,79679,1,8,0:0:0:0:
283,91,79751,1,8,0:0:0:0:
257,90,79823,6,8,L|152:90,1,100
51,227,80109,2,8,L|161:226,1,100
321,338,80394,2,8,L|216:338,1,100
369,160,80680,2,10,B|413:160|413:160|435:151|435:151|489:151,1,100
221,338,80966,5,4,0:0:0:0:
283,72,82335,5,0,0:0:0:0:
392,96,82506,1,0,0:0:0:0:
454,183,82677,1,0,0:0:0:0:
421,277,82849,1,0,0:0:0:0:
333,301,83020,1,0,0:0:0:0:
249,278,83192,1,0,0:0:0:0:
211,211,83363,1,0,0:0:0:0:
221,139,83535,1,0,0:0:0:0:
285,109,83706,6,0,P|335:165|199:218,1,279.999991455078
97,100,84735,1,0,0:0:0:0:
274,49,85077,5,4,0:0:0:0:
272,277,85249,1,4,0:0:0:0:
274,49,85420,1,4,0:0:0:0:
435,112,85763,1,0,0:0:0:0:
435,112,86106,1,0,0:0:0:0:
362,273,86449,5,0,0:0:0:0:
183,221,86620,2,0,P|195:159|271:142,1,110.000003356934
417,171,86963,1,0,0:0:0:0:
455,215,87049,1,0,0:0:0:0:
482,263,87135,2,0,P|475:316|432:346,1,110.000003356934
251,335,87477,2,0,P|206:304|199:251,1,110.000003356934
389,234,87820,5,0,0:0:0:0:
353,51,87991,2,0,P|302:32|255:58,1,110.000003356934
189,232,88334,1,0,0:0:0:0:
229,270,88420,1,0,0:0:0:0:
277,297,88506,2,0,P|328:316|381:301,1,110.000003356934
382,107,88849,2,0,P|331:88|278:103,1,110.000003356934
100,164,89192,6,0,L|64:281,1,110.000003356934
251,308,89535,2,0,L|280:184,1,110.000003356934
291,148,89792,1,0,0:0:0:0:
303,95,89877,2,0,L|195:69,1,110.000003356934
185,256,90220,2,0,L|293:231,1,110.000003356934
345,215,90477,1,0,0:0:0:0:
399,203,90563,5,0,0:0:0:0:
296,46,90735,2,0,P|243:50|225:99,1,110.000003356934
265,283,91077,1,2,0:0:0:0:
320,283,91163,1,2,0:0:0:0:
375,283,91249,2,2,P|427:278|445:229,1,110.000003356934
388,52,91592,1,0,0:0:0:0:
375,105,91677,1,0,0:0:0:0:
363,159,91763,1,0,0:0:0:0:
350,212,91849,1,0,0:0:0:0:
333,265,91935,6,0,P|279:249|233:180,1,110.000003356934
142,51,92277,2,0,P|76:42|21:77,1,110.000003356934
31,114,92535,1,0,0:0:0:0:
31,169,92620,2,0,P|81:188|134:177,1,110.000003356934
282,60,92963,2,0,P|336:32|395:51,1,110.000003356934
484,201,93306,6,0,P|445:252|392:248,1,110.000003356934
220,218,93648,2,0,P|211:284|246:339,1,110.000003356934
175,341,93906,1,0,0:0:0:0:
126,316,93991,2,0,P|145:265|134:212,1,110.000003356934
58,40,94334,2,0,P|7:79|6:130,1,110.000003356934
145,250,94677,5,0,0:0:0:0:
200,250,94763,1,0,0:0:0:0:
255,250,94849,2,0,L|313:250,1,55.0000016784668
395,141,95020,1,0,0:0:0:0:
340,141,95106,1,0,0:0:0:0:
285,141,95192,2,0,L|227:141,1,55.0000016784668
108,206,95363,1,0,0:0:0:0:
108,261,95449,1,0,0:0:0:0:
108,316,95535,2,0,L|108:374,1,55.0000016784668
230,306,95706,1,0,0:0:0:0:
230,251,95792,1,0,0:0:0:0:
230,196,95878,2,0,L|230:138,1,55.0000016784668
332,44,96049,6,0,B|469:55|374:98|349:150|418:200,1,209.999993591309
404,262,96392,2,0,B|393:399|350:304|298:279|271:345,1,139.999995727539
250,298,96649,1,0,0:0:0:0:
187,332,96735,2,0,B|50:321|145:278|170:226|101:176,1,209.999993591309
95,118,97077,1,0,0:0:0:0:
131,59,97162,1,0,0:0:0:0:
195,34,97248,1,0,0:0:0:0:
262,52,97334,1,0,0:0:0:0:
305,105,97420,6,0,L|432:105,1,110.000003356934,4|0,0:0|0:0,0:0:0:0:
227,103,97763,1,0,0:0:0:0:
63,195,97935,2,0,L|96:356,1,165.000005035401
195,344,98277,2,2,P|234:270|170:219,1,160
14,294,98620,1,0,0:0:0:0:
195,344,98792,6,0,L|333:344,1,110.000003356934,4|0,0:0|0:0,0:0:0:0:
459,236,99135,1,0,0:0:0:0:
304,132,99306,2,0,L|98:105,1,165.000005035401
90,193,99649,2,2,P|156:244|224:189,1,160
105,59,99992,1,0,0:0:0:0:
29,229,100163,6,2,P|53:321|185:331,1,220.000006713867
376,34,100849,2,2,P|468:58|478:190,1,220.000006713867
477,222,101277,1,0,0:0:0:0:
466,275,101362,1,0,0:0:0:0:
455,329,101448,1,0,0:0:0:0:
442,384,101535,5,4,0:0:0:0:
75,322,101877,1,4,0:0:0:0:
441,241,102220,1,4,0:0:0:0:
132,161,102435,1,4,0:0:0:0:
492,36,102692,1,4,0:0:0:0:
322,221,102906,6,0,P|268:205|222:136,1,110.000003356934
392,70,103248,2,0,P|401:136|366:191,1,110.000003356934
352,220,103506,1,0,0:0:0:0:
317,266,103591,2,0,P|263:277|213:258,1,110.000003356934
309,97,103934,2,0,P|360:136|361:187,1,110.000003356934
198,267,104277,6,0,P|147:228|146:177,1,110.000003356934
264,42,104620,2,0,P|330:51|386:17,1,110.000003356934
422,48,104877,1,0,0:0:0:0:
450,96,104963,2,0,P|431:147|442:200,1,110.000003356934
266,96,105306,2,0,P|285:147|274:200,1,110.000003356934
141,332,105649,6,0,P|90:351|37:340,1,110.000003356934
33,152,105992,2,0,P|84:133|137:144,1,110.000003356934
180,179,106249,1,0,0:0:0:0:
224,213,106334,2,0,P|243:162|232:109,1,110.000003356934
420,112,106677,2,0,P|431:165|412:216,1,110.000003356934
384,265,106935,1,0,0:0:0:0:
354,312,107020,5,0,0:0:0:0:
106,252,107192,1,0,0:0:0:0:
245,38,107363,1,0,0:0:0:0:
272,294,107535,1,0,0:0:0:0:
70,141,107706,1,0,0:0:0:0:
309,222,107877,1,0,0:0:0:0:
74,319,108049,1,0,0:0:0:0:
153,78,108220,1,0,0:0:0:0:
318,274,108392,5,4,0:0:0:0:
318,140,109077,1,4,0:0:0:0:
398,35,109763,5,0,0:0:0:0:
178,238,109935,1,0,0:0:0:0:
455,131,110106,5,0,0:0:0:0:
155,128,110277,1,0,0:0:0:0:
425,257,110449,5,0,0:0:0:0:
229,35,110620,1,0,0:0:0:0:
299,325,110792,5,0,0:0:0:0:
369,37,110963,1,0,0:0:0:0:
434,202,111135,6,2,B|427:337|384:281|356:140|314:230|333:329|248:269,1,240
200,291,111477,2,2,B|65:284|121:241|262:213|172:171|72:190|142:111,1,240
155,61,111820,2,2,B|187:-10|228:70|270:171|251:3|395:85,1,240
438,103,112163,2,2,B|509:135|429:176|328:218|496:199|423:345,1,240
435,312,112506,5,4,0:0:0:0:
151,171,113535,2,2,L|129:184,6,14.9999995422363
195,145,113877,5,8,0:0:0:0:
456,37,114049,1,8,0:0:0:0:
273,251,114220,1,8,0:0:0:0:
124,51,114563,1,8,0:0:0:0:
41,323,114735,1,8,0:0:0:0:
464,112,115249,6,2,B|374:126|423:206|308:204,1,179.999994506836,6|2,0:0|0:0,0:0:0:0:
138,200,116277,1,0,0:0:0:0:
155,319,116620,6,2,L|283:305,1,119.999996337891,6|2,0:0|0:0,0:0:0:0:
479,179,117306,2,2,L|352:165,1,119.999996337891,6|2,0:0|0:0,0:0:0:0:
150,44,117992,6,0,L|91:58,2,59.9999981689454
267,95,118506,1,0,0:0:0:0:
382,147,118677,2,0,L|443:129,2,59.9999981689454
277,208,119192,1,0,0:0:0:0:
160,239,119363,5,0,0:0:0:0:
135,207,119448,1,0,0:0:0:0:
104,182,119534,1,0,0:0:0:0:
73,157,119620,1,0,0:0:0:0:
49,125,119705,1,0,0:0:0:0:
46,86,119791,1,0,0:0:0:0:
67,53,119877,1,0,0:0:0:0:
103,36,119963,1,0,0:0:0:0:
140,48,120048,1,0,0:0:0:0:
173,55,120134,1,0,0:0:0:0:
207,35,120220,1,0,0:0:0:0:
245,45,120305,1,0,0:0:0:0:
270,76,120391,1,0,0:0:0:0:
275,115,120477,1,0,0:0:0:0:
260,152,120563,1,0,0:0:0:0:
233,181,120648,1,0,0:0:0:0:
203,207,120734,5,4,0:0:0:0:
256,192,120820,12,0,122020,0:0:0:0:
376,214,122106,6,2,L|410:234,2,40
273,151,122449,2,2,L|246:104,2,40
247,268,122791,2,2,L|233:305,3,40
193,300,123134,1,0,0:0:0:0:
158,282,123219,1,0,0:0:0:0:
130,253,123305,1,0,0:0:0:0:
114,215,123391,1,0,0:0:0:0:
112,177,123476,5,4,0:0:0:0:
195,41,123648,1,0,0:0:0:0:
195,41,123734,1,0,0:0:0:0:
249,198,123906,1,0,0:0:0:0:
249,198,123991,1,0,0:0:0:0:
354,77,124163,2,0,P|378:50|442:35,2,100
354,239,124677,2,0,P|413:271|466:239,1,100,0|4,0:0|0:0,0:0:0:0:
461,105,125020,5,0,0:0:0:0:
461,105,125106,1,0,0:0:0:0:
324,34,125277,1,0,0:0:0:0:
324,34,125363,1,0,0:0:0:0:
246,174,125534,2,0,P|196:179|159:147,2,100
400,129,126048,1,0,0:0:0:0:
472,272,126220,5,4,0:0:0:0:
338,357,126391,1,0,0:0:0:0:
338,357,126477,1,0,0:0:0:0:
263,222,126648,1,0,0:0:0:0:
263,222,126734,1,0,0:0:0:0:
415,170,126906,2,0,P|432:124|418:77,1,100
215,84,127249,2,0,P|200:131|217:177,1,100
353,312,127591,5,8,0:0:0:0:
353,312,127763,1,8,0:0:0:0:
237,201,127934,1,8,0:0:0:0:
82,245,128106,1,8,0:0:0:0:
122,89,128277,1,8,0:0:0:0:
237,201,128448,1,0,0:0:0:0:
352,89,128620,1,0,0:0:0:0:
388,122,128705,1,0,0:0:0:0:
407,168,128791,1,0,0:0:0:0:
404,217,128877,1,0,0:0:0:0:
382,263,128962,5,4,0:0:0:0:
251,356,129134,1,0,0:0:0:0:
251,356,129220,1,0,0:0:0:0:
280,202,129391,1,0,0:0:0:0:
280,202,129477,1,0,0:0:0:0:
135,274,129649,2,0,P|110:291|45:277,2,100
158,108,130163,2,0,P|99:76|46:108,1,100,0|4,0:0|0:0,0:0:0:0:
28,241,130505,5,0,0:0:0:0:
28,241,130591,1,0,0:0:0:0:
158,342,130762,1,0,0:0:0:0:
158,342,130848,1,0,0:0:0:0:
253,213,131020,2,0,P|291:184|298:136,2,100
106,148,131534,1,0,0:0:0:0:
223,38,131706,6,2,P|299:48|344:119,1,150
340,103,132049,1,0,0:0:0:0:
383,261,132220,2,2,P|440:215|448:143,1,150
447,142,132563,1,0,0:0:0:0:
309,70,132735,2,2,P|266:110|280:159,1,100
419,209,133077,6,2,P|442:282|396:352,1,150
359,345,133420,1,0,0:0:0:0:
309,345,133506,2,2,L|255:345,1,50
107,292,133763,2,2,L|65:306,6,25
75,252,134106,2,0,P|78:197|104:159,1,100
183,83,134449,6,0,L|356:83,1,160,4|0,0:0|0:0,0:0:0:0:
338,309,135135,2,0,L|416:294,1,80
343,207,135477,2,0,L|421:192,1,80
227,306,135820,6,0,L|54:306,1,160
23,199,136335,1,0,0:0:0:0:
62,93,136506,2,0,P|100:115|109:148,1,80
69,253,136849,2,0,P|31:231|22:198,1,80
71,101,137192,5,0,0:0:0:0:
71,101,137363,1,0,0:0:0:0:
71,101,137535,2,0,L|165:101,1,80
379,105,138049,1,0,0:0:0:0:
379,105,138220,1,0,0:0:0:0:
266,244,138563,6,0,P|335:262|426:236,1,160
195,244,139077,1,0,0:0:0:0:
195,244,139249,1,0,0:0:0:0:
195,244,139420,2,0,P|148:260|106:243,1,80
81,230,139677,1,0,0:0:0:0:
51,204,139762,1,0,0:0:0:0:
30,169,139848,1,0,0:0:0:0:
27,128,139935,6,0,L|117:129,1,80,4|0,0:0|0:0,0:0:0:0:
243,128,140277,2,0,L|333:129,1,80
460,128,140620,1,0,0:0:0:0:
460,265,140792,1,0,0:0:0:0:
322,265,140963,1,0,0:0:0:0:
322,128,141135,1,0,0:0:0:0:
186,128,141306,6,0,L|98:128,1,80,4|0,0:0|0:0,0:0:0:0:
103,289,141649,2,0,L|191:289,1,80
344,289,141992,1,0,0:0:0:0:
344,129,142163,1,0,0:0:0:0:
186,128,142335,1,0,0:0:0:0:
182,289,142506,1,0,0:0:0:0:
344,289,142677,6,0,L|431:271,1,80,4|0,0:0|0:0,0:0:0:0:
424,88,143020,2,0,L|346:72,1,80
161,67,143363,1,0,0:0:0:0:
124,248,143535,1,0,0:0:0:0:
304,289,143706,1,0,0:0:0:0:
350,111,143877,1,0,0:0:0:0:
390,111,143962,1,0,0:0:0:0:
430,111,144048,5,0,0:0:0:0:
256,303,144392,1,0,0:0:0:0:
337,204,144563,1,0,0:0:0:0:
256,303,144735,1,0,0:0:0:0:
131,279,144906,1,0,0:0:0:0:
95,261,144992,1,0,0:0:0:0:
61,240,145077,1,0,0:0:0:0:
63,111,145249,1,0,0:0:0:0:
97,90,145334,1,0,0:0:0:0:
141,66,145420,6,0,P|177:48|255:55,1,100,4|0,0:0|0:0,0:0:0:0:
279,206,145763,2,0,P|328:208|373:188,1,100
331,30,146106,2,0,P|281:28|236:49,1,100
225,212,146449,2,0,P|179:232|130:229,1,100
73,80,146791,5,0,0:0:0:0:
252,149,146963,1,0,0:0:0:0:
429,80,147134,1,0,0:0:0:0:
257,153,147306,1,0,0:0:0:0:
73,213,147477,5,0,0:0:0:0:
257,153,147648,1,0,0:0:0:0:
437,213,147820,1,0,0:0:0:0:
257,153,147991,1,0,0:0:0:0:
76,93,148163,6,0,P|55:137|69:184,1,100
225,278,148506,2,0,P|245:233|232:186,1,100
76,93,148849,2,0,P|120:73|167:87,1,100
337,149,149192,2,0,P|292:128|245:142,1,100
245,141,149448,1,0,0:0:0:0:
245,141,149534,5,0,0:0:0:0:
110,283,149706,1,0,0:0:0:0:
178,117,149877,2,0,P|207:79|203:31,1,100
203,30,150134,1,0,0:0:0:0:
203,30,150220,1,0,0:0:0:0:
56,131,150391,1,0,0:0:0:0:
203,30,150563,1,0,0:0:0:0:
262,52,150648,1,0,0:0:0:0:
311,60,150734,1,0,0:0:0:0:
361,68,150820,1,0,0:0:0:0:
410,79,150906,6,0,P|434:123|419:187,1,100,4|0,0:0|0:0,0:0:0:0:
269,190,151249,2,0,P|245:234|260:298,1,100
405,321,151591,2,0,L|358:303,3,50
186,269,151934,2,0,L|136:288,3,50
177,216,152277,5,0,0:0:0:0:
189,57,152448,1,0,0:0:0:0:
37,121,152620,1,0,0:0:0:0:
194,157,152791,2,0,P|247:151|284:117,1,100
424,45,153134,1,0,0:0:0:0:
344,184,153306,2,0,P|312:222|309:271,1,100
158,325,153648,6,0,L|58:325,1,100,4|0,0:0|0:0,0:0:0:0:
158,200,153991,2,0,L|57:200,1,100
193,108,154334,2,0,L|294:108,1,100
187,229,154677,2,0,L|288:229,1,100
287,229,154934,1,0,0:0:0:0:
287,229,155020,5,4,0:0:0:0:
431,152,155191,1,0,0:0:0:0:
324,28,155363,1,0,0:0:0:0:
253,176,155534,1,0,0:0:0:0:
253,176,155620,1,0,0:0:0:0:
253,176,155706,1,4,0:0:0:0:
410,214,155877,2,0,P|414:138|390:97,1,100
405,117,156134,1,0,0:0:0:0:
405,117,156219,1,4,0:0:0:0:
182,65,156392,6,0,L|138:54,6,25
146,237,156963,2,0,L|136:265,6,25
299,152,157534,2,0,L|343:141,8,25
169,271,158249,2,0,L|146:332,2,50
348,274,158677,5,0,0:0:0:0:
348,274,158820,2,0,L|416:297,2,50
205,169,159249,2,0,L|158:153,2,50
382,162,159677,2,0,L|405:94,2,50
221,236,160106,2,0,L|204:283,2,50
260,64,160534,2,0,L|310:64,2,50
260,64,160963,1,0,0:0:0:0:
142,100,163249,5,0,0:0:0:0:
312,107,163534,1,0,0:0:0:0:
312,107,163820,1,0,0:0:0:0:
312,107,164106,1,0,0:0:0:0:
466,164,164391,5,0,0:0:0:0:
466,164,164677,2,0,P|450:217|352:261,1,160
322,265,165034,1,0,0:0:0:0:
302,265,165105,1,0,0:0:0:0:
282,265,165177,1,0,0:0:0:0:
262,265,165248,1,0,0:0:0:0:
242,265,165320,1,0,0:0:0:0:
222,265,165391,1,0,0:0:0:0:
202,265,165462,1,0,0:0:0:0:
177,265,165534,6,0,L|77:265,1,100
177,166,165820,2,0,L|77:166,1,100
171,60,166106,1,0,0:0:0:0:
256,177,166249,1,0,0:0:0:0:
341,59,166391,1,0,0:0:0:0:
256,177,166534,1,0,0:0:0:0:
381,241,166677,6,0,B|372:298|372:298|317:328,1,100
264,324,166891,1,0,0:0:0:0:
194,317,166963,2,0,B|156:296|156:296|147:239,1,100
176,101,167249,1,8,0:0:0:0:
319,147,167391,1,8,0:0:0:0:
319,147,167463,1,8,0:0:0:0:
319,147,167534,2,8,B|310:204|310:204|269:213,1,100
124,202,167820,6,0,L|-15:171,1,100
0,114,168034,1,0,0:0:0:0:
40,56,168106,2,0,L|179:25,1,100
279,58,168391,1,0,0:0:0:0:
212,183,168534,1,0,0:0:0:0:
279,58,168677,1,0,0:0:0:0:
405,120,168820,1,0,0:0:0:0:
470,244,168963,5,8,0:0:0:0:
337,292,169106,1,8,0:0:0:0:
269,169,169249,1,8,0:0:0:0:
139,222,169391,2,8,B|82:213|82:213|52:158,1,100
106,43,169677,1,8,0:0:0:0:
106,43,169749,1,8,0:0:0:0:
106,43,169820,2,8,B|163:52|163:52|183:89,1,100
226,224,170106,6,0,B|263:204|263:204|272:147,1,100
328,104,170320,1,0,0:0:0:0:
381,149,170391,2,0,B|390:206|390:206|427:226,1,100
377,358,170677,6,0,B|320:349|320:349|300:312,1,100
299,311,170891,1,0,0:0:0:0:
299,311,170963,1,0,0:0:0:0:
263,185,171106,1,0,0:0:0:0:
129,143,171249,6,0,B|88:130|88:130|42:164,1,100
47,235,171463,1,0,0:0:0:0:
80,296,171534,2,0,B|120:308|120:308|166:274,1,100
198,135,171820,2,8,B|156:141|156:141|128:191,1,100
128,191,172034,1,8,0:0:0:0:
128,191,172106,1,8,0:0:0:0:
282,206,172249,1,8,0:0:0:0:
282,206,172320,1,8,0:0:0:0:
282,206,172391,6,0,B|325:181|325:181|341:123,1,100,8|0,0:0|0:0,0:0:0:0:
463,199,172677,2,0,B|420:224|420:224|404:282,1,100
292,354,172963,1,0,0:0:0:0:
262,216,173106,1,0,0:0:0:0:
223,355,173249,1,0,0:0:0:0:
194,216,173391,2,0,L|88:216,1,100
0,124,173677,5,0,0:0:0:0:
0,124,173749,1,0,0:0:0:0:
0,124,173820,1,0,0:0:0:0:
106,31,173963,1,0,0:0:0:0:
218,116,174106,2,8,L|204:137,6,25
268,109,174391,2,2,L|387:109,1,100
499,165,174677,6,0,L|499:278,1,100
396,364,174963,2,0,L|396:251,1,100
312,147,175249,1,0,0:0:0:0:
179,187,175391,1,0,0:0:0:0:
312,231,175534,1,0,0:0:0:0:
179,187,175677,1,0,0:0:0:0:
236,314,175820,5,0,0:0:0:0:
113,269,175963,1,8,0:0:0:0:
113,269,176034,1,8,0:0:0:0:
113,269,176106,2,8,B|85:224|85:224|94:160,1,100
118,40,176391,1,0,0:0:0:0:
265,71,176534,1,8,0:0:0:0:
265,71,176606,1,8,0:0:0:0:
265,71,176677,2,8,B|293:116|293:116|286:162,1,100
147,202,176963,5,0,0:0:0:0:
21,143,177106,2,0,B|29:90|29:90|77:44,1,100
192,114,177391,2,0,B|184:167|184:167|136:213,1,100
106,72,177677,2,0,B|159:80|159:80|205:128,1,100
235,250,177963,2,0,B|288:242|288:242|334:194,1,100
377,78,178249,5,8,0:0:0:0:
450,201,178391,1,8,0:0:0:0:
317,145,178534,1,8,0:0:0:0:
457,117,178677,1,8,0:0:0:0:
367,226,178820,1,8,0:0:0:0:
367,226,178891,1,8,0:0:0:0:
367,226,178963,2,8,B|312:224|312:224|266:198,1,100
211,76,179249,6,0,B|178:42|178:42|125:34,1,100
63,194,179534,2,0,B|95:227|95:227|148:235,1,100
211,76,179820,2,0,B|264:84|264:84|310:132,1,100
365,276,180106,2,0,B|418:268|418:268|464:220,1,100
389,76,180391,6,0,B|336:84|336:84|290:132,1,100
476,153,180677,2,0,B|468:206|468:206|420:252,1,100
264,224,180963,2,8,B|230:256|230:256|222:309,1,100
222,309,181177,1,8,0:0:0:0:
222,309,181249,1,8,0:0:0:0:
96,276,181391,1,8,0:0:0:0:
125,138,181534,6,0,B|176:140|176:140|212:196,1,100
347,141,181820,2,0,B|296:143|296:143|260:199,1,100
235,326,182106,1,0,0:0:0:0:
202,181,182249,1,0,0:0:0:0:
235,326,182392,1,0,0:0:0:0:
269,184,182535,1,0,0:0:0:0:
283,45,182677,6,8,B|334:47|334:47|375:104,1,100
362,86,182891,1,8,0:0:0:0:
362,86,182963,1,8,0:0:0:0:
417,226,183106,1,0,0:0:0:0:
276,248,183249,2,8,B|250:219|250:219|238:153,1,100
239,158,183463,1,8,0:0:0:0:
239,158,183535,1,8,0:0:0:0:
391,178,183677,1,8,0:0:0:0:
386,323,183820,6,0,L|276:323,1,100
155,298,184106,1,8,0:0:0:0:
155,298,184177,1,8,0:0:0:0:
155,298,184249,1,8,0:0:0:0:
27,268,184391,1,8,0:0:0:0:
27,268,184462,1,8,0:0:0:0:
27,268,184534,1,8,0:0:0:0:
147,195,184677,2,2,B|182:191|182:191|198:183|198:183|244:179,1,100
305,50,184963,6,0,L|195:50,1,100
72,90,185249,1,8,0:0:0:0:
72,90,185320,1,8,0:0:0:0:
72,90,185392,1,8,0:0:0:0:
151,216,185534,1,8,0:0:0:0:
151,216,185605,1,8,0:0:0:0:
151,216,185677,1,8,0:0:0:0:
196,82,185820,2,2,B|231:78|231:78|247:70|247:70|293:66,1,100
434,102,186106,6,0,B|474:135|474:135|481:201,1,100
439,327,186391,1,8,0:0:0:0:
439,327,186463,1,8,0:0:0:0:
439,327,186534,1,8,0:0:0:0:
410,197,186677,1,8,0:0:0:0:
410,197,186749,1,8,0:0:0:0:
410,197,186820,1,8,0:0:0:0:
358,66,186963,2,0,B|318:99|318:99|311:165,1,100
290,290,187249,6,0,B|257:330|257:330|191:337,1,100
77,323,187534,1,8,0:0:0:0:
77,323,187606,1,8,0:0:0:0:
77,323,187677,1,8,0:0:0:0:
36,189,187820,1,8,0:0:0:0:
32,164,187891,1,8,0:0:0:0:
31,139,187962,1,8,0:0:0:0:
36,114,188034,1,8,0:0:0:0:
45,91,188105,1,10,0:0:0:0:
58,70,188177,1,10,0:0:0:0:
74,51,188248,1,10,0:0:0:0:
93,36,188319,1,8,0:0:0:0:
119,35,188391,6,0,L|221:36,1,100
348,125,188677,1,8,0:0:0:0:
348,125,188749,1,8,0:0:0:0:
348,125,188820,1,8,0:0:0:0:
213,125,188963,1,8,0:0:0:0:
213,125,189034,1,8,0:0:0:0:
213,125,189106,1,8,0:0:0:0:
81,172,189249,2,2,B|51:207|51:207|46:223|46:223|23:251,1,100
118,355,189534,6,0,L|248:355,1,100
344,286,189820,1,8,0:0:0:0:
344,286,189891,1,8,0:0:0:0:
344,286,189963,1,8,0:0:0:0:
211,286,190106,1,8,0:0:0:0:
211,286,190177,1,8,0:0:0:0:
211,286,190249,1,8,0:0:0:0:
72,282,190391,2,2,B|95:254|95:254|100:237|100:237|129:202,1,100
247,47,190677,5,8,0:0:0:0:
270,37,190749,1,8,0:0:0:0:
294,32,190820,1,8,0:0:0:0:
319,31,190891,1,8,0:0:0:0:
343,37,190963,1,8,0:0:0:0:
365,48,191034,1,8,0:0:0:0:
385,63,191106,1,8,0:0:0:0:
401,82,191177,1,8,0:0:0:0:
413,104,191249,1,8,0:0:0:0:
420,127,191320,1,8,0:0:0:0:
422,153,191391,1,8,0:0:0:0:
419,178,191463,1,8,0:0:0:0:
411,201,191534,1,8,0:0:0:0:
396,222,191606,1,8,0:0:0:0:
379,240,191677,1,8,0:0:0:0:
359,254,191748,1,8,0:0:0:0:
336,267,191820,6,8,L|234:239,1,100
83,169,192106,2,8,L|184:141,1,100
373,87,192391,2,8,L|398:183,1,100
166,198,192677,2,8,L|138:299,1,100
398,183,192963,5,4,0:0:0:0:
256,192,193034,12,0,199820,0:0:0:0:
363,176,206917,5,0,0:0:0:0:
329,69,207088,1,0,0:0:0:0:
228,40,207259,1,0,0:0:0:0:
136,75,207431,1,0,0:0:0:0:
108,161,207602,1,0,0:0:0:0:
145,237,207774,1,0,0:0:0:0:
221,255,207945,1,0,0:0:0:0:
284,216,208117,1,0,0:0:0:0:
320,156,208288,6,0,P|272:100|166:217,1,279.999991455078
335,282,209317,1,0,0:0:0:0:
372,101,209659,5,4,0:0:0:0:
368,332,209831,1,4,0:0:0:0:
372,101,210002,1,4,0:0:0:0:
156,100,210345,1,0,0:0:0:0:
156,100,210688,1,0,0:0:0:0:
156,100,210817,2,0,L|128:137,2,34.9999989318848
300,170,211374,2,0,L|300:246,1,69.9999978637696
422,63,211888,1,0,0:0:0:0:
422,63,212059,2,0,L|454:52,6,17.4999994659424
392,79,212402,6,0,L|370:57|359:46|219:35,1,120
392,79,212745,6,0,L|377:64|346:66|254:100,1,134.999995880127
392,79,213088,6,0,L|384:71|347:79|286:178,1,150
392,79,213431,6,0,L|364:237,1,139.999995727539
219,333,213774,5,4,0:0:0:0:
54,247,213945,2,0,P|63:194|108:166,1,110.000003356934
289,223,214288,1,0,0:0:0:0:
262,275,214374,1,0,0:0:0:0:
234,323,214460,2,0,P|180:353|126:347,1,110.000003356934
108,165,214802,2,0,P|161:134|215:140,1,110.000003356934
269,315,215145,5,0,0:0:0:0:
447,263,215316,2,0,P|472:215|454:165,1,110.000003356934
319,35,215659,1,0,0:0:0:0:
265,45,215745,1,0,0:0:0:0:
214,66,215831,2,0,P|165:101|147:153,1,110.000003356934
227,316,216173,2,0,P|274:285|279:225,1,110.000003356934
414,100,216517,6,0,L|309:67,1,110.000003356934
123,93,216860,2,0,L|231:67,1,110.000003356934
269,111,217117,1,0,0:0:0:0:
317,143,217202,2,0,L|343:249,1,110.000003356934
164,313,217545,2,0,L|139:205,1,110.000003356934
126,152,217802,1,0,0:0:0:0:
119,97,217888,5,0,0:0:0:0:
303,49,218059,2,0,P|349:80|346:140,1,110.000003356934
277,303,218402,1,2,0:0:0:0:
223,291,218488,1,2,0:0:0:0:
170,277,218574,2,2,P|122:253|96:205,1,110.000003356934
169,31,218917,1,0,0:0:0:0:
224,31,219002,1,0,0:0:0:0:
279,31,219088,1,0,0:0:0:0:
334,31,219174,1,0,0:0:0:0:
389,30,219259,6,0,P|429:67|444:119,1,110.000003356934
260,163,219602,2,0,P|249:217|268:267,1,110.000003356934
316,294,219859,1,0,0:0:0:0:
364,265,219945,2,0,P|384:214|372:161,1,110.000003356934
218,49,220288,2,0,P|166:58|137:103,1,110.000003356934
230,266,220631,6,0,P|283:256|312:211,1,110.000003356934
218,49,220974,2,0,P|164:38|110:55,1,110.000003356934
60,74,221231,1,0,0:0:0:0:
18,111,221317,2,0,P|7:165|26:215,1,110.000003356934
133,371,221659,2,0,L|268:371,1,110.000003356934
421,308,222002,5,0,0:0:0:0:
421,253,222088,1,0,0:0:0:0:
421,198,222174,2,0,L|421:143,1,55.0000016784668
287,109,222345,1,0,0:0:0:0:
287,164,222431,1,0,0:0:0:0:
287,219,222517,2,0,L|287:274,1,55.0000016784668
152,305,222688,1,0,0:0:0:0:
152,250,222774,1,0,0:0:0:0:
152,195,222860,2,0,L|152:140,1,55.0000016784668
16,115,223031,1,0,0:0:0:0:
16,170,223117,1,0,0:0:0:0:
16,225,223203,2,0,L|16:280,1,55.0000016784668
66,332,223374,6,0,B|151:348|188:321|188:321|165:272|194:243,1,209.999993591309
222,175,223717,2,0,B|248:148|225:99|225:99|262:72|279:85,1,139.999995727539
350,88,223974,1,0,0:0:0:0:
420,88,224059,2,0,B|448:116|497:93|497:93|524:130|509:216,1,209.999993591309
487,285,224402,1,0,0:0:0:0:
420,303,224488,1,0,0:0:0:0:
356,278,224574,1,0,0:0:0:0:
320,219,224659,1,0,0:0:0:0:
312,149,224745,6,0,L|202:149,1,110.000003356934,4|0,0:0|0:0,0:0:0:0:
391,149,225088,1,0,0:0:0:0:
246,29,225260,2,0,L|85:62,1,165.000005035401
68,156,225602,2,2,P|142:195|193:131,1,160
360,67,225945,1,0,0:0:0:0:
453,232,226117,6,0,L|453:370,1,110.000003356934,4|0,0:0|0:0,0:0:0:0:
453,154,226460,1,0,0:0:0:0:
265,151,226631,2,0,L|243:314,1,165.000005035401
147,303,226974,2,2,P|115:234|165:177,1,160
342,247,227317,1,0,0:0:0:0:
155,247,227488,6,2,P|59:200|35:96,1,220.000006713867
407,137,228174,2,2,P|361:232|257:256,1,220.000006713867
202,245,228602,1,0,0:0:0:0:
149,234,228687,1,0,0:0:0:0:
95,223,228773,1,0,0:0:0:0:
40,210,228860,5,4,0:0:0:0:
416,210,229202,1,4,0:0:0:0:
40,210,229545,1,4,0:0:0:0:
362,184,229760,1,4,0:0:0:0:
14,31,230017,1,4,0:0:0:0:
221,165,230231,6,0,P|260:127|275:75,1,110.000003356934
406,208,230573,2,0,P|397:142|432:87,1,110.000003356934
364,80,230831,1,0,0:0:0:0:
312,61,230916,2,0,P|261:41|208:53,1,110.000003356934
236,238,231259,2,0,P|288:228|317:183,1,110.000003356934
502,146,231602,6,0,P|492:198|447:227,1,110.000003356934
280,308,231945,2,0,P|289:255|334:226,1,110.000003356934
390,224,232202,1,0,0:0:0:0:
446,227,232288,2,0,P|457:280|438:331,1,110.000003356934
253,308,232630,2,0,P|202:269|201:218,1,110.000003356934
350,113,232974,6,0,P|395:141|404:194,1,110.000003356934
230,266,233316,2,0,P|179:285|126:274,1,110.000003356934
76,250,233574,1,0,0:0:0:0:
38,210,233659,2,0,P|19:159|30:106,1,110.000003356934
229,107,234002,2,0,P|257:153|241:204,1,110.000003356934
210,251,234260,1,0,0:0:0:0:
175,296,234345,5,0,0:0:0:0:
98,49,234517,1,0,0:0:0:0:
314,182,234688,1,0,0:0:0:0:
76,269,234859,1,0,0:0:0:0:
205,50,235031,1,0,0:0:0:0:
264,298,235202,1,0,0:0:0:0:
101,101,235374,1,0,0:0:0:0:
318,232,235545,1,0,0:0:0:0:
64,203,235717,5,4,0:0:0:0:
213,203,236402,1,4,0:0:0:0:
332,269,237088,5,0,0:0:0:0:
127,51,237260,1,0,0:0:0:0:
236,326,237431,5,0,0:0:0:0:
259,31,237602,1,0,0:0:0:0:
108,289,237774,5,0,0:0:0:0:
342,105,237945,1,0,0:0:0:0:
47,170,238117,5,0,0:0:0:0:
339,230,238288,1,0,0:0:0:0:
189,321,238459,6,2,B|138:344|76:353|119:266|119:266|50:256|23:238|4:218,1,240
32,161,238802,2,2,B|21:164|48:145|117:135|117:135|74:48|136:57|187:81,1,240
257,111,239145,2,2,B|253:100|272:127|282:196|282:196|369:153|360:215|336:266,1,240
281,319,239488,2,2,B|234:340|172:349|215:262|215:262|146:252|119:234|130:237,1,240
129,236,239831,5,4,0:0:0:0:
423,205,240860,2,2,L|436:227,6,14.9999995422363
372,197,241202,5,8,0:0:0:0:
138,35,241374,1,8,0:0:0:0:
101,317,241545,1,8,0:0:0:0:
269,133,241888,1,8,0:0:0:0:
443,356,242060,1,8,0:0:0:0:
26,145,242574,6,2,B|116:159|67:239|194:237,1,200,6|2,0:0|0:0,0:0:0:0:
337,169,243602,1,0,0:0:0:0:
235,127,243945,6,2,L|221:246,1,119.999996337891,6|2,0:0|0:0,0:0:0:0:
431,127,244631,2,2,L|445:246,1,119.999996337891,6|2,0:0|0:0,0:0:0:0:
212,310,245317,6,0,L|153:324,2,59.9999981689454
324,262,245831,1,0,0:0:0:0:
435,217,246002,2,0,L|492:201,2,59.9999981689454
317,171,246517,1,0,0:0:0:0:
214,101,246688,5,0,0:0:0:0:
190,82,246773,1,0,0:0:0:0:
167,63,246859,1,0,0:0:0:0:
144,44,246945,1,0,0:0:0:0:
128,42,247030,1,0,0:0:0:0:
128,72,247116,1,0,0:0:0:0:
128,102,247202,1,0,0:0:0:0:
128,132,247288,1,0,0:0:0:0:
128,162,247373,1,0,0:0:0:0:
128,192,247459,1,0,0:0:0:0:
128,222,247545,1,0,0:0:0:0:
104,237,247630,1,0,0:0:0:0:
74,236,247716,1,0,0:0:0:0:
48,222,247802,1,0,0:0:0:0:
42,194,247888,1,0,0:0:0:0:
58,169,247973,1,0,0:0:0:0:
89,144,248059,6,0,L|191:159,1,100
409,144,248402,2,0,L|310:158,1,100
183,338,248745,2,0,L|81:353,1,100
284,336,249088,2,0,L|386:351,1,100
433,357,249345,1,0,0:0:0:0:
483,363,249431,5,0,0:0:0:0:
512,199,249602,1,0,0:0:0:0:
452,46,249774,1,0,0:0:0:0:
294,94,249945,2,0,L|257:61,2,50
244,103,250202,1,0,0:0:0:0:
205,133,250287,1,0,0:0:0:0:
186,179,250373,1,0,0:0:0:0:
191,228,250459,1,0,0:0:0:0:
219,269,250544,1,0,0:0:0:0:
263,291,250630,1,0,0:0:0:0:
312,289,250716,1,0,0:0:0:0:
353,289,250802,6,0,L|423:289,1,59.9999981689454
430,164,251145,1,0,0:0:0:0:
430,164,251317,1,0,0:0:0:0:
301,164,251488,2,0,L|237:164,1,59.9999981689454
163,280,251831,1,0,0:0:0:0:
163,280,252003,1,0,0:0:0:0:
303,334,252174,6,0,L|320:226,1,100
113,335,252859,2,0,L|101:236,1,100
342,235,253545,5,0,0:0:0:0:
367,203,253630,1,0,0:0:0:0:
398,178,253716,1,0,0:0:0:0:
429,153,253802,1,0,0:0:0:0:
453,121,253887,1,0,0:0:0:0:
456,82,253973,1,0,0:0:0:0:
435,49,254059,1,0,0:0:0:0:
399,32,254145,1,0,0:0:0:0:
362,44,254230,1,0,0:0:0:0:
329,51,254316,1,0,0:0:0:0:
295,31,254402,1,0,0:0:0:0:
257,41,254487,1,0,0:0:0:0:
232,72,254573,1,0,0:0:0:0:
227,111,254659,1,0,0:0:0:0:
242,148,254745,1,0,0:0:0:0:
269,177,254830,1,0,0:0:0:0:
299,203,254916,5,0,0:0:0:0:
106,203,255945,2,2,L|93:222,6,14.9999995422363
142,165,256288,5,4,0:0:0:0:
471,242,256459,1,4,0:0:0:0:
98,314,256631,1,4,0:0:0:0:
446,33,256802,1,4,0:0:0:0:
256,192,256888,12,0,261774,0:0:0:0:
