osu file format v14

[General]
AudioFilename: audio.mp3
AudioLeadIn: 0
PreviewTime: 62009
Countdown: 0
SampleSet: Drum
StackLeniency: 0.7
Mode: 3
LetterboxInBreaks: 0
SpecialStyle: 0
WidescreenStoryboard: 1

[Editor]
DistanceSpacing: 0.7
BeatDivisor: 4
GridSize: 4
TimelineZoom: 1.1

[Metadata]
Title:Tomadoi Recipe (TV Size)
TitleUnicode:とまどい→レシピ (TV Size)
Artist:Mikakuning!
ArtistUnicode:みかくにんぐッ!
Creator:Feerum
Version:7K Normal
Source:未確認で進行形
Tags:Engaged To The Unidentified Anime Japanese op pop jpop j-pop opening mikakunin de shinkoukei junky terui haruka matsui eriko yoshida yuuri 照井春佳 松井恵理子 吉田有里 夜ノ森 小紅 紅緒 三峰 真白 白夜 Kobeni Benio Yonomori Mashiro Hakuya Mitsumine
BeatmapID:2299467
BeatmapSetID:702775

[Difficulty]
HPDrainRate:7.5
CircleSize:7
OverallDifficulty:7
ApproachRate:10
SliderMultiplier:1.4
SliderTickRate:1

[Events]
//Background and Video events
0,0,"BG_Normal.jpg",0,0
Video,465,"video.mp4"
//Break Periods
//Storyboard Layer 0 (Background)
//Storyboard Layer 1 (Fail)
//Storyboard Layer 2 (Pass)
//Storyboard Layer 3 (Foreground)
//Storyboard Layer 4 (Overlay)
//Storyboard Sound Samples

[TimingPoints]
1120,352.941176470588,4,3,1,70,1,0
63237,-100,4,3,1,70,0,1
85825,-100,4,3,1,70,0,0

[HitObjects]
182,192,1120,5,0,0:0:0:0:
182,192,1472,1,0,0:0:0:0:
402,192,1825,1,0,0:0:0:0:
36,192,2002,1,0,0:0:0:0:
182,192,2178,1,0,0:0:0:0:
329,192,2355,1,0,0:0:0:0:
329,192,2708,1,0,0:0:0:0:
256,192,3061,1,0,0:0:0:0:
109,192,3237,128,2,3414:2:0:0:0:
402,192,3414,128,2,3590:2:0:0:0:
109,192,3590,128,2,3767:2:0:0:0:
402,192,3767,128,2,3943:2:0:0:0:
182,192,3943,1,0,0:0:0:0:
182,192,4296,1,0,0:0:0:0:
329,192,4649,1,0,0:0:0:0:
109,192,4825,1,0,0:0:0:0:
256,192,5002,1,0,0:0:0:0:
402,192,5178,1,0,0:0:0:0:
402,192,5531,1,0,0:0:0:0:
109,192,5884,1,0,0:0:0:0:
329,192,6061,128,2,6237:2:0:0:0:
182,192,6237,128,2,6414:2:0:0:0:
329,192,6414,128,2,6590:2:0:0:0:
182,192,6590,128,2,6767:2:0:0:0:
402,192,6767,1,0,0:0:0:0:
402,192,7119,1,0,0:0:0:0:
36,192,7472,1,0,0:0:0:0:
256,192,7649,1,0,0:0:0:0:
475,192,7825,1,0,0:0:0:0:
182,192,8002,1,0,0:0:0:0:
182,192,8355,1,0,0:0:0:0:
475,192,8708,1,0,0:0:0:0:
182,192,8884,128,2,9061:2:0:0:0:
329,192,9061,128,2,9237:2:0:0:0:
182,192,9237,128,2,9414:2:0:0:0:
329,192,9414,128,2,9590:2:0:0:0:
109,192,9590,1,0,0:0:0:0:
109,192,9943,1,0,0:0:0:0:
402,192,10296,1,0,0:0:0:0:
182,192,10472,1,0,0:0:0:0:
475,192,10649,1,0,0:0:0:0:
329,192,10825,1,0,0:0:0:0:
329,192,11178,1,0,0:0:0:0:
256,192,11531,1,0,0:0:0:0:
402,192,11708,128,2,11884:2:0:0:0:
109,192,11884,128,2,12061:2:0:0:0:
402,192,12061,128,2,12237:2:0:0:0:
109,192,12237,128,2,12414:2:0:0:0:
329,192,12414,1,2,0:0:0:0:
475,192,12414,1,4,0:0:0:0:
182,192,12414,1,0,0:0:0:0:
402,192,12767,1,8,0:0:0:0:
109,192,12767,1,0,0:0:0:0:
329,192,13119,1,2,0:0:0:0:
256,192,13472,1,8,0:0:0:0:
475,192,13472,1,0,0:0:0:0:
36,192,13825,1,2,0:0:0:0:
182,192,14178,1,0,0:0:0:0:
329,192,14178,1,8,0:0:0:0:
402,192,14355,1,0,0:0:0:0:
109,192,14531,128,2,14708:2:0:0:0:
329,192,14708,128,2,14884:2:0:0:0:
109,192,14884,128,2,15061:2:0:0:0:
329,192,15061,128,2,15237:2:0:0:0:
182,192,15237,1,2,0:0:0:0:
402,192,15590,1,8,0:0:0:0:
36,192,15590,1,0,0:0:0:0:
256,192,15943,1,2,0:0:0:0:
475,192,16296,1,8,0:0:0:0:
109,192,16296,1,0,0:0:0:0:
182,192,16649,1,2,0:0:0:0:
402,192,16649,1,4,0:0:0:0:
36,192,16825,1,8,0:0:0:0:
475,192,17002,1,2,0:0:0:0:
329,192,17178,1,8,0:0:0:0:
182,192,17355,1,8,0:0:0:0:
36,192,17355,1,0,0:0:0:0:
256,192,17531,1,2,0:0:0:0:
475,192,17708,1,8,0:0:0:0:
329,192,17708,1,0,0:0:0:0:
109,192,17884,1,0,0:0:0:0:
256,192,18061,1,4,0:0:0:0:
36,192,18061,1,0,0:0:0:0:
402,192,18061,1,2,0:0:0:0:
402,192,18414,1,8,0:0:0:0:
182,192,18414,1,0,0:0:0:0:
475,192,18767,1,2,0:0:0:0:
402,192,19119,1,0,0:0:0:0:
256,192,19119,1,8,0:0:0:0:
109,192,19472,1,2,0:0:0:0:
36,192,19825,1,0,0:0:0:0:
329,192,19825,1,8,0:0:0:0:
402,192,20178,128,2,20355:2:0:0:0:
182,192,20355,128,2,20531:2:0:0:0:
402,192,20531,128,2,20708:2:0:0:0:
182,192,20708,128,2,20884:2:0:0:0:
329,192,20884,1,6,0:0:0:0:
329,192,21061,1,2,0:0:0:0:
109,192,21237,1,8,0:0:0:0:
36,192,21237,1,0,0:0:0:0:
109,192,21414,1,8,0:0:0:0:
36,192,21414,1,0,0:0:0:0:
329,192,21590,1,2,0:0:0:0:
329,192,21767,1,2,0:0:0:0:
109,192,21943,1,8,0:0:0:0:
36,192,21943,1,0,0:0:0:0:
329,192,22119,1,2,0:0:0:0:
329,192,22296,1,2,0:0:0:0:
329,192,22472,1,2,0:0:0:0:
109,192,22649,1,8,0:0:0:0:
36,192,22649,1,0,0:0:0:0:
329,192,22825,1,2,0:0:0:0:
109,192,23002,1,8,0:0:0:0:
36,192,23002,1,0,0:0:0:0:
256,192,23178,1,0,0:0:0:70:HatHat.ogg
475,192,23708,1,2,0:0:0:0:
402,192,23708,1,4,0:0:0:0:
182,192,23708,1,0,0:0:0:0:
329,192,24061,1,0,0:0:0:0:
109,192,24414,1,0,0:0:0:0:
402,192,24767,1,2,0:0:0:0:
182,192,24943,1,0,0:0:0:0:
109,192,25296,1,0,0:0:0:0:
329,192,25472,1,2,0:0:0:0:
256,192,25825,1,0,0:0:0:0:
402,192,26178,1,2,0:0:0:0:
36,192,26355,1,0,0:0:0:0:
475,192,26531,1,0,0:0:0:0:
182,192,26884,1,2,0:0:0:0:
402,192,27061,1,0,0:0:0:0:
109,192,27414,1,0,0:0:0:0:
256,192,27590,1,2,0:0:0:0:
402,192,27767,1,0,0:0:0:0:
182,192,27943,1,0,0:0:0:0:
329,192,28296,1,2,0:0:0:0:
109,192,28649,1,8,0:0:0:0:
475,192,28649,1,0,0:0:0:0:
256,192,28825,1,2,0:0:0:0:
402,192,29002,1,8,0:0:0:0:
329,192,29002,1,0,0:0:0:0:
182,192,29178,1,4,0:0:0:0:
109,192,29178,1,2,0:0:0:0:
256,192,29531,1,0,0:0:0:0:
402,192,29708,1,8,0:0:0:0:
36,192,29708,1,0,0:0:0:0:
475,192,30061,1,2,0:0:0:0:
109,192,30414,1,8,0:0:0:0:
329,192,30414,1,0,0:0:0:0:
182,192,30767,1,2,0:0:0:0:
256,192,31119,1,8,0:0:0:0:
475,192,31119,1,0,0:0:0:0:
402,192,31472,1,2,0:0:0:0:
329,192,31825,1,0,0:0:0:0:
36,192,31825,1,8,0:0:0:0:
182,192,32178,1,2,0:0:0:0:
475,192,32178,1,4,0:0:0:0:
109,192,32178,1,0,0:0:0:0:
402,192,32531,1,0,0:0:0:0:
256,192,32531,1,8,0:0:0:0:
36,192,32884,1,2,0:0:0:0:
329,192,33237,1,0,0:0:0:0:
182,192,33237,1,8,0:0:0:0:
402,192,33414,1,2,0:0:0:0:
109,192,33414,1,0,0:0:0:0:
36,192,33767,1,2,2:0:0:0:
182,192,33943,1,2,2:0:0:0:
329,192,34119,1,2,2:0:0:0:
256,192,34296,1,2,2:0:0:0:
402,192,34472,1,2,2:0:0:0:
182,192,34649,128,2,35002:0:0:0:0:
109,192,34649,128,0,35002:0:0:0:0:
329,192,35002,1,4,0:0:0:0:
402,192,35002,1,2,0:0:0:0:
475,192,35002,1,0,0:0:0:0:
256,192,35355,1,8,0:0:0:0:
36,192,35355,1,0,0:0:0:0:
182,192,35708,1,2,0:0:0:0:
402,192,36061,1,8,0:0:0:0:
329,192,36061,1,0,0:0:0:0:
109,192,36414,1,2,0:0:0:0:
182,192,36767,1,8,0:0:0:0:
475,192,36767,1,0,0:0:0:0:
329,192,37119,1,2,0:0:0:0:
109,192,37296,1,0,0:0:0:0:
256,192,37472,1,8,0:0:0:0:
402,192,37472,1,0,0:0:0:0:
182,192,37649,1,0,0:0:0:0:
36,192,37825,1,2,0:0:0:0:
475,192,38178,1,8,0:0:0:0:
109,192,38178,1,0,0:0:0:0:
329,192,38531,1,2,0:0:0:0:
182,192,38708,1,8,0:0:0:0:
109,192,38708,1,0,0:0:0:0:
402,192,38884,1,8,0:0:0:0:
36,192,38884,1,0,0:0:0:0:
256,192,39061,1,6,0:0:0:0:
109,192,39237,1,0,0:0:0:0:
329,192,39414,1,8,0:0:0:0:
475,192,39414,1,0,0:0:0:0:
256,192,39767,1,6,0:0:0:0:
182,192,39943,1,8,0:0:0:0:
36,192,39943,1,0,0:0:0:0:
402,192,40119,1,2,0:0:0:0:
182,192,40296,1,8,0:0:0:0:
36,192,40296,1,0,0:0:0:0:
329,192,40472,1,2,0:0:0:0:
475,192,40472,1,4,0:0:0:0:
109,192,40472,1,0,0:0:0:0:
256,192,40825,1,2,0:0:0:0:
402,192,41002,1,8,0:0:0:0:
182,192,41002,1,0,0:0:0:0:
329,192,41355,1,2,0:0:0:0:
109,192,41708,1,0,0:0:0:0:
256,192,41708,1,2,0:0:0:0:
402,192,42061,1,2,0:0:0:0:
182,192,42237,1,0,0:0:0:0:
329,192,42414,1,2,0:0:0:0:
109,192,42590,1,8,0:0:0:0:
36,192,42590,1,0,0:0:0:0:
475,192,42943,1,0,0:0:0:0:
402,192,42943,1,8,0:0:0:0:
182,192,43296,1,0,0:0:0:0:
109,192,43296,1,8,0:0:0:0:
256,192,43472,1,2,0:0:0:0:
402,192,43472,1,4,0:0:0:0:
475,192,43472,1,0,0:0:0:0:
329,192,43825,1,8,0:0:0:0:
36,192,43825,1,0,0:0:0:0:
182,192,44178,1,8,0:0:0:0:
402,192,44178,1,0,0:0:0:0:
256,192,44531,1,0,0:0:0:0:
329,192,44531,1,8,0:0:0:0:
109,192,44708,1,2,0:0:0:0:
402,192,44884,1,8,0:0:0:0:
182,192,44884,1,0,0:0:0:0:
256,192,45061,1,2,0:0:0:0:
329,192,45237,1,2,0:0:0:0:
182,192,45414,1,2,0:0:0:0:
109,192,45590,1,2,0:0:0:0:
36,192,45767,1,2,0:0:0:0:
256,192,45943,1,8,0:0:0:0:
475,192,45943,1,0,0:0:0:0:
402,192,46296,1,0,0:0:0:0:
329,192,46296,1,4,0:0:0:0:
109,192,46296,1,2,0:0:0:0:
182,192,46472,1,0,0:0:0:0:
402,192,46649,1,0,0:0:0:0:
109,192,47002,1,0,0:0:0:0:
329,192,47178,1,0,0:0:0:0:
109,192,47355,1,0,0:0:0:0:
402,192,47708,1,0,0:0:0:0:
182,192,47884,1,0,0:0:0:0:
402,192,48061,1,0,0:0:0:0:
109,192,48414,1,0,0:0:0:0:
256,192,48590,1,2,0:0:0:0:
182,192,48767,1,0,0:0:0:0:
329,192,48943,1,2,0:0:0:0:
402,192,49119,1,2,0:0:0:0:
109,192,49296,1,0,0:0:0:0:
402,192,49472,1,0,0:0:0:0:
182,192,49825,1,0,0:0:0:0:
329,192,50002,1,0,0:0:0:0:
182,192,50178,1,0,0:0:0:0:
402,192,50531,1,0,0:0:0:0:
109,192,50708,1,0,0:0:0:0:
402,192,50884,1,0,0:0:0:0:
475,192,51237,1,8,0:0:0:0:
329,192,51414,1,2,0:0:0:0:
182,192,51590,1,0,0:0:0:0:
36,192,51767,1,2,0:0:0:0:
402,192,51943,1,4,0:0:0:0:
256,192,51943,1,2,0:0:0:0:
475,192,51943,1,0,0:0:0:0:
109,192,52119,1,0,0:0:0:0:
329,192,52296,1,0,0:0:0:0:
182,192,52472,1,0,0:0:0:0:
402,192,52649,1,0,0:0:0:0:
256,192,52825,1,0,0:0:0:0:
475,192,53002,1,0,0:0:0:0:
329,192,53178,1,0,0:0:0:0:
36,192,53355,1,0,0:0:0:0:
256,192,53531,1,0,0:0:0:0:
109,192,53708,1,0,0:0:0:0:
329,192,53884,1,8,0:0:0:0:
182,192,54061,1,2,0:0:0:0:
402,192,54237,1,8,0:0:0:0:
256,192,54414,1,2,0:0:0:0:
475,192,54590,1,2,0:0:0:0:
329,192,54767,128,2,55119:0:0:0:0:
182,192,54767,1,0,0:0:0:0:
109,192,55119,128,0,55472:0:0:0:0:
256,192,55472,128,2,55825:0:0:0:0:
402,192,55825,128,0,56178:0:0:0:0:
182,192,56178,128,2,56531:0:0:0:0:
329,192,56531,1,8,0:0:0:0:
109,192,56708,1,2,0:0:0:0:
256,192,56884,1,2,0:0:0:0:
402,192,57061,1,2,0:0:0:0:
182,192,57237,1,8,0:0:0:0:
36,192,57414,1,0,0:0:0:0:
329,192,57590,128,0,57943:0:0:0:0:
109,192,57590,1,2,0:0:0:0:
475,192,57590,1,4,0:0:0:0:
256,192,57943,1,2,0:0:0:0:
36,192,58119,1,0,0:0:0:0:
182,192,58296,128,2,58649:0:0:0:0:
402,192,58649,1,2,0:0:0:0:
109,192,58825,1,0,0:0:0:0:
329,192,59002,128,2,59531:0:0:0:0:
256,192,59531,128,0,60061:0:0:0:0:
109,192,60061,128,8,60414:0:0:0:0:
329,192,60414,1,4,0:0:0:0:
475,192,60414,1,2,0:0:0:0:
182,192,60590,1,8,0:0:0:0:
402,192,60767,1,2,0:0:0:0:
109,192,60943,1,8,0:0:0:0:
329,192,61119,1,2,0:0:0:0:
182,192,61296,1,8,0:0:0:0:
402,192,61472,1,8,0:0:0:0:
109,192,61649,1,8,0:0:0:0:
475,192,61825,1,4,0:0:0:0:
256,192,61825,1,2,0:0:0:0:
329,192,62178,128,0,62531:0:0:0:0:
109,192,62531,128,0,62884:0:0:0:0:
256,192,62884,1,8,0:0:0:0:
402,192,62884,1,0,0:0:0:0:
329,192,63237,1,4,0:0:0:0:
182,192,63237,1,2,0:0:0:0:
36,192,63237,1,0,0:0:0:0:
475,192,63414,1,0,0:0:0:0:
109,192,63590,1,0,0:0:0:0:
256,192,63590,1,8,0:0:0:0:
402,192,63767,1,0,0:0:0:0:
182,192,63943,1,2,0:0:0:0:
329,192,64119,1,0,0:0:0:0:
36,192,64296,1,0,0:0:0:0:
475,192,64296,1,8,0:0:0:0:
182,192,64472,1,0,0:0:0:0:
329,192,64649,1,2,0:0:0:0:
109,192,64825,1,0,0:0:0:0:
256,192,65002,1,8,0:0:0:0:
402,192,65002,1,0,0:0:0:0:
36,192,65178,1,0,0:0:0:0:
329,192,65355,1,2,0:0:0:0:
109,192,65531,1,0,0:0:0:0:
475,192,65708,1,0,0:0:0:0:
182,192,65708,1,8,0:0:0:0:
402,192,66061,1,2,0:0:0:0:
256,192,66237,1,0,0:0:0:0:
329,192,66414,1,8,0:0:0:0:
109,192,66414,1,0,0:0:0:0:
182,192,66590,1,0,0:0:0:0:
256,192,66767,1,2,0:0:0:0:
402,192,66943,1,0,0:0:0:0:
329,192,67119,1,8,0:0:0:0:
36,192,67119,1,0,0:0:0:0:
475,192,67296,1,0,0:0:0:0:
109,192,67472,1,2,0:0:0:0:
182,192,67472,1,4,0:0:0:0:
402,192,67825,1,0,0:0:0:0:
329,192,67825,1,8,0:0:0:0:
256,192,68002,1,0,0:0:0:0:
36,192,68002,1,2,0:0:0:0:
182,192,68355,1,2,0:0:0:0:
109,192,68355,1,0,0:0:0:0:
402,192,68531,1,8,0:0:0:0:
329,192,68708,1,0,0:0:0:0:
256,192,68708,1,0,0:0:0:0:
475,192,68884,1,4,0:0:0:0:
36,192,68884,1,0,0:0:0:0:
109,192,68884,1,2,0:0:0:0:
402,192,69061,1,0,0:0:0:0:
182,192,69237,1,0,0:0:0:0:
329,192,69237,1,8,0:0:0:0:
36,192,69414,1,0,0:0:0:0:
402,192,69590,1,2,0:0:0:0:
109,192,69767,1,0,0:0:0:0:
329,192,69943,1,0,0:0:0:0:
256,192,69943,1,8,0:0:0:0:
475,192,70119,1,0,0:0:0:0:
182,192,70296,1,2,0:0:0:0:
402,192,70472,1,0,0:0:0:0:
329,192,70649,1,8,0:0:0:0:
36,192,70649,1,0,0:0:0:0:
256,192,70825,1,0,0:0:0:0:
109,192,71002,1,2,0:0:0:0:
182,192,71178,1,0,0:0:0:0:
475,192,71355,1,0,0:0:0:0:
329,192,71355,1,8,0:0:0:0:
36,192,71531,1,0,0:0:0:0:
256,192,71708,128,0,72061:0:0:0:0:
109,192,71708,1,2,0:0:0:0:
402,192,72061,128,0,72414:0:0:0:0:
475,192,72061,1,8,0:0:0:0:
109,192,72414,128,0,72767:0:0:0:0:
182,192,72414,1,2,0:0:0:0:
329,192,72767,1,0,0:0:0:0:
402,192,72767,1,2,0:0:0:0:
256,192,72943,1,8,0:0:0:0:
475,192,72943,1,0,0:0:0:0:
182,192,73119,1,2,0:0:0:0:
109,192,73472,1,0,0:0:0:0:
402,192,73472,1,2,0:0:0:0:
182,192,73649,1,0,0:0:0:0:
329,192,73649,1,0,0:0:0:0:
36,192,73825,1,2,0:0:0:0:
402,192,74002,1,8,0:0:0:0:
182,192,74178,1,8,0:0:0:0:
109,192,74178,1,0,0:0:0:0:
256,192,74355,1,8,0:0:0:0:
402,192,74531,1,2,0:0:0:0:
475,192,74531,1,4,0:0:0:0:
36,192,74531,1,0,0:0:0:0:
329,192,74708,1,0,0:0:0:0:
182,192,74884,1,8,0:0:0:0:
475,192,74884,1,0,0:0:0:0:
109,192,75061,1,0,0:0:0:0:
256,192,75237,1,2,0:0:0:0:
402,192,75414,1,0,0:0:0:0:
329,192,75590,1,8,0:0:0:0:
182,192,75590,1,0,0:0:0:0:
36,192,75767,1,0,0:0:0:0:
256,192,75943,1,2,0:0:0:0:
475,192,76119,1,0,0:0:0:0:
109,192,76296,1,0,0:0:0:0:
329,192,76296,1,8,0:0:0:0:
402,192,76472,1,0,0:0:0:0:
182,192,76649,1,2,0:0:0:0:
329,192,76825,1,0,0:0:0:0:
36,192,77002,1,0,0:0:0:0:
256,192,77002,1,8,0:0:0:0:
402,192,77355,1,2,0:0:0:0:
109,192,77355,1,4,0:0:0:0:
329,192,77531,1,0,0:0:0:0:
182,192,77708,1,0,0:0:0:0:
475,192,77708,1,8,0:0:0:0:
36,192,77884,1,0,0:0:0:0:
329,192,78061,1,2,0:0:0:0:
109,192,78237,1,0,0:0:0:0:
256,192,78414,1,8,0:0:0:0:
475,192,78414,1,0,0:0:0:0:
182,192,78590,1,0,0:0:0:0:
329,192,78767,1,4,0:0:0:0:
402,192,78767,1,8,0:0:0:0:
329,192,79119,1,2,0:0:0:0:
402,192,79119,1,0,0:0:0:0:
182,192,79296,1,2,0:0:0:0:
109,192,79296,1,0,0:0:0:0:
36,192,79649,1,0,0:0:0:0:
256,192,79649,1,2,0:0:0:0:
402,192,79825,1,8,0:0:0:0:
182,192,80002,1,0,0:0:0:0:
109,192,80002,1,0,0:0:0:0:
329,192,80178,1,2,0:0:0:0:
475,192,80178,1,4,0:0:0:0:
36,192,80355,1,0,0:0:0:0:
256,192,80531,1,8,0:0:0:0:
402,192,80531,1,0,0:0:0:0:
109,192,80708,1,0,0:0:0:0:
329,192,80884,1,2,0:0:0:0:
182,192,81061,1,0,0:0:0:0:
36,192,81237,1,8,0:0:0:0:
475,192,81237,1,0,0:0:0:0:
256,192,81414,1,0,0:0:0:0:
402,192,81590,1,2,0:0:0:0:
109,192,81767,1,0,0:0:0:0:
329,192,81943,1,0,0:0:0:0:
182,192,81943,1,8,0:0:0:0:
475,192,82119,1,0,0:0:0:0:
256,192,82296,1,8,0:0:0:0:
36,192,82296,1,0,0:0:0:0:
402,192,82472,1,2,0:0:0:0:
109,192,82649,1,8,0:0:0:0:
182,192,82649,1,0,0:0:0:0:
329,192,82825,1,2,0:0:0:0:
36,192,83002,1,0,0:0:0:0:
256,192,83002,1,8,0:0:0:0:
109,192,83355,1,0,0:0:0:0:
329,192,83355,1,8,0:0:0:0:
182,192,83708,1,0,0:0:0:0:
402,192,83708,1,8,0:0:0:0:
256,192,84061,1,0,0:0:0:0:
475,192,84061,1,8,0:0:0:0:
329,192,84237,1,8,0:0:0:0:
182,192,84414,1,4,0:0:0:0:
109,192,84414,1,8,0:0:0:0:
402,192,84767,1,0,0:0:0:0:
329,192,84767,1,2,0:0:0:0:
256,192,84943,1,8,0:0:0:0:
182,192,85119,1,0,0:0:0:0:
109,192,85119,1,0,0:0:0:0:
256,192,85472,1,0,0:0:0:0:
475,192,85472,1,0,0:0:0:0:
402,192,85825,1,4,0:0:0:0:
329,192,85825,1,8,0:0:0:0:
36,192,85825,1,0,0:0:0:0:
402,192,86178,1,2,0:0:0:0:
182,192,86531,1,2,0:0:0:0:
329,192,86708,1,2,0:0:0:0:
182,192,87061,1,8,0:0:0:0:
36,192,87061,1,0,0:0:0:0:
329,192,87414,1,8,0:0:0:0:
475,192,87414,1,0,0:0:0:0:
182,192,87767,1,0,0:0:0:0:
36,192,87767,1,8,0:0:0:0:
402,192,87943,128,2,88119:2:0:0:0:
109,192,88119,128,2,88296:2:0:0:0:
402,192,88296,128,2,88472:2:0:0:0:
109,192,88472,128,2,88649:2:0:0:0:
329,192,88649,1,4,0:0:0:0:
475,192,88649,1,2,0:0:0:0:
