osu file format v14

[General]
AudioFilename: audio.mp3
AudioLeadIn: 0
PreviewTime: 2646
Countdown: 1
SampleSet: Normal
StackLeniency: 0.7
Mode: 0
LetterboxInBreaks: 0
WidescreenStoryboard: 1

[Editor]
DistanceSpacing: 1.6
BeatDivisor: 4
GridSize: 8
TimelineZoom: 2.12

[Metadata]
Title:Masshiro World
TitleUnicode:まっしろわーるど
Artist:Mikakuning!
ArtistUnicode:みかくにんぐッ!
Creator:Olegase
Version:Insane
Source:未確認で進行形
Tags:Mikakunin de Shinkoukei haruka terui yuuri yoshida eriko matsui 松井恵理子 吉田有里 照井春佳
BeatmapID:1023483
BeatmapSetID:478354

[Difficulty]
HPDrainRate:6
CircleSize:4
OverallDifficulty:8
ApproachRate:9
SliderMultiplier:2
SliderTickRate:2

[Events]
//Background and Video events
0,0,"BG.jpg",0,0
Video,700,"TVアニメ『未確認で進行形』ノンテロップED映像 「まっしろわーるど/みかくにんぐッ!」_(1280x720).mp4"
//Break Periods
//Storyboard Layer 0 (Background)
//Storyboard Layer 1 (Fail)
//Storyboard Layer 2 (Pass)
//Storyboard Layer 3 (Foreground)
//Storyboard Sound Samples

[TimingPoints]
4990,375,4,1,0,100,1,0
61802,-100,4,1,0,100,0,1
87490,-100,4,1,0,100,0,0

[HitObjects]
80,40,4990,6,0,P|44:80|61:160,1,100,8|0,0:0|0:0,0:0:0:0:
160,120,5365,1,0,0:0:0:0:
208,124,5458,2,2,P|229:181|212:228,1,100,0|0,0:0|0:0,0:0:0:0:
160,216,5740,2,0,P|104:204|60:244,1,100
72,344,6115,1,0,0:0:0:0:
116,364,6208,2,2,P|160:380|224:364,1,100,0|0,0:0|0:0,0:0:0:0:
296,360,6490,6,0,P|352:344|408:300,1,100,8|0,0:0|0:0,0:0:0:0:
360,152,6865,1,0,0:0:0:0:
308,156,6958,2,2,P|260:180|236:240,1,100,8|0,0:0|0:0,0:0:0:0:
320,240,7240,2,0,P|372:248|428:204,1,100
464,64,7615,1,0,0:0:0:0:
420,36,7708,2,2,P|381:21|308:32,1,100,0|0,0:0|0:0,0:0:0:0:
168,56,7990,5,4,0:0:0:0:
56,288,8740,1,4,0:0:0:0:
328,328,9490,2,0,P|396:287|420:169,1,200,8|0,0:0|0:0,0:0:0:0:
264,208,10052,1,0,0:0:0:0:
360,80,10240,2,0,P|252:44|172:76,1,200,8|0,0:0|0:0,0:0:0:0:
184,232,10802,5,0,0:0:0:0:
40,176,10990,2,2,P|12:120|32:64,1,100,0|4,0:0|0:0,0:0:0:0:
176,120,11365,1,8,0:0:0:0:
304,24,11552,1,0,0:0:0:0:
280,184,11740,2,0,P|316:236|372:240,1,100
400,96,12115,2,0,L|492:32,1,100,8|0,0:0|0:0,0:0:0:0:
464,208,12490,5,0,0:0:0:0:
352,344,12677,1,0,0:0:0:0:
352,160,12865,1,8,0:0:0:0:
440,320,13052,1,0,0:0:0:0:
304,232,13240,2,2,P|269:190|299:118,1,100,0|0,0:0|0:0,0:0:0:0:
136,224,13615,2,2,P|128:260|72:304,1,100,0|0,0:0|0:0,0:0:0:0:
32,152,13990,6,0,P|38:95|73:60,1,100,8|0,0:0|0:0,0:0:0:0:
224,24,14365,1,0,0:0:0:0:
168,168,14552,1,0,0:0:0:0:
328,128,14740,2,2,P|360:80|368:28,1,100,8|0,0:0|0:0,0:0:0:0:
248,160,15115,2,2,P|240:220|288:256,1,100,0|0,0:0|0:0,0:0:0:0:
400,320,15490,5,8,0:0:0:0:
408,144,15677,1,0,0:0:0:0:
263,247,15865,1,0,0:0:0:0:
208,72,16052,1,0,0:0:0:0:
144,240,16240,1,0,0:0:0:0:
164,270,16333,1,0,0:0:0:0:
186,298,16427,2,0,L|217:338,2,50,8|0|0,0:0|0:0|0:0,0:0:0:0:
88,144,16802,5,0,0:0:0:0:
272,152,16990,1,8,0:0:0:0:
152,16,17177,1,0,0:0:0:0:
184,192,17365,1,0,0:0:0:0:
344,272,17552,1,0,0:0:0:0:
176,192,17740,2,2,P|229:185|275:139,1,100,8|0,0:0|0:0,0:0:0:0:
360,24,18115,2,2,P|404:51|425:118,1,100,8|0,0:0|0:0,0:0:0:0:
440,256,18490,5,8,0:0:0:0:
344,128,18677,1,0,0:0:0:0:
352,288,18865,5,0,0:0:0:0:
232,192,19052,1,0,0:0:0:0:
144,328,19240,6,2,P|104:294|92:234,1,100,8|0,0:0|0:0,0:0:0:0:
104,88,19615,2,2,P|52:96|16:148,1,100,8|0,0:0|0:0,0:0:0:0:
168,232,19990,5,8,0:0:0:0:
216,56,20177,1,0,0:0:0:0:
88,176,20365,1,0,0:0:0:0:
264,216,20552,1,0,0:0:0:0:
344,56,20740,2,2,P|398:39|461:64,1,100,8|0,0:0|0:0,0:0:0:0:
416,208,21115,2,2,P|434:251|404:312,1,100,8|0,0:0|0:0,0:0:0:0:
256,344,21490,5,8,0:0:0:0:
336,184,21677,1,0,0:0:0:0:
368,368,21865,1,0,0:0:0:0:
248,232,22052,1,0,0:0:0:0:
136,336,22240,1,8,0:0:0:0:
124,298,22333,1,0,0:0:0:0:
89,289,22427,1,0,0:0:0:0:
90,245,22521,1,0,0:0:0:0:
55,234,22615,2,2,P|36:173|66:120,1,100,0|0,0:0|0:0,0:0:0:0:
160,32,22990,5,4,0:0:0:0:
192,208,23365,6,0,P|240:283|280:275,1,100
376,208,23740,1,0,0:0:0:0:
312,352,23927,1,0,0:0:0:0:
288,192,24115,1,0,0:0:0:0:
136,152,24302,1,0,0:0:0:0:
280,88,24490,6,0,L|328:116,3,50
353,69,24865,2,0,L|402:39,3,50
440,112,25240,2,0,P|413:168|359:183,1,100
460,290,25615,6,2,L|372:346,1,100,0|0,0:0|0:0,0:0:0:0:
208,312,25990,1,0,0:0:0:0:
160,176,26177,1,0,0:0:0:0:
320,192,26365,1,0,0:0:0:0:
376,344,26552,2,0,P|296:304|288:272,1,100
240,152,26927,1,0,0:0:0:0:
384,72,27115,1,0,0:0:0:0:
408,232,27302,1,0,0:0:0:0:
312,104,27490,6,0,P|256:56|192:56,1,100
88,112,27865,1,0,0:0:0:0:
160,256,28052,1,0,0:0:0:0:
248,120,28240,1,0,0:0:0:0:
104,192,28427,2,0,P|56:248|64:312,1,100
192,344,28802,1,0,0:0:0:0:
304,232,28990,2,0,P|256:184|256:128,1,100
408,144,29365,6,2,P|456:204|452:260,1,100,0|0,0:0|0:0,0:0:0:0:
336,328,29740,2,2,P|280:336|232:296,1,100,0|0,0:0|0:0,0:0:0:0:
120,216,30115,2,2,P|88:252|116:324,1,100,0|0,0:0|0:0,0:0:0:0:
224,216,30490,2,2,P|168:132|72:120,1,200,0|0,0:0|0:0,0:0:0:0:
160,256,31052,1,0,0:0:0:0:
75,119,31240,1,4,0:0:0:0:
256,96,31615,6,2,P|264:152|228:192,1,100,0|0,0:0|0:0,0:0:0:0:
80,208,31990,5,8,0:0:0:0:
168,344,32177,1,0,0:0:0:0:
232,208,32365,5,8,0:0:0:0:
320,80,32552,1,0,0:0:0:0:
320,240,32740,5,8,0:0:0:0:
440,352,32927,1,0,0:0:0:0:
408,192,33115,2,2,L|404:88,1,100,8|4,0:0|0:0,0:0:0:0:
248,56,33490,5,8,0:0:0:0:
88,96,33677,1,0,0:0:0:0:
8,240,33865,5,8,0:0:0:0:
152,168,34052,1,0,0:0:0:0:
304,120,34240,6,2,P|376:168|396:220,1,100,8|0,0:0|0:0,0:0:0:0:
296,312,34615,1,8,0:0:0:0:
152,256,34802,1,0,0:0:0:0:
184,96,34990,2,0,P|223:51|287:42,1,100,8|4,0:0|0:0,0:0:0:0:
400,120,35365,6,2,B|416:184|344:224,1,100,0|0,0:0|0:0,0:0:0:0:
224,272,35740,2,2,P|244:320|320:344,1,100,0|0,0:0|0:0,0:0:0:0:
296,176,36115,2,4,P|252:152|180:176,1,100,0|0,0:0|0:0,0:0:0:0:
104,288,36490,2,2,P|24:216|44:108,1,200,0|0,0:0|0:0,0:0:0:0:
184,168,37052,1,0,0:0:0:0:
336,104,37240,1,8,0:0:0:0:
336,104,37333,1,0,0:0:0:0:
336,104,37427,1,0,0:0:0:0:
376,264,37615,1,4,0:0:0:0:
456,84,37990,5,8,0:0:0:0:
312,192,38177,1,0,0:0:0:0:
496,192,38365,1,8,0:0:0:0:
344,88,38552,1,0,0:0:0:0:
416,256,38740,2,2,P|380:300|320:312,1,100,8|0,0:0|0:0,0:0:0:0:
160,320,39115,5,8,0:0:0:0:
32,192,39302,1,0,0:0:0:0:
216,192,39490,1,8,0:0:0:0:
64,288,39677,1,0,0:0:0:0:
104,112,39865,2,2,P|140:72|204:60,1,100,8|0,0:0|0:0,0:0:0:0:
344,56,40240,1,8,0:0:0:0:
224,160,40427,1,0,0:0:0:0:
120,288,40615,2,2,P|168:344|232:336,1,100,8|0,0:0|0:0,0:0:0:0:
344,296,40990,5,8,0:0:0:0:
344,296,41083,1,0,0:0:0:0:
344,296,41177,1,0,0:0:0:0:
216,200,41365,2,2,B|176:180|180:144|146:126,1,100,0|0,0:0|0:0,0:0:0:0:
16,32,41740,1,8,0:0:0:0:
16,32,41833,1,0,0:0:0:0:
16,32,41927,1,0,0:0:0:0:
80,176,42115,2,2,P|72:104|104:64,1,100,0|0,0:0|0:0,0:0:0:0:
232,24,42490,2,2,P|324:68|404:24,1,200,0|8,0:0|0:0,0:0:0:0:
312,160,43052,5,0,0:0:0:0:
464,104,43240,2,2,P|516:188|460:276,1,200,8|4,0:0|0:0,0:0:0:0:
392,304,43990,5,8,0:0:0:0:
328,160,44177,1,0,0:0:0:0:
272,312,44365,5,8,0:0:0:0:
392,208,44552,1,0,0:0:0:0:
256,128,44740,2,2,P|205:111|151:136,1,100,8|0,0:0|0:0,0:0:0:0:
144,288,45115,2,2,P|92:284|56:228,1,100,8|0,0:0|0:0,0:0:0:0:
192,160,45490,5,8,0:0:0:0:
303,16,45677,1,0,0:0:0:0:
296,197,45865,1,8,0:0:0:0:
195,47,46052,1,0,0:0:0:0:
365,109,46240,1,8,0:0:0:0:
260,120,46427,1,0,0:0:0:0:
160,156,46615,1,8,0:0:0:0:
158,185,46708,1,0,0:0:0:0:
159,215,46802,1,0,0:0:0:0:
165,245,46896,1,0,0:0:0:0:
174,273,46990,2,2,P|208:304|268:312,1,100,8|4,0:0|0:0,0:0:0:0:
448,272,47365,6,0,P|404:316|351:317,1,100,8|0,0:0|0:0,0:0:0:0:
296,176,47740,2,2,P|256:212|252:280,1,100,0|0,0:0|0:0,0:0:0:0:
376,152,48115,2,0,P|336:104|276:104,1,100,8|0,0:0|0:0,0:0:0:0:
144,56,48490,6,2,B|114:140|16:95|3:198,1,200,0|0,0:0|0:0,0:0:0:0:
120,304,49052,1,0,0:0:0:0:
272,296,49240,2,0,P|324:296|372:240,1,100,8|0,0:0|0:0,0:0:0:0:
360,104,49615,1,4,0:0:0:0:
352,80,49990,6,2,P|276:60|160:84,1,200,0|0,0:0|0:0,0:0:0:0:
104,168,50740,1,8,0:0:0:0:
96,183,50833,1,0,0:0:0:0:
88,199,50927,1,0,0:0:0:0:
240,248,51115,1,8,0:0:0:0:
248,263,51208,1,0,0:0:0:0:
256,278,51302,1,0,0:0:0:0:
408,312,51490,6,2,P|480:252|484:152,1,200,0|8,0:0|0:0,0:0:0:0:
344,72,52052,1,0,0:0:0:0:
328,68,52145,1,0,0:0:0:0:
312,64,52240,2,2,P|256:60|208:76,1,100,8|0,0:0|0:0,0:0:0:0:
104,192,52615,1,4,0:0:0:0:
296,328,52990,6,2,P|356:280|364:220,1,100,0|0,0:0|0:0,0:0:0:0:
208,208,53365,2,2,P|160:128|172:88,1,100,0|0,0:0|0:0,0:0:0:0:
312,88,53740,1,8,0:0:0:0:
308,76,53833,2,0,P|248:28|192:28,1,100
212,24,54115,1,8,0:0:0:0:
80,112,54302,1,0,0:0:0:0:
112,272,54490,6,2,P|144:319|200:333,1,100,0|0,0:0|0:0,0:0:0:0:
224,176,54865,2,0,P|256:140|324:136,1,100
312,288,55240,5,4,0:0:0:0:
432,184,55427,1,0,0:0:0:0:
456,344,55615,2,2,P|484:288|476:240,1,100,0|0,0:0|0:0,0:0:0:0:
440,96,55990,6,2,B|368:94|328:12|240:36,1,200,0|0,0:0|0:0,0:0:0:0:
200,184,56552,1,0,0:0:0:0:
64,96,56740,2,0,P|76:148|136:192,1,100,8|0,0:0|0:0,0:0:0:0:
232,280,57115,2,0,P|184:308|116:292,1,100,8|0,0:0|0:0,0:0:0:0:
272,208,57490,2,0,P|316:256|324:308,1,100,8|0,0:0|0:0,0:0:0:0:
176,344,57865,1,8,0:0:0:0:
48,248,58052,1,0,0:0:0:0:
40,240,58145,1,0,0:0:0:0:
33,233,58240,2,0,P|12:152|40:120,1,100,8|4,0:0|0:0,0:0:0:0:
176,112,58615,5,8,0:0:0:0:
216,264,58802,1,0,0:0:0:0:
376,288,58990,2,0,L|456:360,2,100,8|0|8,0:0|0:0|0:0,0:0:0:0:
496,184,59552,2,0,L|512:84,1,100,0|8,0:0|0:0,0:0:0:0:
360,48,59927,1,0,0:0:0:0:
200,64,60115,1,8,0:0:0:0:
182,68,60208,1,0,0:0:0:0:
166,77,60302,1,0,0:0:0:0:
152,86,60396,1,0,0:0:0:0:
139,99,60490,1,4,0:0:0:0:
256,192,60865,12,0,61615,0:0:0:0:
128,336,61990,5,8,0:0:0:0:
56,192,62177,1,0,0:0:0:0:
200,128,62365,2,2,P|220:76|204:32,1,100,0|0,0:0|0:0,0:0:0:0:
296,192,62740,2,2,P|290:133|308:96,1,100,0|0,0:0|0:0,0:0:0:0:
488,128,63115,6,2,P|468:180|484:224,1,100,0|0,0:0|0:0,0:0:0:0:
392,64,63490,2,2,P|398:123|380:160,1,100,0|0,0:0|0:0,0:0:0:0:
264,296,63865,1,8,0:0:0:0:
248,316,63958,1,0,0:0:0:0:
226,330,64052,1,0,0:0:0:0:
201,333,64146,1,0,0:0:0:0:
176,327,64240,1,4,0:0:0:0:
40,248,64427,1,0,0:0:0:0:
224,192,64615,5,8,0:0:0:0:
32,120,64802,1,0,0:0:0:0:
192,264,64990,1,8,0:0:0:0:
144,40,65177,1,0,0:0:0:0:
320,48,65365,2,2,P|373:47|436:88,1,100,8|0,0:0|0:0,0:0:0:0:
272,168,65740,2,2,P|232:203|229:270,1,100,8|0,0:0|0:0,0:0:0:0:
376,144,66115,1,0,0:0:0:0:
304,312,66302,2,2,P|210:347|127:265,1,200,0|0,0:0|0:0,0:0:0:0:
328,232,66865,5,4,0:0:0:0:
16,32,67240,1,4,0:0:0:0:
52,344,67615,1,4,0:0:0:0:
240,352,67990,6,0,L|328:280,1,100,8|0,0:0|0:0,0:0:0:0:
448,200,68365,1,8,0:0:0:0:
448,200,68458,1,0,0:0:0:0:
448,200,68552,1,0,0:0:0:0:
290,199,68740,6,0,L|378:127,1,100,8|0,0:0|0:0,0:0:0:0:
496,40,69115,1,8,0:0:0:0:
496,40,69208,1,0,0:0:0:0:
496,40,69302,1,0,0:0:0:0:
336,40,69490,2,2,P|230:59|152:128,1,200,0|0,0:0|0:0,0:0:0:0:
72,248,70052,1,0,0:0:0:0:
72,248,70240,2,2,L|136:328,1,100,8|0,0:0|0:0,0:0:0:0:
256,216,70615,1,4,0:0:0:0:
368,344,70990,6,2,P|412:304|428:236,1,100,0|0,0:0|0:0,0:0:0:0:
432,104,71365,1,8,0:0:0:0:
336,248,71552,1,0,0:0:0:0:
304,64,71740,5,8,0:0:0:0:
160,192,71927,1,0,0:0:0:0:
288,304,72115,1,8,0:0:0:0:
274,315,72208,1,0,0:0:0:0:
260,326,72302,1,0,0:0:0:0:
80,328,72490,2,0,P|42:280|34:220,1,100,8|0,0:0|0:0,0:0:0:0:
200,192,72865,1,0,0:0:0:0:
56,112,73052,2,2,P|104:48|216:24,1,200,0|4,0:0|0:0,0:0:0:0:
200,184,73615,6,0,P|208:224|280:288,1,100
384,344,73990,6,2,P|452:304|488:192,1,200,0|0,0:0|0:0,0:0:0:0:
352,120,74552,1,8,0:0:0:0:
200,80,74740,2,2,P|107:118|72:208,1,200,0|0,0:0|0:0,0:0:0:0:
232,208,75302,5,8,0:0:0:0:
320,336,75490,2,2,P|400:293|386:185,1,200,0|0,0:0|0:0,0:0:0:0:
232,208,76052,1,8,0:0:0:0:
236,204,76146,1,0,0:0:0:0:
240,200,76240,2,0,B|276:120|344:188|388:76,1,200,0|4,0:0|0:0,0:0:0:0:
436,228,76990,5,8,0:0:0:0:
320,336,77177,1,0,0:0:0:0:
272,184,77365,2,0,P|212:164|200:104,1,100,8|0,0:0|0:0,0:0:0:0:
344,72,77740,2,0,P|300:24|224:32,1,100,8|0,0:0|0:0,0:0:0:0:
120,72,78115,2,2,L|16:116,2,100,0|0|0,0:0|0:0|0:0,0:0:0:0:
236,368,78865,5,4,0:0:0:0:
488,172,79240,1,4,0:0:0:0:
196,36,79615,1,4,0:0:0:0:
296,160,79802,1,0,0:0:0:0:
144,104,79990,2,0,P|76:180|92:276,2,200,8|8|8,0:0|0:0|0:0,0:0:0:0:
240,232,80927,5,0,0:0:0:0:
336,360,81115,1,8,0:0:0:0:
184,312,81302,1,0,0:0:0:0:
344,272,81490,2,2,P|360:190|282:106,1,200,8|0,0:0|0:0,0:0:0:0:
192,240,82052,1,8,0:0:0:0:
64,344,82240,2,2,P|18:274|58:166,1,200,0|0,0:0|0:0,0:0:0:0:
192,88,82802,5,0,0:0:0:0:
184,256,82990,1,8,0:0:0:0:
248,88,83177,1,0,0:0:0:0:
120,264,83365,1,8,0:0:0:0:
296,216,83552,1,0,0:0:0:0:
128,272,83740,2,0,L|40:332,2,100,8|0|0,0:0|0:0|0:0,0:0:0:0:
296,216,84302,2,2,B|372:172|428:236|476:148,1,200,0|0,0:0|0:0,0:0:0:0:
320,56,84865,5,8,3:0:0:0:
283,54,84958,1,0,3:0:0:0:
250,63,85052,1,0,3:0:0:0:
220,83,85146,1,0,3:0:0:0:
198,109,85240,1,4,3:0:0:0:
256,192,85615,12,0,87490,0:0:0:0:
