osu file format v14

[General]
AudioFilename: 01. .mp3
AudioLeadIn: 1500
PreviewTime: 221387
Countdown: 0
SampleSet: Soft
StackLeniency: 0.5
Mode: 0
LetterboxInBreaks: 0
WidescreenStoryboard: 0

[Editor]
DistanceSpacing: 1
BeatDivisor: 4
GridSize: 32
TimelineZoom: 2

[Metadata]
Title:Owaranai Melody o Utai Dashimashita.
TitleUnicode:終わらないメロディーを歌いだしました。
Artist:Mikako Komatsu
ArtistUnicode:小松未可子
Creator:Loneight
Version:Melody
Source:神さまのいない日曜日
Tags:l1106188 Kamisama no inai nichiyobi qoot8123
BeatmapID:1125488
BeatmapSetID:121689

[Difficulty]
HPDrainRate:6
CircleSize:4
OverallDifficulty:7
ApproachRate:8
SliderMultiplier:2.2
SliderTickRate:1

[Events]
//Background and Video events
0,0,"bg.jpg",0,0
//Break Periods
//Storyboard Layer 0 (Background)
//Storyboard Layer 1 (Fail)
//Storyboard Layer 2 (Pass)
//Storyboard Layer 3 (Foreground)
//Storyboard Sound Samples

[TimingPoints]
1060,491.803278688525,4,2,1,35,1,0
1060,-200,4,2,1,35,0,0
16797,-200,4,2,2,35,0,0
44338,-200,4,2,1,35,0,0
48273,-200,4,2,3,50,0,0
64010,-125,4,2,3,50,0,0
64256,-125,4,2,4,50,0,0
65978,-125,4,2,3,70,0,0
66223,-125,4,2,4,70,0,0
67945,-125,4,2,3,70,0,0
68191,-125,4,2,4,70,0,0
69912,-125,4,2,3,70,0,0
70035,-125,4,2,4,70,0,0
71633,-125,4,2,1,70,0,0
71879,-111.111111111111,4,2,3,70,0,0
72125,-111.111111111111,4,2,4,70,0,0
72617,-111.111111111111,4,2,1,70,0,0
72863,-111.111111111111,4,2,3,70,0,0
73109,-111.111111111111,4,2,4,70,0,0
73600,-111.111111111111,4,2,1,70,0,0
73846,-111.111111111111,4,2,1,70,0,0
74092,-111.111111111111,4,2,4,70,0,0
74830,-111.111111111111,4,2,3,70,0,0
74953,-111.111111111111,4,2,4,70,0,0
75814,-200,4,2,3,70,0,0
77289,-200,4,2,1,30,0,0
79748,-100,4,2,3,80,0,1
79994,-100,4,2,5,80,0,1
93887,-100,4,2,6,80,0,1
94010,-100,4,2,5,80,0,1
94133,-100,4,2,6,80,0,1
94256,-100,4,2,5,80,0,1
94379,-100,4,2,6,80,0,1
94502,-100,4,2,5,80,0,1
94625,-100,4,2,6,80,0,1
94748,-100,4,2,5,80,0,1
94994,-100,4,2,5,80,0,0
95117,-100,4,2,4,80,0,0
95486,-100,4,2,3,80,0,1
95732,-100,4,2,5,80,0,1
107043,-100,4,2,6,80,0,1
107289,-100,4,2,5,80,0,1
108150,-100,4,2,6,80,0,1
108273,-100,4,2,5,80,0,1
108396,-100,4,2,6,80,0,1
108519,-100,4,2,5,80,0,1
108764,-100,4,2,5,80,0,1
109010,-100,4,2,6,80,0,1
109256,-100,4,2,5,80,0,1
109625,-100,4,2,6,80,0,1
109748,-100,4,2,5,80,0,1
109871,-100,4,2,6,80,0,1
109994,-100,4,2,5,80,0,1
111223,-200,4,2,1,80,0,0
112207,-200,4,2,1,20,0,0
114666,-200,4,2,1,5,0,0
115158,-111.111111111111,4,2,3,70,0,0
115404,-111.111111111111,4,2,7,70,0,0
118600,-111.111111111111,4,2,77,70,0,0
118846,-111.111111111111,4,2,8,70,0,0
119092,-111.111111111111,4,2,3,70,0,0
119338,-111.111111111111,4,2,7,70,0,0
122535,-111.111111111111,4,2,77,70,0,0
122781,-111.111111111111,4,2,7,70,0,0
123027,-111.111111111111,4,2,3,70,0,0
123273,-111.111111111111,4,2,7,70,0,0
126469,-111.111111111111,4,2,77,70,0,0
126715,-111.111111111111,4,2,8,70,0,0
126961,-111.111111111111,4,2,3,70,0,0
127207,-111.111111111111,4,2,7,70,0,0
130404,-111.111111111111,4,2,77,70,0,0
130650,-111.111111111111,4,2,7,70,0,0
130896,-111.111111111111,4,2,5,70,0,0
131141,-111.111111111111,4,2,7,70,0,0
146141,-111.111111111111,4,2,77,70,0,0
146387,-111.111111111111,4,2,7,70,0,0
146633,-111.111111111111,4,2,3,70,0,0
146879,-111.111111111111,4,2,7,70,0,0
161879,-111.111111111111,4,2,77,70,0,0
162125,-111.111111111111,4,2,7,70,0,0
162371,-142.857142857143,4,2,3,70,0,0
178109,-111.111111111111,4,2,3,70,0,0
178355,-111.111111111111,4,2,8,70,0,0
179338,-111.111111111111,4,2,4,70,0,0
179584,-111.111111111111,4,2,8,70,0,0
179830,-111.111111111111,4,2,4,70,0,0
180076,-111.111111111111,4,2,8,70,0,0
181305,-111.111111111111,4,2,4,70,0,0
181551,-111.111111111111,4,2,77,70,0,0
181797,-111.111111111111,4,2,4,70,0,0
182043,-111.111111111111,4,2,3,70,0,0
182289,-111.111111111111,4,2,8,70,0,0
183273,-111.111111111111,4,2,4,70,0,0
183519,-111.111111111111,4,2,8,70,0,0
183764,-111.111111111111,4,2,4,70,0,0
184010,-111.111111111111,4,2,8,70,0,0
184379,-111.111111111111,4,2,4,70,0,0
184502,-111.111111111111,4,2,8,70,0,0
184625,-111.111111111111,4,2,4,70,0,0
184748,-111.111111111111,4,2,8,70,0,0
184871,-111.111111111111,4,2,4,70,0,0
184994,-111.111111111111,4,2,8,70,0,0
185240,-111.111111111111,4,2,4,70,0,0
185486,-111.111111111111,4,2,77,70,0,0
185732,-111.111111111111,4,2,4,70,0,0
185978,-111.111111111111,4,2,3,70,0,0
186223,-111.111111111111,4,2,8,70,0,0
187207,-111.111111111111,4,2,4,70,0,0
187453,-111.111111111111,4,2,8,70,0,0
187699,-111.111111111111,4,2,4,70,0,0
187945,-111.111111111111,4,2,8,70,0,0
188805,-111.111111111111,4,2,4,70,0,0
188928,-111.111111111111,4,2,8,70,0,0
189174,-111.111111111111,4,2,4,70,0,0
189420,-111.111111111111,4,2,77,70,0,0
189666,-111.111111111111,4,2,4,70,0,0
189912,-111.111111111111,4,2,6,70,0,0
190158,-111.111111111111,4,2,8,70,0,0
192863,-111.111111111111,4,2,5,30,0,0
193109,-111.111111111111,4,2,5,40,0,0
193355,-111.111111111111,4,2,5,50,0,0
193600,-111.111111111111,4,2,5,60,0,0
193846,-111.111111111111,4,2,3,70,0,0
195322,-200,4,2,9,40,0,0
209584,-125,4,2,10,60,0,0
209953,-125,4,2,11,60,0,0
210568,-125,4,2,10,60,0,0
210937,-125,4,2,11,60,0,0
211060,-125,4,2,10,60,0,0
211428,-125,4,2,11,60,0,0
211551,-125,4,2,10,60,0,0
212904,-125,4,2,11,60,0,0
213027,-125,4,2,10,60,0,0
213396,-125,4,2,11,60,0,0
213519,-125,4,2,10,60,0,0
213887,-125,4,2,11,60,0,0
214502,-125,4,2,10,60,0,0
214871,-125,4,2,11,60,0,0
214994,-125,4,2,10,60,0,0
215363,-125,4,2,11,60,0,0
215486,-125,4,2,10,60,0,0
216838,-125,4,2,11,60,0,0
216961,-125,4,2,10,60,0,0
217330,-125,4,2,11,60,0,0
217453,-125,4,2,10,60,0,0
217822,-125,4,2,11,60,0,0
218437,-125,4,2,10,60,0,0
218805,-125,4,2,11,60,0,0
218928,-125,4,2,10,60,0,0
219297,-125,4,2,11,60,0,0
219420,-125,4,2,10,60,0,0
220773,-125,4,2,11,60,0,0
220896,-125,4,2,10,60,0,0
221264,-125,4,2,11,60,0,0
221387,-166.666666666667,4,2,3,70,0,0
221633,-166.666666666667,4,2,3,30,0,0
223846,-166.666666666667,4,2,3,30,0,0
225322,-100,4,2,3,50,0,1
225568,-100,4,2,7,80,0,1
226797,-100,4,2,77,80,0,1
227043,-100,4,2,7,80,0,1
228764,-100,4,2,77,80,0,1
229010,-100,4,2,7,80,0,1
230732,-100,4,2,77,80,0,1
230978,-100,4,2,7,80,0,1
232699,-100,4,2,77,80,0,1
232945,-100,4,2,7,80,0,1
234666,-100,4,2,77,80,0,1
234912,-100,4,2,7,80,0,1
236633,-100,4,2,77,80,0,1
236879,-100,4,2,7,80,0,1
238600,-100,4,2,77,80,0,1
238846,-100,4,2,6,80,0,1
239092,-100,4,2,7,80,0,1
239338,-100,4,2,6,80,0,1
239584,-100,4,2,7,80,0,1
240568,-100,4,2,77,80,0,0
241060,-100,4,2,3,80,0,1
241305,-100,4,2,7,80,0,1
242535,-100,4,2,77,80,0,1
242781,-100,4,2,7,80,0,1
244502,-100,4,2,77,80,0,1
244748,-100,4,2,7,80,0,1
246469,-100,4,2,77,80,0,1
246715,-100,4,2,7,80,0,1
248437,-100,4,2,77,80,0,1
248682,-100,4,2,7,80,0,1
250404,-100,4,2,77,80,0,1
250650,-100,4,2,7,80,0,1
252371,-100,4,2,77,80,0,1
252617,-100,4,2,7,80,0,1
254338,-100,4,2,77,80,0,1
254584,-100,4,2,6,80,0,1
254830,-100,4,2,7,80,0,1
255076,-100,4,2,6,80,0,1
255322,-100,4,2,7,80,0,1
256305,-100,4,2,77,80,0,1
256551,-100,4,2,7,80,0,1
256797,-200,4,2,3,40,0,0
256920,-200,4,2,3,5,0,0
260732,-200,4,2,9,20,0,0
292330,-200,4,2,9,5,0,0

[Colours]
Combo1 : 255,128,128
Combo2 : 128,128,255

[HitObjects]
319,128,1060,6,0,P|256:54|192:128,1,220,8|2,0:0|0:0,0:0:0:0:
192,255,3027,2,0,P|256:329|319:255,1,220,8|2,0:0|0:0,0:0:0:0:
207,74,4994,6,0,P|112:51|102:147,1,220,8|2,0:0|0:0,0:0:0:0:
305,310,6961,2,0,P|360:322|419:307,2,110,8|8|2,0:0|0:0|0:0,0:0:0:0:
47,250,8928,6,0,P|57:346|151:323,1,220,8|2,0:0|0:0,0:0:0:0:
465,134,10896,2,0,P|454:37|360:60,1,220,8|2,0:0|0:0,0:0:0:0:
256,192,12371,1,8,0:0:0:0:
151,60,12863,6,0,P|57:37|46:134,1,220,8|2,0:0|0:0,0:0:0:0:
360,323,14830,2,0,P|454:346|465:250,1,220,0|2,0:0|0:0,0:0:0:0:
253,95,16797,6,0,P|194:89|136:121,1,110,2|0,0:0|0:0,0:0:0:0:
71,80,17535,1,0,0:0:0:0:
92,160,17781,2,0,L|81:238,1,55,8|0,0:0|0:0,0:0:0:0:
166,310,18273,2,0,L|166:229,1,55
255,189,18764,6,0,L|269:288,2,82.5,2|0|0,0:0|0:0|0:0,0:0:0:0:
289,113,19748,1,8,0:0:0:0:
357,159,19994,2,0,L|356:226,1,55
405,91,20486,1,0,0:0:0:0:
469,142,20732,6,0,L|465:271,1,110,2|0,0:0|0:0,0:0:0:0:
402,305,21469,1,0,0:0:0:0:
322,284,21715,2,0,P|294:277|252:284,1,55,8|0,0:0|0:0,0:0:0:0:
243,292,22084,2,0,P|250:322|256:346,1,55
290,358,22453,1,0,0:0:0:0:
162,261,22699,2,0,L|37:275,2,110,2|2|8,0:0|0:0|0:0,0:0:0:0:
150,342,23928,1,0,0:0:0:0:
236,226,24174,1,0,0:0:0:0:
162,261,24420,1,0,0:0:0:0:
279,156,24666,6,0,P|284:96|254:36,1,110,2|0,0:0|0:0,0:0:0:0:
318,227,25404,2,0,P|348:229|381:225,1,55,0|8,0:0|0:0,0:0:0:0:
382,308,25896,2,0,P|325:313|268:306,1,110
236,226,26633,2,0,L|226:55,1,165,2|2,0:0|0:0,0:0:0:0:
280,155,27617,2,0,P|342:163|401:137,1,110,8|0,0:0|0:0,0:0:0:0:
439,84,28355,1,0,0:0:0:0:
466,161,28600,6,0,L|459:286,1,110,2|0,0:0|0:0,0:0:0:0:
395,323,29338,2,0,P|366:324|319:318,1,55,2|8,0:0|0:0,0:0:0:0:
267,281,29830,2,0,P|211:275|157:298,1,110
105,355,30568,2,0,P|138:309|145:251,1,110,2|0,0:0|0:0,0:0:0:0:
116,183,31305,2,0,P|92:171|50:165,1,55,2|8,0:0|0:0,0:0:0:0:
41,240,31797,2,0,P|87:260|158:253,1,110
208,202,32535,6,0,P|259:187|330:211,1,110,2|0,0:0|0:0,0:0:0:0:
354,271,33273,1,0,0:0:0:0:
395,199,33519,2,0,L|400:135,1,55,8|0,0:0|0:0,0:0:0:0:
459,250,34010,2,0,L|461:306,1,55
395,199,34502,2,0,L|400:110,2,82.5,2|0|0,0:0|0:0|0:0,0:0:0:0:
354,271,35486,2,0,P|324:277|287:271,1,55,8|0,0:0|0:0,0:0:0:0:
231,321,35978,1,0,0:0:0:0:
160,278,36223,1,0,0:0:0:0:
95,329,36469,6,0,P|77:268|103:217,1,110,2|0,0:0|0:0,0:0:0:0:
160,278,37207,1,0,0:0:0:0:
171,196,37453,2,0,L|175:128,1,55,8|0,0:0|0:0,0:0:0:0:
156,120,37822,2,0,P|123:129|83:129,1,55
79,115,38191,1,0,0:0:0:0:
211,42,38437,2,0,P|263:62|333:38,1,110,2|2,0:0|0:0,0:0:0:0:
368,238,39420,2,0,P|397:236|431:226,1,55,8|0,0:0|0:0,0:0:0:0:
484,184,39912,1,0,0:0:0:0:
496,259,40158,1,0,0:0:0:0:
385,345,40404,6,0,P|330:327|268:341,1,110,2|0,0:0|0:0,0:0:0:0:
198,352,41141,2,0,P|170:353|136:338,1,55,0|8,0:0|0:0,0:0:0:0:
116,186,41633,1,0,0:0:0:0:
108,269,42125,1,0,0:0:0:0:
184,237,42371,2,0,P|240:237|282:337,1,165,2|2,0:0|0:0,0:0:0:0:
372,304,43355,2,0,P|419:278|474:278,1,110,8|0,0:0|0:0,0:0:0:0:
488,197,44092,1,0,0:0:0:0:
452,122,44338,6,0,P|379:141|339:124,1,110
163,130,45322,2,0,P|110:141|60:122,1,110
59,121,46305,6,0,P|110:141|163:130,1,110
348,130,47289,2,0,P|401:141|452:122,1,110
498,37,48273,6,0,P|445:25|394:45,1,110,6|0,0:0|0:0,0:0:0:0:
312,38,49010,2,0,P|245:49|208:28,2,110
256,192,50486,12,6,52207,0:0:0:0:
256,194,53191,5,0,0:0:0:0:
184,235,53437,2,0,P|155:235|117:231,1,55
65,180,53928,2,0,L|91:54,1,110
163,31,54666,1,0,0:0:0:0:
329,232,55158,2,0,P|332:294|303:346,2,110,0|0|6,0:0|0:0|0:0,0:0:0:0:
256,192,56264,12,0,58109,0:0:0:0:
51,332,58600,5,0,0:0:0:0:
24,258,59092,1,0,0:0:0:0:
48,182,59584,1,0,0:0:0:0:
123,147,60076,6,0,L|251:164,1,110,6|0,0:0|0:0,0:0:0:0:
292,217,60814,2,0,L|405:200,1,110
261,85,61797,2,0,L|148:68,1,110
106,224,62781,2,0,L|214:240,1,110
274,297,63519,2,0,P|330:303|390:283,1,110,0|6,0:0|0:0,0:0:0:0:
439,351,64256,5,8,0:0:0:0:
446,346,64379,1,8,0:0:0:0:
451,339,64502,2,0,P|467:299|460:248,1,88,2|8,0:0|0:0,0:0:0:0:
333,125,64994,2,0,P|317:165|324:216,1,88,0|8,0:0|0:0,0:0:0:0:
469,55,65486,1,10,0:0:0:0:
469,55,65609,1,0,0:0:0:0:
469,55,65732,1,0,0:0:0:0:
355,113,65978,6,0,P|311:117|266:107,1,88,2|8,0:0|0:0,0:0:0:0:
125,46,66469,2,0,L|70:55,2,44,2|8|8,0:0|0:0|0:0,0:0:0:0:
151,176,66961,2,0,P|155:217|146:266,1,88,0|8,0:0|0:0,0:0:0:0:
52,343,67453,2,0,L|-3:334,2,44,10|0|0,0:0|0:0|0:0,0:0:0:0:
203,342,67945,6,0,P|237:327|295:330,1,88,6|0,0:0|0:0,0:0:0:0:
366,366,68437,1,2,0:0:0:0:
366,366,68928,2,0,L|371:264,1,88,0|8,0:0|0:0,0:0:0:0:
478,182,69420,1,10,0:0:0:0:
489,205,69543,1,0,0:0:0:0:
490,231,69666,1,0,0:0:0:0:
370,278,69912,6,0,P|325:271|256:256,1,88,2|8,0:0|0:0,0:0:0:0:
160,307,70404,2,0,B|141:348|141:348|109:318,1,88,2|8,0:0|0:0,0:0:0:0:
84,282,70773,2,0,P|83:259|90:217,1,44
233,325,71141,1,8,0:0:0:0:
225,131,71387,1,2,0:0:0:0:
161,191,71633,1,8,0:0:0:0:
252,50,71879,6,0,P|293:31|354:45,1,98.9999969787599,6|8,0:0|0:0,0:0:0:0:
404,164,72371,2,0,P|363:183|302:169,1,98.9999969787599,2|8,0:0|0:0,0:0:0:0:
136,103,72863,2,0,P|95:84|34:98,1,98.9999969787599,2|8,0:0|0:0,0:0:0:0:
74,246,73355,2,0,P|115:265|176:251,1,98.9999969787599,2|8,0:0|0:0,0:0:0:0:
264,109,73846,6,0,P|311:95|372:117,1,98.9999969787599,2|8,0:0|0:0,0:0:0:0:
440,330,74338,2,0,L|434:379,2,49.4999984893799,2|8|0,0:0|0:0|0:0,0:0:0:0:
435,182,74830,2,0,L|432:122,2,49.4999984893799,2|8|8,0:0|0:0|0:0,0:0:0:0:
297,263,75322,2,0,P|270:273|248:273,1,49.4999984893799,10|8,0:0|0:0,0:0:0:0:
205,260,75568,1,4,0:0:0:0:
70,133,75814,5,6,0:0:0:0:
40,141,77289,2,0,L|49:213,1,55,0|8,0:0|0:0,0:0:0:0:
95,262,77781,2,0,P|153:238|210:251,1,110,2|0,0:0|0:0,0:0:0:0:
262,297,78519,1,8,0:0:0:0:
412,213,78764,2,0,P|354:237|297:224,1,110,2|8,0:0|0:0,0:0:0:0:
308,229,79748,6,0,L|296:93,1,110,6|0,0:0|0:0,0:0:0:0:
247,65,80117,1,0,0:0:0:0:
247,65,80240,2,0,P|223:72|139:51,1,110,2|0,0:0|0:0,0:0:0:0:
18,120,80732,2,0,P|31:150|36:178,1,55,2|0,0:0|0:0,0:0:0:0:
17,250,80978,1,0,0:0:0:0:
26,287,81100,1,0,0:0:0:0:
35,324,81223,2,0,B|34:337|34:337|76:310|146:326,1,110,12|0,0:0|0:0,0:0:0:0:
202,364,81592,5,0,0:0:0:0:
209,354,81715,2,0,P|254:330|332:342,1,110,2|0,0:0|0:0,0:0:0:0:
478,249,82207,2,0,P|433:273|355:261,1,110,2|0,0:0|0:0,0:0:0:0:
373,265,82576,5,0,0:0:0:0:
372,259,82699,2,0,L|366:200,1,55,2|0,0:0|0:0,0:0:0:0:
437,95,82945,2,0,L|430:171,1,55
284,216,83191,2,0,L|229:207,1,55,12|0,0:0|0:0,0:0:0:0:
222,87,83437,2,0,L|277:96,1,55
149,134,83682,6,0,P|95:124|40:145,1,110,2|0,0:0|0:0,0:0:0:0:
19,214,84051,1,0,0:0:0:0:
26,220,84174,2,0,L|44:333,1,110,2|0,0:0|0:0,0:0:0:0:
192,202,84666,2,0,L|186:261,1,55,2|0,0:0|0:0,0:0:0:0:
127,346,84912,2,0,L|118:292,1,55
216,354,85158,2,0,P|259:330|320:341,1,110,12|0,0:0|0:0,0:0:0:0:
387,370,85527,1,0,0:0:0:0:
383,295,85650,6,0,L|377:179,2,110,2|0|2,0:0|0:0|0:0,0:0:0:0:
216,354,86387,1,0,0:0:0:0:
69,256,86633,2,0,L|59:197,1,55,2|0,0:0|0:0,0:0:0:0:
143,86,86879,2,0,L|123:141,1,55
31,26,87125,2,0,L|88:15,1,55,12|0,0:0|0:0,0:0:0:0:
277,64,87371,2,0,L|219:53,1,55
360,29,87617,5,2,0:0:0:0:
367,39,87740,2,0,P|422:26|475:38,1,110
500,109,88109,2,0,L|494:233,1,110,2|0,0:0|0:0,0:0:0:0:
364,301,88600,1,2,0:0:0:0:
355,298,88723,1,0,0:0:0:0:
344,294,88846,2,0,P|314:288|257:289,1,55
332,198,89092,1,12,0:0:0:0:
294,190,89215,1,0,0:0:0:0:
255,184,89338,2,0,P|224:185|169:201,1,55
108,148,89584,6,0,P|96:197|126:261,1,110,2|0,0:0|0:0,0:0:0:0:
146,275,89953,1,0,0:0:0:0:
158,311,90076,1,2,0:0:0:0:
151,348,90199,1,0,0:0:0:0:
124,375,90322,1,0,0:0:0:0:
19,185,90568,2,0,L|12:75,1,110,2|0,0:0|0:0,0:0:0:0:
70,22,90937,2,0,P|100:20|124:26,1,55,0|12,0:0|0:0,0:0:0:0:
271,153,91305,2,0,P|241:155|217:149,1,55
161,97,91551,6,0,L|168:222,1,110,2|0,0:0|0:0,0:0:0:0:
94,241,91920,1,0,0:0:0:0:
94,241,92043,1,2,0:0:0:0:
257,56,92289,2,0,L|391:49,1,110,0|2,0:0|0:0,0:0:0:0:
489,192,92781,2,0,L|355:185,1,110,0|12,0:0|0:0,0:0:0:0:
218,282,93273,2,0,P|224:313|227:346,1,55
125,326,93519,6,0,L|59:337,1,55,2|0,0:0|0:0,0:0:0:0:
103,232,93764,2,0,L|37:243,1,55,0|2,0:0|0:0,0:0:0:0:
87,133,94010,2,0,L|21:144,1,55,2|2,0:0|0:0,0:0:0:0:
71,35,94256,2,0,L|5:46,1,55,0|2,0:0|0:0,0:0:0:0:
124,128,94502,6,0,L|190:139,1,55,2|2,0:0|0:0,0:0:0:0:
181,39,94748,2,0,L|247:28,1,55
257,157,94994,2,0,L|323:168,1,55,2|2,0:0|0:0,0:0:0:0:
314,12,95240,2,0,L|380:1,1,55,0|2,0:0|0:0,0:0:0:0:
391,180,95486,6,0,P|435:188|499:171,1,110,6|0,0:0|0:0,0:0:0:0:
500,94,95855,1,0,0:0:0:0:
500,94,95978,1,2,0:0:0:0:
337,249,96223,2,0,P|338:282|350:315,1,55
284,355,96469,2,0,P|234:340|166:355,2,110,2|0|12,0:0|0:0|0:0,0:0:0:0:
333,379,97084,1,0,0:0:0:0:
387,369,97207,1,0,0:0:0:0:
422,327,97330,1,0,0:0:0:0:
420,272,97453,5,2,0:0:0:0:
428,280,97576,2,0,P|420:219|449:163,1,110
499,48,97945,2,0,P|450:85|387:88,1,110,2|0,0:0|0:0,0:0:0:0:
218,60,98437,2,0,L|150:54,1,55,2|0,0:0|0:0,0:0:0:0:
199,203,98682,2,0,L|131:197,1,55
33,308,98928,2,0,L|101:302,1,55,12|0,0:0|0:0,0:0:0:0:
14,165,99174,2,0,L|82:159,1,55
199,203,99420,6,0,P|250:209|319:187,2,110,2|0|2,0:0|0:0|0:0,0:0:0:0:
353,309,100158,1,0,0:0:0:0:
475,167,100404,2,0,L|470:102,1,55,2|0,0:0|0:0,0:0:0:0:
386,33,100650,1,0,0:0:0:0:
378,59,100773,1,0,0:0:0:0:
370,85,100896,2,0,L|374:139,1,55,12|0,0:0|0:0,0:0:0:0:
307,257,101141,5,0,0:0:0:0:
276,280,101264,1,0,0:0:0:0:
237,285,101387,2,0,L|183:278,1,55,2|0,0:0|0:0,0:0:0:0:
56,257,101633,2,0,L|63:317,1,55
129,360,101879,1,2,0:0:0:0:
192,188,102125,1,0,0:0:0:0:
23,41,102371,2,0,P|51:45|112:28,1,55,2|0,0:0|0:0,0:0:0:0:
66,181,102617,2,0,P|94:177|155:194,1,55
216,40,102863,2,0,P|242:51|305:50,1,55,12|0,0:0|0:0,0:0:0:0:
251,221,103109,2,0,P|279:224|333:256,1,55
410,330,103355,6,0,P|450:282|509:278,1,110,2|0,0:0|0:0,0:0:0:0:
486,355,103723,1,0,0:0:0:0:
486,355,103846,1,2,0:0:0:0:
305,368,104092,1,0,0:0:0:0:
129,304,104338,1,2,0:0:0:0:
119,266,104461,1,0,0:0:0:0:
119,227,104584,2,0,L|122:168,1,55
18,116,104830,1,12,0:0:0:0:
28,154,104953,1,0,0:0:0:0:
28,193,105076,2,0,L|25:252,1,55
75,346,105322,6,0,P|134:317|206:341,1,110,2|0,0:0|0:0,0:0:0:0:
208,343,105691,1,0,0:0:0:0:
246,348,105814,1,2,0:0:0:0:
277,338,105937,1,0,0:0:0:0:
300,315,106060,1,0,0:0:0:0:
321,102,106305,6,0,P|374:106|426:87,1,110,2|0,0:0|0:0,0:0:0:0:
444,205,106674,1,0,0:0:0:0:
444,205,106797,2,0,P|391:201|339:220,1,110,12|2,0:0|0:0,0:0:0:0:
173,220,107289,6,0,P|122:201|68:205,1,110,2|0,0:0|0:0,0:0:0:0:
20,270,107658,1,0,0:0:0:0:
20,270,107781,1,2,0:0:0:0:
126,115,108027,2,0,L|58:106,1,55,0|2,0:0|0:0,0:0:0:0:
48,28,108273,1,0,0:0:0:0:
48,28,108396,2,0,L|102:35,1,55,2|0,0:0|0:0,0:0:0:0:
255,143,108764,1,12,0:0:0:0:
413,44,109010,1,2,0:0:0:0:
228,72,109256,6,0,P|236:101|247:128,1,55,2|0,0:0|0:0,0:0:0:0:
173,267,109502,2,0,P|202:274|230:278,1,55,0|2,0:0|0:0,0:0:0:0:
175,164,109748,2,0,P|196:185|219:202,1,55,8|2,0:0|0:0,0:0:0:0:
228,357,109994,2,0,P|257:349|284:338,1,55
366,249,110240,1,2,0:0:0:0:
367,210,110363,1,0,0:0:0:0:
368,171,110486,2,0,L|369:109,1,55,2|0,0:0|0:0,0:0:0:0:
465,195,110732,1,8,0:0:0:0:
467,140,110855,1,0,0:0:0:0:
470,85,110978,2,0,L|471:23,1,55,8|0,0:0|0:0,0:0:0:0:
327,20,111223,5,6,0:0:0:0:
248,45,112207,1,0,0:0:0:0:
275,122,113191,1,0,0:0:0:0:
354,101,114174,2,0,P|375:180|448:165,1,165
453,71,115158,5,6,0:0:0:0:
443,266,115404,1,4,0:0:0:0:
354,101,115650,1,8,0:0:0:0:
335,234,115896,1,4,0:0:0:0:
453,71,116141,1,2,0:0:0:0:
443,266,116387,1,2,0:0:0:0:
273,155,116633,1,8,0:0:0:0:
262,64,116879,5,4,0:0:0:0:
232,60,117002,1,0,0:0:0:0:
202,57,117125,2,0,P|159:58|103:68,1,98.9999969787599,2|4,0:0|0:0,0:0:0:0:
35,265,117617,2,0,P|78:266|134:276,1,98.9999969787599,8|4,0:0|0:0,0:0:0:0:
206,194,117986,1,0,0:0:0:0:
206,194,118109,2,0,P|163:193|107:183,1,98.9999969787599,2|6,0:0|0:0,0:0:0:0:
227,337,118600,2,0,P|270:338|326:348,1,98.9999969787599,10|4,0:0|0:0,0:0:0:0:
352,312,118969,5,0,0:0:0:0:
384,288,119092,1,2,0:0:0:0:
423,284,119215,1,0,0:0:0:0:
460,296,119338,2,0,P|457:250|477:195,1,98.9999969787599,4|8,0:0|0:0,0:0:0:0:
502,369,119830,1,4,0:0:0:0:
387,200,120076,2,0,L|388:78,1,98.9999969787599,2|2,0:0|0:0,0:0:0:0:
480,52,120568,1,8,0:0:0:0:
308,167,120814,6,0,L|248:203,1,49.4999984893799,4|0,0:0|0:0,0:0:0:0:
308,167,121060,2,0,P|257:175|203:156,1,98.9999969787599,2|4,0:0|0:0,0:0:0:0:
132,31,121551,1,8,0:0:0:0:
55,162,121797,2,2,L|88:209,1,49.4999984893799,4|0,0:0|0:0,0:0:0:0:
55,162,122043,2,0,P|49:228|31:261,1,98.9999969787599,2|6,0:0|0:0,0:0:0:0:
132,31,122535,1,10,0:0:0:0:
140,129,122781,2,2,L|137:190,1,49.4999984893799,4|0,0:0|0:0,0:0:0:0:
135,213,123027,5,2,0:0:0:0:
132,247,123150,1,0,0:0:0:0:
129,281,123273,1,4,0:0:0:0:
225,211,123519,1,8,0:0:0:0:
140,129,123764,1,4,0:0:0:0:
222,59,124010,2,0,P|267:50|347:70,1,98.9999969787599,2|2,0:0|0:0,0:0:0:0:
434,225,124502,1,8,0:0:0:0:
434,225,124748,5,4,0:0:0:0:
415,254,124871,1,0,0:0:0:0:
394,281,124994,2,2,L|339:273,1,49.4999984893799,2|0,0:0|0:0,0:0:0:0:
298,350,125240,2,0,L|185:338,1,98.9999969787599,0|8,0:0|0:0,0:0:0:0:
19,203,125732,5,4,0:0:0:0:
43,178,125855,1,0,0:0:0:0:
69,155,125978,2,2,P|95:158|119:174,1,49.4999984893799,2|0,0:0|0:0,0:0:0:0:
155,249,126224,2,0,L|268:237,1,98.9999969787599,2|10,0:0|0:0,0:0:0:0:
408,132,126715,2,2,L|343:124,1,49.4999984893799,4|0,0:0|0:0,0:0:0:0:
307,49,126961,5,6,0:0:0:0:
298,67,127084,1,0,0:0:0:0:
289,84,127207,2,0,P|246:78|180:97,1,98.9999969787599,4|8,0:0|0:0,0:0:0:0:
34,27,127699,1,4,0:0:0:0:
100,100,127945,2,0,P|110:154|94:207,1,98.9999969787599,2|2,0:0|0:0,0:0:0:0:
5,336,128437,1,8,0:0:0:0:
134,291,128682,2,2,L|184:297,1,49.4999984893799,0|0,0:0|0:0,0:0:0:0:
204,298,128928,6,2,P|250:284|330:299,1,98.9999969787599,2|0,0:0|0:0,0:0:0:0:
475,353,129420,1,8,0:0:0:0:
429,266,129666,2,2,L|433:206,1,49.4999984893799,0|0,0:0|0:0,0:0:0:0:
353,203,129912,2,2,L|372:146,1,49.4999984893799,2|0,0:0|0:0,0:0:0:0:
371,77,130158,2,0,P|325:95|265:85,1,98.9999969787599,2|10,0:0|0:0,0:0:0:0:
111,40,130650,1,4,0:0:0:0:
97,87,130773,1,0,0:0:0:0:
103,136,130896,6,0,P|115:189|95:254,1,98.9999969787599,6|0,0:0|0:0,0:0:0:0:
25,289,131387,1,8,0:0:0:0:
117,325,131633,1,0,0:0:0:0:
197,266,131879,1,2,0:0:0:0:
197,266,132002,1,0,0:0:0:0:
197,266,132125,1,2,0:0:0:0:
321,347,132371,2,0,P|366:351|430:328,1,98.9999969787599,8|0,0:0|0:0,0:0:0:0:
321,347,132863,6,0,L|325:182,1,148.49999546814,2|0,0:0|0:0,0:0:0:0:
324,148,133355,2,0,P|325:204|350:251,1,98.9999969787599,8|0,0:0|0:0,0:0:0:0:
457,73,133846,1,2,0:0:0:0:
455,122,133969,1,0,0:0:0:0:
453,171,134092,1,6,0:0:0:0:
336,49,134338,2,0,P|289:38|228:62,1,98.9999969787599,8|6,0:0|0:0,0:0:0:0:
192,126,134707,5,0,0:0:0:0:
192,126,134830,2,0,P|144:138|86:109,1,98.9999969787599,2|0,0:0|0:0,0:0:0:0:
33,2,135322,1,8,0:0:0:0:
31,214,135568,1,0,0:0:0:0:
47,260,135691,1,0,0:0:0:0:
78,297,135814,2,0,P|125:288|188:293,1,98.9999969787599,2|2,0:0|0:0,0:0:0:0:
242,330,136182,2,0,P|268:322|322:316,1,49.4999984893799,0|8,0:0|0:0,0:0:0:0:
388,339,136551,1,2,0:0:0:0:
474,201,136797,5,2,0:0:0:0:
383,161,137043,1,4,0:0:0:0:
463,103,137289,1,8,0:0:0:0:
300,213,137535,1,4,0:0:0:0:
198,80,137781,1,2,0:0:0:0:
289,120,138027,1,2,0:0:0:0:
289,120,138150,1,0,0:0:0:0:
289,120,138273,1,8,0:0:0:0:
227,290,138519,1,0,0:0:0:0:
129,278,138764,6,0,P|85:230|90:150,1,148.49999546814
42,166,139256,2,0,P|82:144|124:94,1,98.9999969787599,8|0,0:0|0:0,0:0:0:0:
26,66,139748,1,2,0:0:0:0:
207,115,139994,1,2,0:0:0:0:
391,42,140240,1,8,0:0:0:0:
313,113,140486,1,0,0:0:0:0:
297,216,140732,5,2,0:0:0:0:
297,216,140855,1,0,0:0:0:0:
297,216,140978,1,4,0:0:0:0:
181,308,141223,2,0,P|101:326|23:284,1,148.49999546814,8|0,0:0|0:0,0:0:0:0:
14,258,141715,1,2,0:0:0:0:
181,308,141961,1,6,0:0:0:0:
297,216,142207,2,0,P|347:213|416:229,1,98.9999969787599,8|6,0:0|0:0,0:0:0:0:
491,328,142699,6,0,P|424:329|340:314,1,148.49999546814,2|0,0:0|0:0,0:0:0:0:
295,301,143191,2,0,P|247:304|193:323,1,98.9999969787599,8|0,0:0|0:0,0:0:0:0:
51,229,143682,1,2,0:0:0:0:
106,311,143928,1,2,0:0:0:0:
191,152,144174,2,0,P|201:100|189:45,1,98.9999969787599,8|0,0:0|0:0,0:0:0:0:
114,27,144543,5,0,0:0:0:0:
114,27,144666,2,0,P|92:30|60:47,1,49.4999984893799,2|0,0:0|0:0,0:0:0:0:
27,119,144912,2,0,P|35:148|24:221,1,98.9999969787599,4|8,0:0|0:0,0:0:0:0:
159,320,145404,1,0,0:0:0:0:
207,331,145527,1,0,0:0:0:0:
253,314,145650,2,0,P|304:306|368:319,1,98.9999969787599,2|12,0:0|0:0,0:0:0:0:
203,232,146141,1,10,0:0:0:0:
159,320,146387,1,4,0:0:0:0:
378,225,146633,6,0,P|390:181|388:107,1,98.9999969787599,6|0,0:0|0:0,0:0:0:0:
338,43,147125,1,8,0:0:0:0:
492,135,147371,1,0,0:0:0:0:
299,162,147617,2,0,L|193:144,1,98.9999969787599,2|2,0:0|0:0,0:0:0:0:
175,102,147986,1,0,0:0:0:0:
150,59,148109,2,0,L|52:75,1,98.9999969787599,8|2,0:0|0:0,0:0:0:0:
122,213,148600,6,0,P|126:267|70:351,1,148.49999546814,2|0,0:0|0:0,0:0:0:0:
30,357,149092,2,0,P|79:347|145:362,1,98.9999969787599,8|0,0:0|0:0,0:0:0:0:
261,297,149584,1,2,0:0:0:0:
309,305,149707,1,0,0:0:0:0:
358,300,149830,1,6,0:0:0:0:
471,133,150076,1,8,0:0:0:0:
437,226,150322,1,6,0:0:0:0:
408,51,150568,5,2,0:0:0:0:
408,51,150691,1,0,0:0:0:0:
408,51,150814,1,0,0:0:0:0:
277,200,151060,2,0,P|226:207|140:189,1,98.9999969787599,8|0,0:0|0:0,0:0:0:0:
61,44,151551,1,2,0:0:0:0:
93,137,151797,1,2,0:0:0:0:
74,182,151920,1,0,0:0:0:0:
36,214,152043,2,0,P|33:240|39:269,1,49.4999984893799,8|0,0:0|0:0,0:0:0:0:
67,302,152289,1,0,0:0:0:0:
180,176,152535,6,0,P|186:114|161:64,1,98.9999969787599,2|4,0:0|0:0,0:0:0:0:
338,80,153027,2,0,P|324:127|332:176,1,98.9999969787599,8|4,0:0|0:0,0:0:0:0:
445,302,153519,1,6,0:0:0:0:
459,204,153764,1,2,0:0:0:0:
466,155,153887,1,0,0:0:0:0:
463,105,154010,2,0,L|448:5,1,98.9999969787599,8|0,0:0|0:0,0:0:0:0:
331,175,154502,6,0,L|357:336,1,148.49999546814,2|0,0:0|0:0,0:0:0:0:
367,369,154994,2,0,P|322:353|256:363,1,98.9999969787599,8|0,0:0|0:0,0:0:0:0:
149,233,155486,1,2,0:0:0:0:
176,328,155732,1,2,0:0:0:0:
225,168,155978,2,0,P|228:111|207:70,1,98.9999969787599,8|0,0:0|0:0,0:0:0:0:
50,46,156469,5,2,0:0:0:0:
50,46,156592,1,0,0:0:0:0:
50,46,156715,1,4,0:0:0:0:
26,191,156961,1,8,0:0:0:0:
31,220,157084,1,0,0:0:0:0:
151,132,157330,1,0,0:0:0:0:
160,104,157453,1,2,0:0:0:0:
26,191,157699,1,6,0:0:0:0:
50,46,157945,2,0,P|101:44|148:23,1,98.9999969787599,8|4,0:0|0:0,0:0:0:0:
284,79,158437,6,0,P|356:51|451:76,1,148.49999546814,2|2,0:0|0:0,0:0:0:0:
478,9,158928,2,0,L|488:117,1,98.9999969787599,8|6,0:0|0:0,0:0:0:0:
414,298,159420,2,0,L|424:190,1,98.9999969787599,2|2,0:0|0:0,0:0:0:0:
379,174,159789,1,0,0:0:0:0:
379,174,159912,2,0,P|337:188|276:182,1,98.9999969787599,8|4,0:0|0:0,0:0:0:0:
205,64,160404,6,0,P|119:52|56:94,1,148.49999546814,2|2,0:0|0:0,0:0:0:0:
4,40,160896,2,0,L|17:156,1,98.9999969787599,8|6,0:0|0:0,0:0:0:0:
29,236,161387,1,2,0:0:0:0:
148,158,161633,1,2,0:0:0:0:
192,180,161756,1,0,0:0:0:0:
238,183,161879,2,0,P|286:174|339:192,1,98.9999969787599,12|4,0:0|0:0,0:0:0:0:
277,317,162371,6,0,P|212:328|122:299,1,153.999995300293,6|2,0:0|0:0,0:0:0:0:
18,322,163109,2,0,L|31:238,1,76.9999976501466,0|2,0:0|0:0,0:0:0:0:
173,215,163600,2,0,L|160:131,1,76.9999976501466,0|2,0:0|0:0,0:0:0:0:
0,170,164092,2,0,L|53:103,1,76.9999976501466,0|2,0:0|0:0,0:0:0:0:
132,44,164584,1,0,0:0:0:0:
230,85,164830,2,0,P|314:89|394:62,2,153.999995300293,2|2|2,0:0|0:0|0:0,0:0:0:0:
455,153,166305,6,0,L|441:318,1,153.999995300293,6|2,0:0|0:0,0:0:0:0:
441,306,167289,2,0,P|405:310|357:298,1,76.9999976501466,2|0,0:0|0:0,0:0:0:0:
300,259,167781,2,0,P|262:254|212:271,1,76.9999976501466,2|0,0:0|0:0,0:0:0:0:
196,335,168273,2,0,P|217:241|189:193,1,153.999995300293,2|2,0:0|0:0,0:0:0:0:
36,201,169256,2,0,P|15:295|43:343,1,153.999995300293,2|2,0:0|0:0,0:0:0:0:
190,194,170240,5,6,0:0:0:0:
167,109,170732,1,2,0:0:0:0:
103,48,171223,1,2,0:0:0:0:
186,75,171715,1,2,0:0:0:0:
272,58,172207,2,0,P|355:44|445:76,1,153.999995300293,2|2,0:0|0:0,0:0:0:0:
413,218,173191,2,0,P|330:232|240:200,1,153.999995300293,2|2,0:0|0:0,0:0:0:0:
148,111,174174,5,6,0:0:0:0:
70,244,174666,1,2,0:0:0:0:
118,303,174912,2,0,P|155:315|221:312,1,76.9999976501466,0|2,0:0|0:0,0:0:0:0:
351,266,175404,2,0,P|314:278|248:275,1,76.9999976501466,0|2,0:0|0:0,0:0:0:0:
134,267,175896,2,0,P|160:295|218:326,1,76.9999976501466,0|2,0:0|0:0,0:0:0:0:
400,338,176387,2,0,P|363:349|325:352,1,76.9999976501466,0|2,0:0|0:0,0:0:0:0:
407,195,176879,2,0,P|444:184|483:184,1,76.9999976501466,0|2,0:0|0:0,0:0:0:0:
269,179,177371,1,0,0:0:0:0:
269,179,177617,2,0,P|232:167|193:166,1,76.9999976501466,2|0,0:0|0:0,0:0:0:0:
45,34,178109,5,6,0:0:0:0:
18,129,178355,1,4,0:0:0:0:
18,129,178478,1,0,0:0:0:0:
18,129,178600,2,0,P|35:167|35:230,1,98.9999969787599,2|4,0:0|0:0,0:0:0:0:
169,333,179092,1,2,0:0:0:0:
244,269,179338,1,8,0:0:0:0:
244,269,179461,1,8,0:0:0:0:
244,269,179584,2,0,P|288:284|349:274,1,98.9999969787599,2|8,0:0|0:0,0:0:0:0:
493,185,180076,6,0,P|444:178|397:194,1,98.9999969787599,2|4,0:0|0:0,0:0:0:0:
283,81,180568,1,2,0:0:0:0:
300,178,180814,1,4,0:0:0:0:
186,60,181060,2,0,P|138:55|75:73,1,98.9999969787599,2|8,0:0|0:0,0:0:0:0:
57,104,181428,1,8,0:0:0:0:
9,88,181551,2,0,P|25:133|22:190,1,98.9999969787599,10|8,0:0|0:0,0:0:0:0:
113,301,182043,6,0,P|167:309|217:284,1,98.9999969787599,6|4,0:0|0:0,0:0:0:0:
209,242,182412,1,0,0:0:0:0:
198,193,182535,2,0,P|144:185|94:210,1,98.9999969787599,2|4,0:0|0:0,0:0:0:0:
268,118,183027,1,2,0:0:0:0:
358,168,183273,1,8,0:0:0:0:
358,168,183396,1,8,0:0:0:0:
358,168,183519,2,0,P|403:158|485:175,1,98.9999969787599,2|8,0:0|0:0,0:0:0:0:
460,310,184010,6,0,P|415:320|333:303,1,98.9999969787599,2|4,0:0|0:0,0:0:0:0:
293,282,184379,1,8,0:0:0:0:
293,282,184502,2,0,P|269:285|231:295,1,49.4999984893799,2|8,0:0|0:0,0:0:0:0:
170,342,184748,2,0,P|145:336|121:333,1,49.4999984893799,4|8,0:0|0:0,0:0:0:0:
40,293,184994,2,0,L|29:183,1,98.9999969787599,2|8,0:0|0:0,0:0:0:0:
131,67,185486,2,0,L|120:177,1,98.9999969787599,10|8,0:0|0:0,0:0:0:0:
233,277,185978,6,0,P|274:283|350:261,1,98.9999969787599,6|4,0:0|0:0,0:0:0:0:
403,324,186346,1,0,0:0:0:0:
403,324,186469,2,0,L|412:224,1,98.9999969787599,2|4,0:0|0:0,0:0:0:0:
318,137,186961,2,0,P|277:131|201:153,1,98.9999969787599,2|8,0:0|0:0,0:0:0:0:
148,90,187329,1,8,0:0:0:0:
148,90,187453,2,0,L|138:198,1,98.9999969787599,2|8,0:0|0:0,0:0:0:0:
270,300,187945,6,0,B|221:282|173:293,1,98.9999969787599,2|4,0:0|0:0,0:0:0:0:
143,300,188314,1,0,0:0:0:0:
117,314,188437,1,2,0:0:0:0:
359,328,188682,1,4,0:0:0:0:
386,317,188805,1,8,0:0:0:0:
413,305,188928,2,0,P|419:251|405:199,1,98.9999969787599,2|8,0:0|0:0,0:0:0:0:
454,36,189420,2,0,P|476:80|484:129,1,98.9999969787599,10|8,0:0|0:0,0:0:0:0:
315,126,189912,5,14,0:0:0:0:
315,126,190158,1,2,0:0:0:0:
315,126,190404,1,2,0:0:0:0:
315,126,190650,1,2,0:0:0:0:
315,126,190896,1,2,0:0:0:0:
315,126,191141,1,2,0:0:0:0:
315,126,191387,2,0,L|320:236,1,98.9999969787599,2|2,0:0|0:0,0:0:0:0:
255,300,191879,5,2,0:0:0:0:
138,276,192125,1,2,0:0:0:0:
225,383,192371,1,2,0:0:0:0:
204,225,192617,1,2,0:0:0:0:
356,318,192863,1,8,0:0:0:0:
159,345,193109,5,8,0:0:0:0:
215,134,193355,1,8,0:0:0:0:
415,259,193600,1,8,0:0:0:0:
81,134,193846,5,4,0:0:0:0:
173,73,195322,2,0,P|230:63|288:81,1,110,2|8,0:0|0:0,0:0:0:0:
329,149,196797,2,0,P|331:95|367:50,1,110,2|8,0:0|0:0,0:0:0:0:
503,106,197781,6,0,P|501:160|465:205,1,110,2|2,0:0|0:0,0:0:0:0:
386,218,198519,1,0,0:0:0:0:
386,218,199010,1,0,0:0:0:0:
386,218,199502,1,8,0:0:0:0:
305,238,199748,2,0,L|246:233,2,55,0|2|0,0:0|0:0|0:0,0:0:0:0:
169,143,200732,2,0,L|174:214,1,55
185,279,201223,2,0,P|205:304|230:321,1,55,2|0,0:0|0:0,0:0:0:0:
304,336,201715,6,0,P|258:333|186:371,1,110,4|0,0:0|0:0,0:0:0:0:
122,329,202453,2,0,P|105:282|125:228,2,110,2|0|2,0:0|0:0|0:0,0:0:0:0:
189,281,203682,2,0,P|218:280|248:286,1,55,8|2,0:0|0:0,0:0:0:0:
309,334,204174,1,8,0:0:0:0:
420,212,204666,1,8,0:0:0:0:
376,371,205158,1,2,0:0:0:0:
337,210,205650,6,0,P|331:152|348:97,1,110,8|2,0:0|0:0,0:0:0:0:
285,45,206387,2,0,P|233:60|169:51,2,110,0|0|2,0:0|0:0|0:0,0:0:0:0:
365,27,207617,1,8,0:0:0:0:
425,82,207863,2,0,P|430:113|432:143,1,55,2|0,0:0|0:0,0:0:0:0:
405,215,208355,1,2,0:0:0:0:
486,206,208600,2,0,L|476:319,1,110,0|8,0:0|0:0,0:0:0:0:
431,136,209584,5,4,0:0:0:0:
319,280,209830,1,0,0:0:0:0:
319,280,209953,2,0,P|283:293|199:288,1,88,2|0,0:0|0:0,0:0:0:0:
157,266,210322,1,2,0:0:0:0:
39,324,210568,2,0,L|35:369,2,44,4|0|0,0:0|0:0|0:0,0:0:0:0:
40,279,210937,1,2,0:0:0:0:
33,235,211060,1,2,0:0:0:0:
33,235,211182,2,0,P|52:196|52:146,1,88,0|2,0:0|0:0,0:0:0:0:
22,81,211551,5,8,0:0:0:0:
135,169,211797,1,0,0:0:0:0:
108,85,212043,1,0,0:0:0:0:
220,173,212289,1,2,0:0:0:0:
304,66,212535,2,0,L|355:83,1,44,4|0,0:0|0:0,0:0:0:0:
378,159,212781,2,0,L|361:210,1,44,4|2,0:0|0:0,0:0:0:0:
493,135,213027,2,0,L|442:118,1,44,4|0,0:0|0:0,0:0:0:0:
419,42,213273,2,0,L|436:-9,1,44,4|2,0:0|0:0,0:0:0:0:
488,220,213519,6,0,P|499:178|493:135,1,88,4|8,0:0|0:0,0:0:0:0:
421,175,213887,2,0,P|409:217|416:260,1,88,2|0,0:0|0:0,0:0:0:0:
484,296,214256,1,2,0:0:0:0:
360,323,214502,1,4,0:0:0:0:
333,319,214625,1,0,0:0:0:0:
306,316,214748,2,0,L|244:325,1,44,0|2,0:0|0:0,0:0:0:0:
197,273,214994,1,2,0:0:0:0:
177,290,215117,2,0,P|139:273|92:270,1,88,0|2,0:0|0:0,0:0:0:0:
27,228,215486,5,8,0:0:0:0:
116,360,215732,1,0,0:0:0:0:
246,245,215978,1,0,0:0:0:0:
301,332,216224,1,0,0:0:0:0:
425,211,216469,2,0,P|426:181|423:157,1,44,4|0,0:0|0:0,0:0:0:0:
482,105,216715,2,0,P|490:76|494:52,1,44,4|2,0:0|0:0,0:0:0:0:
355,42,216961,2,0,P|354:72|357:96,1,44,4|0,0:0|0:0,0:0:0:0:
298,148,217207,2,0,P|289:176|285:200,1,44,4|2,0:0|0:0,0:0:0:0:
317,289,217453,6,0,P|278:278|201:290,1,88,8|0,0:0|0:0,0:0:0:0:
168,327,217822,2,0,P|127:311|59:311,1,88,2|0,0:0|0:0,0:0:0:0:
11,336,218191,1,2,0:0:0:0:
90,198,218437,1,4,0:0:0:0:
93,171,218560,1,0,0:0:0:0:
94,144,218682,2,0,L|88:86,1,44,0|2,0:0|0:0,0:0:0:0:
174,26,218928,1,0,0:0:0:0:
173,40,219051,2,0,L|168:141,1,88,0|2,0:0|0:0,0:0:0:0:
251,104,219420,5,8,0:0:0:0:
372,198,219666,1,0,0:0:0:0:
289,181,219912,1,0,0:0:0:0:
441,252,220158,1,2,0:0:0:0:
296,338,220404,2,0,P|270:334|231:323,1,44,4|0,0:0|0:0,0:0:0:0:
169,336,220650,2,0,P|173:310|184:271,1,44,4|2,0:0|0:0,0:0:0:0:
163,167,220896,2,0,P|159:193|148:232,1,44,4|0,0:0|0:0,0:0:0:0:
36,165,221141,2,0,P|62:169|101:180,1,44,8|2,0:0|0:0,0:0:0:0:
184,94,221387,6,0,P|240:72|323:88,1,131.99999597168,6|0,0:0|0:0,0:0:0:0:
353,155,222125,1,0,0:0:0:0:
477,36,222617,1,0,0:0:0:0:
426,200,223109,2,0,B|414:235|434:271|434:271|405:266|378:281|378:281|343:271|310:282,1,197.99999395752
256,192,224338,12,14,225322,0:0:0:0:
258,194,225568,5,4,0:0:0:0:
249,248,225691,1,0,0:0:0:0:
205,282,225814,2,0,P|158:246|80:252,1,110,8|4,0:0|0:0,0:0:0:0:
34,270,226182,1,0,0:0:0:0:
34,270,226305,2,0,L|39:339,1,55,2|0,0:0|0:0,0:0:0:0:
51,137,226551,2,0,L|46:206,1,55,4|0,0:0|0:0,0:0:0:0:
129,328,226797,2,0,P|176:364|254:358,1,110,10|4,0:0|0:0,0:0:0:0:
299,326,227166,5,0,0:0:0:0:
299,326,227289,2,0,P|345:315|432:335,1,110,2|4,0:0|0:0,0:0:0:0:
475,279,227658,1,0,0:0:0:0:
475,279,227781,2,0,L|459:168,1,110,8|4,0:0|0:0,0:0:0:0:
504,102,228150,1,2,0:0:0:0:
494,95,228273,2,0,P|465:83|428:89,1,55,2|0,0:0|0:0,0:0:0:0:
380,146,228519,2,0,L|383:204,1,55,6|0,0:0|0:0,0:0:0:0:
239,226,228764,2,0,P|211:227|187:216,1,55,12|0,0:0|0:0,0:0:0:0:
298,110,229010,2,0,L|301:165,1,55,12|0,0:0|0:0,0:0:0:0:
254,300,229256,6,0,P|192:302|136:273,1,110,2|4,0:0|0:0,0:0:0:0:
110,215,229625,1,0,0:0:0:0:
110,215,229748,2,0,P|70:249|-7:252,1,110,8|4,0:0|0:0,0:0:0:0:
119,64,230240,2,0,P|151:67|184:78,1,55,2|0,0:0|0:0,0:0:0:0:
242,119,230486,2,0,P|268:111|295:109,1,55,4|0,0:0|0:0,0:0:0:0:
356,53,230732,2,0,L|351:187,1,110,12|4,0:0|0:0,0:0:0:0:
400,250,231100,5,0,0:0:0:0:
400,250,231223,2,0,P|457:265|515:250,1,110,2|4,0:0|0:0,0:0:0:0:
457,167,231592,1,0,0:0:0:0:
457,167,231715,2,0,P|400:152|342:167,1,110,8|4,0:0|0:0,0:0:0:0:
289,248,232084,1,2,0:0:0:0:
292,258,232207,2,0,L|305:320,1,55,2|0,0:0|0:0,0:0:0:0:
160,282,232453,2,0,L|147:220,1,55,6|0,0:0|0:0,0:0:0:0:
252,95,232699,2,0,L|240:148,1,55,12|0,0:0|0:0,0:0:0:0:
60,248,232945,2,0,L|49:195,1,55,8|0,0:0|0:0,0:0:0:0:
204,187,233191,6,0,L|193:352,1,165,2|4,0:0|0:0,0:0:0:0:
120,374,233682,1,8,0:0:0:0:
49,195,233928,1,4,0:0:0:0:
49,195,234051,1,2,0:0:0:0:
49,195,234174,1,2,0:0:0:0:
125,44,234420,1,6,0:0:0:0:
285,151,234666,2,0,P|338:157|417:131,1,110,12|4,0:0|0:0,0:0:0:0:
441,335,235158,6,0,P|368:342|270:286,1,165,2|4,0:0|0:0,0:0:0:0:
194,225,235650,2,0,P|138:223|78:250,1,110,8|4,0:0|0:0,0:0:0:0:
15,205,236019,1,2,0:0:0:0:
15,205,236141,1,2,0:0:0:0:
161,367,236387,1,2,0:0:0:0:
172,143,236633,2,0,P|225:159|320:153,1,110,12|4,0:0|0:0,0:0:0:0:
468,289,237125,6,0,L|480:166,1,110,2|4,0:0|0:0,0:0:0:0:
488,100,237494,1,0,0:0:0:0:
488,100,237617,2,0,P|442:71|374:84,1,110,8|4,0:0|0:0,0:0:0:0:
297,172,237986,1,2,0:0:0:0:
293,181,238109,2,0,L|311:305,1,110,2|6,0:0|0:0,0:0:0:0:
47,145,238600,1,12,0:0:0:0:
47,145,238846,6,0,P|48:175|46:211,1,55,2|0,0:0|0:0,0:0:0:0:
95,324,239092,2,0,P|94:297|94:270,1,55,2|0,0:0|0:0,0:0:0:0:
162,169,239338,2,0,P|205:148|270:148,1,110,2|8,0:0|0:0,0:0:0:0:
470,249,239830,2,0,L|462:309,1,55,4|2,0:0|0:0,0:0:0:0:
488,375,240076,2,0,P|434:349|365:366,1,110,2|6,0:0|0:0,0:0:0:0:
228,311,240568,2,0,P|282:315|330:290,1,110,12|8,0:0|0:0,0:0:0:0:
426,133,241060,6,0,P|377:160|346:227,1,110,6|4,0:0|0:0,0:0:0:0:
330,290,241428,1,0,0:0:0:0:
330,290,241551,2,0,P|282:315|228:311,1,110,8|4,0:0|0:0,0:0:0:0:
137,230,241920,1,0,0:0:0:0:
137,230,242043,2,0,L|132:162,1,55,2|0,0:0|0:0,0:0:0:0:
62,329,242289,2,0,L|57:261,1,55,4|0,0:0|0:0,0:0:0:0:
51,128,242535,2,0,P|96:91|190:102,1,110,12|4,0:0|0:0,0:0:0:0:
279,39,242904,5,0,0:0:0:0:
279,39,243027,2,0,P|333:33|388:54,1,110,2|4,0:0|0:0,0:0:0:0:
438,175,243396,1,0,0:0:0:0:
438,175,243519,2,0,P|470:218|479:276,1,110,8|4,0:0|0:0,0:0:0:0:
354,298,243887,1,2,0:0:0:0:
354,298,244010,2,0,P|337:269|334:238,1,55,2|0,0:0|0:0,0:0:0:0:
279,121,244256,2,0,P|281:149|266:191,1,55,6|0,0:0|0:0,0:0:0:0:
138,233,244502,2,0,L|75:227,1,55,12|0,0:0|0:0,0:0:0:0:
11,351,244748,2,0,L|65:356,1,55,12|0,0:0|0:0,0:0:0:0:
210,334,244994,6,0,P|256:318|348:339,1,110,2|4,0:0|0:0,0:0:0:0:
400,351,245363,1,0,0:0:0:0:
400,351,245486,2,0,P|455:344|499:301,1,110,8|4,0:0|0:0,0:0:0:0:
494,183,245855,1,0,0:0:0:0:
494,183,245978,2,0,L|490:124,1,55,2|0,0:0|0:0,0:0:0:0:
342,70,246223,2,0,L|379:111,1,55,4|0,0:0|0:0,0:0:0:0:
298,205,246469,2,0,P|242:193|169:213,1,110,12|4,0:0|0:0,0:0:0:0:
93,278,246838,5,0,0:0:0:0:
93,278,246961,2,0,P|64:226|71:163,1,110,2|4,0:0|0:0,0:0:0:0:
169,21,247330,1,0,0:0:0:0:
169,21,247453,2,0,P|169:75|141:122,1,110,8|4,0:0|0:0,0:0:0:0:
28,40,247822,1,2,0:0:0:0:
28,40,247945,2,0,L|58:95,1,55,2|0,0:0|0:0,0:0:0:0:
104,224,248191,2,0,P|102:252|83:292,1,55,6|0,0:0|0:0,0:0:0:0:
212,171,248437,2,0,L|277:179,1,55,12|0,0:0|0:0,0:0:0:0:
396,94,248682,2,0,P|405:68|407:40,1,55,12|0,0:0|0:0,0:0:0:0:
349,168,248928,6,0,L|361:337,1,165,2|0,0:0|0:0,0:0:0:0:
391,355,249420,2,0,P|438:331|506:337,1,110,8|4,0:0|0:0,0:0:0:0:
470,228,249789,1,2,0:0:0:0:
470,228,249912,2,0,P|421:252|366:250,1,110,2|6,0:0|0:0,0:0:0:0:
167,147,250404,2,0,P|110:135|43:167,1,110,12|4,0:0|0:0,0:0:0:0:
240,300,250896,6,0,P|175:342|73:345,1,165,2|0,0:0|0:0,0:0:0:0:
16,321,251387,1,8,0:0:0:0:
167,147,251633,1,4,0:0:0:0:
159,109,251756,1,2,0:0:0:0:
153,70,251879,1,2,0:0:0:0:
118,224,252125,1,6,0:0:0:0:
263,329,252371,2,0,P|316:335|373:320,1,110,12|4,0:0|0:0,0:0:0:0:
485,361,252863,6,0,P|471:300|483:233,1,110,2|4,0:0|0:0,0:0:0:0:
479,144,253232,1,0,0:0:0:0:
479,144,253355,2,0,P|484:201|472:265,1,110,8|4,0:0|0:0,0:0:0:0:
370,321,253723,1,2,0:0:0:0:
370,321,253846,2,0,L|261:308,1,110,2|6,0:0|0:0,0:0:0:0:
67,157,254338,1,12,0:0:0:0:
67,157,254584,2,0,L|77:228,1,55,2|0,0:0|0:0,0:0:0:0:
135,347,254830,6,0,L|141:282,1,55,2|0,0:0|0:0,0:0:0:0:
206,173,255076,2,0,P|207:109|193:64,1,110,2|8,0:0|0:0,0:0:0:0:
430,141,255568,2,0,P|461:143|496:135,1,55,4|2,0:0|0:0,0:0:0:0:
363,24,255814,2,0,P|360:51|366:89,1,55,2|0,0:0|0:0,0:0:0:0:
304,184,256060,2,0,P|314:208|339:238,1,55,6|0,0:0|0:0,0:0:0:0:
476,288,256305,2,0,P|423:278|343:324,1,110,12|6,0:0|0:0,0:0:0:0:
171,341,256797,5,6,0:0:0:0:
256,192,256920,12,0,259256,0:0:0:0:
447,63,260732,6,0,P|458:120|404:222,2,165,4|0|0,0:0|0:0|0:0,0:0:0:0:
339,40,262699,2,0,L|206:45,1,110,8|0,0:0|0:0,0:0:0:0:
184,144,263682,2,0,L|317:139,1,110,2|0,0:0|0:0,0:0:0:0:
288,250,264666,6,0,L|106:238,2,165,8|0|0,0:0|0:0|0:0,0:0:0:0:
375,316,266633,2,0,P|404:263|393:211,1,110,2|0,0:0|0:0,0:0:0:0:
333,125,267617,2,0,P|306:120|264:121,1,55
203,146,268109,2,0,P|178:147|142:141,1,55
90,84,268600,6,0,P|111:156|71:236,2,165,4|0|2,0:0|0:0|0:0,0:0:0:0:
191,39,270568,2,0,L|185:162,1,110,8|0,0:0|0:0,0:0:0:0:
263,317,271551,2,0,L|257:207,1,110,2|0,0:0|0:0,0:0:0:0:
336,64,272535,6,0,P|392:53|467:72,1,110,8|0,0:0|0:0,0:0:0:0:
486,133,273273,2,0,L|481:263,2,110,2|0|2,0:0|0:0|0:0,0:0:0:0:
402,132,274502,2,0,L|399:243,1,110,8|0,0:0|0:0,0:0:0:0:
442,312,275240,1,0,0:0:0:0:
442,312,275486,2,0,P|398:292|328:297,1,110,0|2,0:0|0:0,0:0:0:0:
236,338,276469,6,0,B|153:348|153:348|56:308,2,165,4|0|2,0:0|0:0|0:0,0:0:0:0:
229,228,278437,2,0,P|177:208|111:215,1,110,8|0,0:0|0:0,0:0:0:0:
56,123,279420,2,0,P|100:127|184:98,1,110,2|0,0:0|0:0,0:0:0:0:
255,49,280404,6,0,P|330:40|419:66,2,165,8|0|0,0:0|0:0|0:0,0:0:0:0:
257,159,282371,2,0,L|256:271,1,110,2|0,0:0|0:0,0:0:0:0:
349,327,283355,2,0,L|417:319,1,55
445,249,283846,2,0,L|377:241,1,55
340,175,284338,6,0,P|329:90|388:37,2,165,4|0|0,0:0|0:0|0:0,0:0:0:0:
266,257,286305,2,0,P|212:272|155:249,1,110,8|0,0:0|0:0,0:0:0:0:
4,182,287289,2,0,P|58:167|115:190,1,110,2|0,0:0|0:0,0:0:0:0:
162,254,288273,6,0,L|156:368,1,110,8|0,0:0|0:0,0:0:0:0:
231,334,289010,2,0,P|288:326|346:342,1,110,2|0,0:0|0:0,0:0:0:0:
442,254,289994,2,0,L|436:144,2,110,8|0|0,0:0|0:0|0:0,0:0:0:0:
224,314,292207,6,0,P|145:337|72:294,2,165,4|0|0,0:0|0:0|0:0,0:0:0:0:
293,164,294174,2,0,P|331:134|391:129,1,110,4|0,0:0|0:0,0:0:0:0:
441,286,295158,2,0,P|403:316|343:321,1,110,8|0,0:0|0:0,0:0:0:0:
223,207,296141,6,0,L|44:201,2,165,4|0|0,0:0|0:0|0:0,0:0:0:0:
306,64,298109,2,0,L|485:58,2,165,8|0|0,0:0|0:0|0:0,0:0:0:0:
157,136,300076,6,0,P|150:197|203:281,2,165,4|0|0,0:0|0:0|0:0,0:0:0:0:
287,237,302043,2,0,P|294:301|268:347,1,110,4|0,0:0|0:0,0:0:0:0:
388,221,303027,2,0,P|381:157|407:111,1,110,8|0,0:0|0:0,0:0:0:0:
481,261,304010,1,8,0:0:0:0:
