osu file format v14

[General]
AudioFilename: audio.mp3
AudioLeadIn: 0
PreviewTime: 56019
Countdown: 0
SampleSet: Normal
StackLeniency: 0.7
Mode: 3
LetterboxInBreaks: 0
SpecialStyle: 0
WidescreenStoryboard: 1

[Editor]
DistanceSpacing: 1
BeatDivisor: 8
GridSize: 32
TimelineZoom: 1.5

[Metadata]
Title:KISS OF DEATH (Produced by HYDE)
TitleUnicode:KISS OF DEATH (Produced by HYDE)
Artist:Mika Nakashima
ArtistUnicode:中島美嘉
Creator:Mat
Version:Darling
Source:ダーリン・イン・ザ・フランキス
Tags:
BeatmapID:1658626
BeatmapSetID:790461

[Difficulty]
HPDrainRate:8
CircleSize:4
OverallDifficulty:9
ApproachRate:5
SliderMultiplier:1.4
SliderTickRate:1

[Events]
//Background and Video events
0,0,"thumb-1920-901811.jpg",0,0
//Break Periods
//Storyboard Layer 0 (Background)
//Storyboard Layer 1 (Fail)
//Storyboard Layer 2 (Pass)
//Storyboard Layer 3 (Foreground)
//Storyboard Sound Samples

[TimingPoints]
1062,491.788363338789,4,1,0,50,1,0
36470,-100,4,1,0,50,0,0
52202,-50,4,1,0,50,0,0
52207,-111.111111111111,4,1,0,50,0,0
52325,-50,4,1,0,50,0,0
52330,-111.111111111111,4,1,0,50,0,0
52448,-45.4545454545455,4,1,0,50,0,0
52453,-111.111111111111,4,1,0,50,0,0
52571,-41.6666666666667,4,1,0,50,0,0
52576,-117.647058823529,4,1,0,50,0,0
52694,-38.4615384615385,4,1,0,50,0,0
52699,-117.647058823529,4,1,0,50,0,0
52817,-35.7142857142857,4,1,0,50,0,0
52822,-117.647058823529,4,1,0,50,0,0
52940,-33.3333333333333,4,1,0,50,0,0
52945,-117.647058823529,4,1,0,50,0,0
53063,-31.25,4,1,0,50,0,0
53068,-125,4,1,0,50,0,0
53186,-29.4117647058824,4,1,0,50,0,0
53191,-117.647058823529,4,1,0,50,0,0
53309,-27.7777777777778,4,1,0,50,0,0
53314,-117.647058823529,4,1,0,50,0,0
53432,-26.3157894736842,4,1,0,50,0,0
53437,-117.647058823529,4,1,0,50,0,0
53555,-25,4,1,0,50,0,0
53560,-125,4,1,0,50,0,0
53678,-23.8095238095238,4,1,0,50,0,0
53683,-125,4,1,0,50,0,0
53801,-22.7272727272727,4,1,0,50,0,0
53806,-125,4,1,0,50,0,0
53924,-21.7391304347826,4,1,0,50,0,0
53929,-125,4,1,0,50,0,0
54047,-20.8333333333333,4,1,0,50,0,0
54052,-125,4,1,0,50,0,0
54170,-20,4,1,0,50,0,0
54175,-133.333333333333,4,1,0,50,0,0
54293,-20,4,1,0,50,0,0
54298,-133.333333333333,4,1,0,50,0,0
54416,-20,4,1,0,50,0,0
54421,-133.333333333333,4,1,0,50,0,0
54539,-19.6078431372549,4,1,0,50,0,0
54543,-133.333333333333,4,1,0,50,0,0
54661,-19.2307692307692,4,1,0,50,0,0
54666,-133.333333333333,4,1,0,50,0,0
54784,-18.8679245283019,4,1,0,50,0,0
54789,-133.333333333333,4,1,0,50,0,0
54907,-18.5185185185185,4,1,0,50,0,0
54912,-133.333333333333,4,1,0,50,0,0
55030,-18.1818181818182,4,1,0,50,0,0
55035,-133.333333333333,4,1,0,50,0,0
55153,-17.8571428571429,4,1,0,50,0,0
55158,-133.333333333333,4,1,0,50,0,0
55276,-17.5438596491228,4,1,0,50,0,0
55281,-133.333333333333,4,1,0,50,0,0
55399,-17.2413793103448,4,1,0,50,0,0
55404,-133.333333333333,4,1,0,50,0,0
55522,-16.9491525423729,4,1,0,50,0,0
55527,-133.333333333333,4,1,0,50,0,0
55645,-16.6666666666667,4,1,0,50,0,0
55650,-1000,4,1,0,50,0,0
55773,-20,4,1,0,50,0,0
55896,-1000,4,1,0,50,0,0
55957,-500,4,1,0,50,0,0
56019,-333.333333333333,4,1,0,50,0,0
56050,-250,4,1,0,50,0,0
56080,-200,4,1,0,50,0,0
56111,-166.666666666667,4,1,0,50,0,0
56132,-142.857142857143,4,1,0,50,0,1
56142,-100,4,1,0,50,0,1
69912,-100,4,1,0,50,0,0
71879,-100,4,1,0,50,0,1
87616,-100,4,1,0,50,0,0

[HitObjects]
64,192,1062,5,0,0:0:0:0:
448,192,1062,1,0,0:0:0:0:
320,192,1307,1,0,0:0:0:0:
448,192,1307,1,0,0:0:0:0:
192,192,1430,1,0,0:0:0:0:
320,192,1553,1,0,0:0:0:0:
64,192,1676,1,0,0:0:0:0:
448,192,1799,1,0,0:0:0:0:
320,192,1799,1,0,0:0:0:0:
64,192,2045,1,0,0:0:0:0:
320,192,2045,1,0,0:0:0:0:
192,192,2168,1,0,0:0:0:0:
320,192,2291,1,0,0:0:0:0:
448,192,2414,1,0,0:0:0:0:
64,192,2537,1,0,0:0:0:0:
320,192,2537,1,0,0:0:0:0:
192,192,2783,1,0,0:0:0:0:
320,192,2783,1,0,0:0:0:0:
448,192,3029,1,0,0:0:0:0:
320,192,3029,1,0,0:0:0:0:
64,192,3275,1,0,0:0:0:0:
320,192,3275,1,0,0:0:0:0:
448,192,3397,1,0,0:0:0:0:
320,192,3520,1,0,0:0:0:0:
192,192,3643,1,0,0:0:0:0:
448,192,3766,1,0,0:0:0:0:
64,192,3766,1,0,0:0:0:0:
192,192,4012,1,0,0:0:0:0:
320,192,4012,1,0,0:0:0:0:
64,192,4135,1,0,0:0:0:0:
320,192,4258,1,0,0:0:0:0:
192,192,4381,1,0,0:0:0:0:
448,192,4504,1,0,0:0:0:0:
320,192,4504,1,0,0:0:0:0:
192,192,4750,1,0,0:0:0:0:
320,192,4750,1,0,0:0:0:0:
448,192,4996,1,0,0:0:0:0:
64,192,4996,1,0,0:0:0:0:
192,192,5242,1,0,0:0:0:0:
64,192,5242,1,0,0:0:0:0:
320,192,5365,1,0,0:0:0:0:
64,192,5488,1,0,0:0:0:0:
192,192,5611,1,0,0:0:0:0:
320,192,5733,1,0,0:0:0:0:
64,192,5733,1,0,0:0:0:0:
448,192,5979,1,0,0:0:0:0:
64,192,5979,1,0,0:0:0:0:
320,192,6102,1,0,0:0:0:0:
64,192,6225,1,0,0:0:0:0:
192,192,6348,1,0,0:0:0:0:
448,192,6471,1,0,0:0:0:0:
64,192,6471,1,0,0:0:0:0:
192,192,6717,1,0,0:0:0:0:
64,192,6717,1,0,0:0:0:0:
320,192,6963,1,0,0:0:0:0:
448,192,6963,1,0,0:0:0:0:
192,192,7209,1,0,0:0:0:0:
448,192,7209,1,0,0:0:0:0:
64,192,7332,1,0,0:0:0:0:
448,192,7455,1,0,0:0:0:0:
192,192,7578,1,0,0:0:0:0:
320,192,7701,1,0,0:0:0:0:
448,192,7701,1,0,0:0:0:0:
192,192,7947,1,0,0:0:0:0:
448,192,7947,1,0,0:0:0:0:
64,192,8069,1,0,0:0:0:0:
448,192,8192,1,0,0:0:0:0:
320,192,8315,1,0,0:0:0:0:
64,192,8438,1,0,0:0:0:0:
448,192,8438,1,0,0:0:0:0:
192,192,8684,1,0,0:0:0:0:
448,192,8684,1,0,0:0:0:0:
448,192,8930,1,0,0:0:0:0:
320,192,8930,1,0,0:0:0:0:
64,192,9176,1,0,0:0:0:0:
192,192,9176,1,0,0:0:0:0:
320,192,9299,1,0,0:0:0:0:
192,192,9422,1,0,0:0:0:0:
64,192,9545,1,0,0:0:0:0:
448,192,9668,1,0,0:0:0:0:
192,192,9668,1,0,0:0:0:0:
64,192,9914,1,0,0:0:0:0:
192,192,9914,1,0,0:0:0:0:
320,192,10037,1,0,0:0:0:0:
192,192,10160,1,0,0:0:0:0:
448,192,10283,1,0,0:0:0:0:
320,192,10405,1,0,0:0:0:0:
192,192,10405,1,0,0:0:0:0:
64,192,10651,1,0,0:0:0:0:
192,192,10651,1,0,0:0:0:0:
448,192,10897,1,0,0:0:0:0:
192,192,10897,1,0,0:0:0:0:
320,192,11143,1,0,0:0:0:0:
192,192,11143,1,0,0:0:0:0:
448,192,11266,1,0,0:0:0:0:
192,192,11389,1,0,0:0:0:0:
320,192,11512,1,0,0:0:0:0:
64,192,11635,1,0,0:0:0:0:
192,192,11635,1,0,0:0:0:0:
448,192,11881,1,0,0:0:0:0:
192,192,11881,1,0,0:0:0:0:
320,192,12004,1,0,0:0:0:0:
192,192,12127,1,0,0:0:0:0:
448,192,12250,1,0,0:0:0:0:
64,192,12373,1,0,0:0:0:0:
192,192,12373,1,0,0:0:0:0:
320,192,12619,1,0,0:0:0:0:
192,192,12619,1,0,0:0:0:0:
448,192,12864,1,0,0:0:0:0:
64,192,12864,1,0,0:0:0:0:
192,192,13110,1,0,0:0:0:0:
64,192,13110,1,0,0:0:0:0:
320,192,13233,1,0,0:0:0:0:
64,192,13356,1,0,0:0:0:0:
448,192,13479,1,0,0:0:0:0:
192,192,13602,1,0,0:0:0:0:
64,192,13602,1,0,0:0:0:0:
192,192,13848,1,0,0:0:0:0:
64,192,13848,1,0,0:0:0:0:
320,192,13971,1,0,0:0:0:0:
448,192,14094,128,0,14832:0:0:0:0:
64,192,14094,1,0,0:0:0:0:
192,192,14217,1,0,0:0:0:0:
320,192,14217,128,0,14832:0:0:0:0:
64,192,14340,1,0,0:0:0:0:
192,192,14586,1,0,0:0:0:0:
192,192,14832,1,0,0:0:0:0:
64,192,14832,1,0,0:0:0:0:
320,192,15077,1,0,0:0:0:0:
448,192,15077,1,0,0:0:0:0:
64,192,15200,1,0,0:0:0:0:
448,192,15200,1,0,0:0:0:0:
64,192,15323,1,0,0:0:0:0:
192,192,15323,1,0,0:0:0:0:
320,192,15323,1,0,0:0:0:0:
320,192,15569,1,0,0:0:0:0:
448,192,15569,1,0,0:0:0:0:
64,192,15815,1,0,0:0:0:0:
192,192,15815,1,0,0:0:0:0:
64,192,15938,1,0,0:0:0:0:
448,192,15938,1,0,0:0:0:0:
448,192,16061,1,0,0:0:0:0:
192,192,16061,1,0,0:0:0:0:
320,192,16061,1,0,0:0:0:0:
320,192,16307,1,0,0:0:0:0:
448,192,16307,1,0,0:0:0:0:
64,192,16553,1,0,0:0:0:0:
192,192,16553,1,0,0:0:0:0:
448,192,16676,1,0,0:0:0:0:
192,192,16676,1,0,0:0:0:0:
320,192,16799,1,0,0:0:0:0:
448,192,16799,1,0,0:0:0:0:
64,192,16799,1,0,0:0:0:0:
64,192,17045,1,0,0:0:0:0:
320,192,17168,1,0,0:0:0:0:
448,192,17168,1,0,0:0:0:0:
192,192,17229,1,0,0:0:0:0:
64,192,17291,1,0,0:0:0:0:
320,192,17352,1,0,0:0:0:0:
192,192,17413,1,0,0:0:0:0:
448,192,17475,1,0,0:0:0:0:
320,192,17536,1,0,0:0:0:0:
64,192,17536,1,0,0:0:0:0:
448,192,17782,1,0,0:0:0:0:
320,192,17905,1,0,0:0:0:0:
64,192,18028,1,0,0:0:0:0:
192,192,18028,1,0,0:0:0:0:
448,192,18274,1,0,0:0:0:0:
320,192,18274,1,0,0:0:0:0:
192,192,18336,1,0,0:0:0:0:
64,192,18397,1,0,0:0:0:0:
320,192,18459,1,0,0:0:0:0:
192,192,18520,1,0,0:0:0:0:
64,192,18581,1,0,0:0:0:0:
320,192,18643,1,0,0:0:0:0:
448,192,18643,1,0,0:0:0:0:
448,192,18766,1,0,0:0:0:0:
192,192,18766,1,0,0:0:0:0:
448,192,19135,1,0,0:0:0:0:
64,192,19135,1,0,0:0:0:0:
320,192,19196,1,0,0:0:0:0:
192,192,19258,1,0,0:0:0:0:
448,192,19319,1,0,0:0:0:0:
320,192,19381,1,0,0:0:0:0:
64,192,19442,1,0,0:0:0:0:
448,192,19504,1,0,0:0:0:0:
192,192,19504,1,0,0:0:0:0:
320,192,19749,1,0,0:0:0:0:
192,192,19872,1,0,0:0:0:0:
448,192,19995,1,0,0:0:0:0:
64,192,19995,1,0,0:0:0:0:
448,192,20241,1,0,0:0:0:0:
320,192,20241,1,0,0:0:0:0:
192,192,20364,1,0,0:0:0:0:
64,192,20364,1,0,0:0:0:0:
320,192,20426,1,0,0:0:0:0:
448,192,20487,1,0,0:0:0:0:
192,192,20549,1,0,0:0:0:0:
320,192,20610,1,0,0:0:0:0:
448,192,20672,1,0,0:0:0:0:
64,192,20733,1,0,0:0:0:0:
192,192,20733,1,0,0:0:0:0:
448,192,20979,1,0,0:0:0:0:
320,192,20979,1,0,0:0:0:0:
64,192,20979,1,0,0:0:0:0:
320,192,21102,1,0,0:0:0:0:
320,192,21225,1,0,0:0:0:0:
320,192,21348,1,0,0:0:0:0:
192,192,21471,1,0,0:0:0:0:
64,192,21471,1,0,0:0:0:0:
448,192,21471,1,0,0:0:0:0:
64,192,21594,1,0,0:0:0:0:
64,192,21717,1,0,0:0:0:0:
192,192,21963,1,0,0:0:0:0:
448,192,21963,1,0,0:0:0:0:
320,192,21963,1,0,0:0:0:0:
448,192,22085,1,0,0:0:0:0:
448,192,22208,1,0,0:0:0:0:
64,192,22208,1,0,0:0:0:0:
192,192,22331,1,0,0:0:0:0:
320,192,22331,1,0,0:0:0:0:
64,192,22454,1,0,0:0:0:0:
192,192,22454,1,0,0:0:0:0:
448,192,22454,1,0,0:0:0:0:
320,192,22516,1,0,0:0:0:0:
192,192,22577,1,0,0:0:0:0:
64,192,22639,1,0,0:0:0:0:
448,192,22700,1,0,0:0:0:0:
320,192,22700,1,0,0:0:0:0:
192,192,22946,1,0,0:0:0:0:
448,192,22946,1,0,0:0:0:0:
64,192,22946,1,0,0:0:0:0:
192,192,23069,1,0,0:0:0:0:
192,192,23192,1,0,0:0:0:0:
192,192,23315,1,0,0:0:0:0:
448,192,23438,1,0,0:0:0:0:
320,192,23438,1,0,0:0:0:0:
64,192,23438,1,0,0:0:0:0:
448,192,23561,1,0,0:0:0:0:
448,192,23684,1,0,0:0:0:0:
320,192,23930,1,0,0:0:0:0:
192,192,23930,1,0,0:0:0:0:
64,192,23930,1,0,0:0:0:0:
64,192,24053,1,0,0:0:0:0:
448,192,24176,1,0,0:0:0:0:
320,192,24176,1,0,0:0:0:0:
192,192,24237,1,0,0:0:0:0:
64,192,24299,1,0,0:0:0:0:
448,192,24299,1,0,0:0:0:0:
320,192,24360,1,0,0:0:0:0:
192,192,24421,1,0,0:0:0:0:
64,192,24421,1,0,0:0:0:0:
448,192,24421,1,0,0:0:0:0:
192,192,24544,1,0,0:0:0:0:
64,192,24544,1,0,0:0:0:0:
320,192,24606,1,0,0:0:0:0:
448,192,24667,1,0,0:0:0:0:
64,192,24667,1,0,0:0:0:0:
64,192,24913,1,0,0:0:0:0:
320,192,24913,1,0,0:0:0:0:
192,192,24913,1,0,0:0:0:0:
192,192,25036,1,0,0:0:0:0:
192,192,25159,1,0,0:0:0:0:
192,192,25282,1,0,0:0:0:0:
448,192,25405,1,0,0:0:0:0:
320,192,25405,1,0,0:0:0:0:
64,192,25405,1,0,0:0:0:0:
448,192,25528,1,0,0:0:0:0:
448,192,25651,1,0,0:0:0:0:
192,192,25897,1,0,0:0:0:0:
64,192,25897,1,0,0:0:0:0:
448,192,25897,1,0,0:0:0:0:
64,192,26020,1,0,0:0:0:0:
64,192,26143,1,0,0:0:0:0:
192,192,26143,1,0,0:0:0:0:
448,192,26266,1,0,0:0:0:0:
320,192,26266,1,0,0:0:0:0:
64,192,26389,1,0,0:0:0:0:
192,192,26389,1,0,0:0:0:0:
448,192,26389,1,0,0:0:0:0:
320,192,26450,1,0,0:0:0:0:
192,192,26512,1,0,0:0:0:0:
64,192,26573,1,0,0:0:0:0:
320,192,26634,1,0,0:0:0:0:
448,192,26634,1,0,0:0:0:0:
192,192,26880,1,0,0:0:0:0:
64,192,26880,1,0,0:0:0:0:
320,192,26880,1,0,0:0:0:0:
320,192,27003,1,0,0:0:0:0:
320,192,27126,1,0,0:0:0:0:
320,192,27249,1,0,0:0:0:0:
448,192,27372,1,0,0:0:0:0:
192,192,27372,1,0,0:0:0:0:
64,192,27372,1,0,0:0:0:0:
192,192,27495,1,0,0:0:0:0:
192,192,27618,1,0,0:0:0:0:
448,192,27864,1,0,0:0:0:0:
64,192,27864,1,0,0:0:0:0:
320,192,27864,1,0,0:0:0:0:
448,192,27987,1,0,0:0:0:0:
448,192,28110,1,0,0:0:0:0:
64,192,28110,1,0,0:0:0:0:
192,192,28171,1,0,0:0:0:0:
320,192,28233,1,0,0:0:0:0:
448,192,28233,1,0,0:0:0:0:
64,192,28294,1,0,0:0:0:0:
192,192,28356,1,0,0:0:0:0:
448,192,28356,1,0,0:0:0:0:
320,192,28356,1,0,0:0:0:0:
64,192,28479,1,0,0:0:0:0:
448,192,28602,1,0,0:0:0:0:
320,192,28602,1,0,0:0:0:0:
448,192,28848,1,0,0:0:0:0:
64,192,28848,1,0,0:0:0:0:
320,192,28848,1,0,0:0:0:0:
192,192,28970,1,0,0:0:0:0:
448,192,29093,1,0,0:0:0:0:
320,192,29124,1,0,0:0:0:0:
64,192,29155,1,0,0:0:0:0:
192,192,29186,1,0,0:0:0:0:
448,192,29216,1,0,0:0:0:0:
320,192,29247,1,0,0:0:0:0:
64,192,29278,1,0,0:0:0:0:
192,192,29309,1,0,0:0:0:0:
448,192,29339,1,0,0:0:0:0:
320,192,29339,1,0,0:0:0:0:
64,192,29462,1,0,0:0:0:0:
192,192,29585,1,0,0:0:0:0:
192,192,29831,1,0,0:0:0:0:
448,192,29831,1,0,0:0:0:0:
320,192,29831,1,0,0:0:0:0:
64,192,29954,1,0,0:0:0:0:
448,192,30077,1,0,0:0:0:0:
320,192,30077,1,0,0:0:0:0:
192,192,30138,1,0,0:0:0:0:
64,192,30200,1,0,0:0:0:0:
448,192,30200,1,0,0:0:0:0:
320,192,30261,1,0,0:0:0:0:
192,192,30323,1,0,0:0:0:0:
64,192,30323,1,0,0:0:0:0:
320,192,30446,1,0,0:0:0:0:
448,192,30507,1,0,0:0:0:0:
64,192,30569,1,0,0:0:0:0:
192,192,30569,1,0,0:0:0:0:
320,192,30815,1,0,0:0:0:0:
448,192,30815,1,0,0:0:0:0:
64,192,30815,1,0,0:0:0:0:
192,192,30938,1,0,0:0:0:0:
448,192,31061,1,0,0:0:0:0:
320,192,31091,1,0,0:0:0:0:
192,192,31122,1,0,0:0:0:0:
64,192,31153,1,0,0:0:0:0:
448,192,31184,1,0,0:0:0:0:
320,192,31214,1,0,0:0:0:0:
192,192,31245,1,0,0:0:0:0:
64,192,31276,1,0,0:0:0:0:
320,192,31306,1,0,0:0:0:0:
448,192,31306,1,0,0:0:0:0:
192,192,31429,1,0,0:0:0:0:
320,192,31552,1,0,0:0:0:0:
448,192,31798,1,0,0:0:0:0:
192,192,31798,1,0,0:0:0:0:
64,192,31798,1,0,0:0:0:0:
320,192,31921,1,0,0:0:0:0:
64,192,32044,1,0,0:0:0:0:
192,192,32044,1,0,0:0:0:0:
320,192,32106,1,0,0:0:0:0:
448,192,32167,1,0,0:0:0:0:
192,192,32167,1,0,0:0:0:0:
64,192,32229,1,0,0:0:0:0:
320,192,32290,1,0,0:0:0:0:
448,192,32290,1,0,0:0:0:0:
64,192,32413,1,0,0:0:0:0:
192,192,32413,1,0,0:0:0:0:
320,192,32474,1,0,0:0:0:0:
64,192,32536,1,0,0:0:0:0:
448,192,32536,1,0,0:0:0:0:
448,192,32782,1,0,0:0:0:0:
320,192,32782,1,0,0:0:0:0:
192,192,32782,1,0,0:0:0:0:
64,192,32905,1,0,0:0:0:0:
448,192,33028,1,0,0:0:0:0:
320,192,33058,1,0,0:0:0:0:
64,192,33089,1,0,0:0:0:0:
192,192,33120,1,0,0:0:0:0:
320,192,33151,1,0,0:0:0:0:
448,192,33181,1,0,0:0:0:0:
192,192,33212,1,0,0:0:0:0:
64,192,33243,1,0,0:0:0:0:
448,192,33274,1,0,0:0:0:0:
320,192,33274,1,0,0:0:0:0:
64,192,33397,1,0,0:0:0:0:
320,192,33520,1,0,0:0:0:0:
192,192,33765,1,0,0:0:0:0:
448,192,33765,1,0,0:0:0:0:
64,192,33765,1,0,0:0:0:0:
320,192,33888,1,0,0:0:0:0:
448,192,34011,1,0,0:0:0:0:
64,192,34011,1,0,0:0:0:0:
192,192,34073,1,0,0:0:0:0:
448,192,34134,1,0,0:0:0:0:
320,192,34134,1,0,0:0:0:0:
64,192,34196,1,0,0:0:0:0:
320,192,34257,1,0,0:0:0:0:
192,192,34257,1,0,0:0:0:0:
64,192,34380,1,0,0:0:0:0:
448,192,34380,1,0,0:0:0:0:
320,192,34442,1,0,0:0:0:0:
192,192,34503,1,0,0:0:0:0:
64,192,34503,1,0,0:0:0:0:
448,192,34749,1,0,0:0:0:0:
192,192,34749,1,0,0:0:0:0:
64,192,34749,1,0,0:0:0:0:
320,192,34872,1,0,0:0:0:0:
64,192,34995,1,0,0:0:0:0:
192,192,35026,1,0,0:0:0:0:
448,192,35056,1,0,0:0:0:0:
320,192,35087,1,0,0:0:0:0:
64,192,35118,1,0,0:0:0:0:
192,192,35149,1,0,0:0:0:0:
448,192,35179,1,0,0:0:0:0:
320,192,35210,1,0,0:0:0:0:
192,192,35241,1,0,0:0:0:0:
64,192,35241,1,0,0:0:0:0:
448,192,35364,1,0,0:0:0:0:
320,192,35487,1,0,0:0:0:0:
448,192,35733,1,0,0:0:0:0:
64,192,35733,1,0,0:0:0:0:
192,192,35733,1,0,0:0:0:0:
320,192,35856,1,0,0:0:0:0:
192,192,35978,1,0,0:0:0:0:
64,192,35978,1,0,0:0:0:0:
320,192,36040,1,0,0:0:0:0:
448,192,36101,1,0,0:0:0:0:
64,192,36101,1,0,0:0:0:0:
192,192,36163,1,0,0:0:0:0:
448,192,36224,1,0,0:0:0:0:
320,192,36224,1,0,0:0:0:0:
64,192,36347,1,0,0:0:0:0:
192,192,36347,1,0,0:0:0:0:
320,192,36409,1,0,0:0:0:0:
448,192,36470,1,0,0:0:0:0:
64,192,36470,1,0,0:0:0:0:
192,192,36593,1,0,0:0:0:0:
448,192,36716,1,0,0:0:0:0:
320,192,36716,1,0,0:0:0:0:
64,192,36716,1,0,0:0:0:0:
192,192,36839,1,0,0:0:0:0:
448,192,36962,1,0,0:0:0:0:
320,192,36993,1,0,0:0:0:0:
64,192,37024,1,0,0:0:0:0:
192,192,37054,1,0,0:0:0:0:
448,192,37085,1,0,0:0:0:0:
320,192,37116,1,0,0:0:0:0:
64,192,37146,1,0,0:0:0:0:
192,192,37177,1,0,0:0:0:0:
448,192,37208,1,0,0:0:0:0:
320,192,37208,1,0,0:0:0:0:
192,192,37331,1,0,0:0:0:0:
448,192,37454,1,0,0:0:0:0:
64,192,37454,1,0,0:0:0:0:
320,192,37577,1,0,0:0:0:0:
192,192,37700,1,0,0:0:0:0:
448,192,37700,1,0,0:0:0:0:
64,192,37700,1,0,0:0:0:0:
320,192,37823,1,0,0:0:0:0:
448,192,37946,1,0,0:0:0:0:
64,192,37946,1,0,0:0:0:0:
192,192,38007,1,0,0:0:0:0:
320,192,38069,1,0,0:0:0:0:
448,192,38069,1,0,0:0:0:0:
192,192,38130,1,0,0:0:0:0:
64,192,38192,1,0,0:0:0:0:
448,192,38192,1,0,0:0:0:0:
64,192,38314,1,0,0:0:0:0:
192,192,38314,1,0,0:0:0:0:
320,192,38376,1,0,0:0:0:0:
64,192,38437,1,0,0:0:0:0:
448,192,38437,1,0,0:0:0:0:
320,192,38560,1,0,0:0:0:0:
448,192,38683,1,0,0:0:0:0:
192,192,38683,1,0,0:0:0:0:
64,192,38683,1,0,0:0:0:0:
320,192,38806,1,0,0:0:0:0:
64,192,38929,1,0,0:0:0:0:
192,192,38960,1,0,0:0:0:0:
320,192,38991,1,0,0:0:0:0:
448,192,39021,1,0,0:0:0:0:
64,192,39052,1,0,0:0:0:0:
192,192,39083,1,0,0:0:0:0:
320,192,39114,1,0,0:0:0:0:
448,192,39144,1,0,0:0:0:0:
192,192,39175,1,0,0:0:0:0:
64,192,39175,1,0,0:0:0:0:
320,192,39298,1,0,0:0:0:0:
64,192,39421,1,0,0:0:0:0:
448,192,39421,1,0,0:0:0:0:
192,192,39544,1,0,0:0:0:0:
448,192,39667,1,0,0:0:0:0:
64,192,39667,1,0,0:0:0:0:
320,192,39667,1,0,0:0:0:0:
448,192,39790,1,0,0:0:0:0:
192,192,39913,1,0,0:0:0:0:
64,192,39913,1,0,0:0:0:0:
320,192,39974,1,0,0:0:0:0:
448,192,40036,1,0,0:0:0:0:
64,192,40036,1,0,0:0:0:0:
192,192,40097,1,0,0:0:0:0:
448,192,40159,1,0,0:0:0:0:
320,192,40159,1,0,0:0:0:0:
64,192,40282,1,0,0:0:0:0:
192,192,40282,1,0,0:0:0:0:
320,192,40343,1,0,0:0:0:0:
448,192,40405,1,0,0:0:0:0:
64,192,40405,1,0,0:0:0:0:
192,192,40528,1,0,0:0:0:0:
448,192,40650,1,0,0:0:0:0:
320,192,40650,1,0,0:0:0:0:
64,192,40650,1,0,0:0:0:0:
192,192,40773,1,0,0:0:0:0:
448,192,40896,1,0,0:0:0:0:
320,192,40927,1,0,0:0:0:0:
64,192,40958,1,0,0:0:0:0:
192,192,40989,1,0,0:0:0:0:
448,192,41019,1,0,0:0:0:0:
320,192,41050,1,0,0:0:0:0:
64,192,41081,1,0,0:0:0:0:
192,192,41112,1,0,0:0:0:0:
448,192,41142,1,0,0:0:0:0:
320,192,41142,1,0,0:0:0:0:
64,192,41265,1,0,0:0:0:0:
448,192,41388,1,0,0:0:0:0:
192,192,41388,1,0,0:0:0:0:
320,192,41511,1,0,0:0:0:0:
192,192,41634,1,0,0:0:0:0:
448,192,41634,1,0,0:0:0:0:
64,192,41634,1,0,0:0:0:0:
64,192,41757,1,0,0:0:0:0:
448,192,41880,1,0,0:0:0:0:
320,192,41880,1,0,0:0:0:0:
192,192,41941,1,0,0:0:0:0:
448,192,42003,1,0,0:0:0:0:
64,192,42003,1,0,0:0:0:0:
320,192,42064,1,0,0:0:0:0:
192,192,42126,1,0,0:0:0:0:
64,192,42126,1,0,0:0:0:0:
320,192,42249,1,0,0:0:0:0:
448,192,42249,1,0,0:0:0:0:
192,192,42310,1,0,0:0:0:0:
448,192,42372,1,0,0:0:0:0:
64,192,42372,1,0,0:0:0:0:
320,192,42495,1,0,0:0:0:0:
448,192,42618,1,0,0:0:0:0:
192,192,42618,1,0,0:0:0:0:
64,192,42618,1,0,0:0:0:0:
320,192,42741,1,0,0:0:0:0:
64,192,42864,1,0,0:0:0:0:
192,192,42894,1,0,0:0:0:0:
320,192,42925,1,0,0:0:0:0:
448,192,42956,1,0,0:0:0:0:
64,192,42986,1,0,0:0:0:0:
192,192,43017,1,0,0:0:0:0:
448,192,43048,1,0,0:0:0:0:
320,192,43079,1,0,0:0:0:0:
192,192,43109,1,0,0:0:0:0:
64,192,43109,1,0,0:0:0:0:
448,192,43232,1,0,0:0:0:0:
64,192,43355,1,0,0:0:0:0:
320,192,43355,1,0,0:0:0:0:
448,192,43478,1,0,0:0:0:0:
320,192,43601,1,0,0:0:0:0:
64,192,43601,1,0,0:0:0:0:
192,192,43601,1,0,0:0:0:0:
448,192,43724,1,0,0:0:0:0:
192,192,43847,1,0,0:0:0:0:
64,192,43847,1,0,0:0:0:0:
320,192,43909,1,0,0:0:0:0:
448,192,43970,1,0,0:0:0:0:
64,192,43970,1,0,0:0:0:0:
192,192,44032,1,0,0:0:0:0:
448,192,44093,1,0,0:0:0:0:
320,192,44093,1,0,0:0:0:0:
64,192,44216,1,0,0:0:0:0:
192,192,44216,1,0,0:0:0:0:
320,192,44277,1,0,0:0:0:0:
448,192,44339,1,0,0:0:0:0:
64,192,44339,1,0,0:0:0:0:
192,192,44462,1,0,0:0:0:0:
448,192,44585,1,0,0:0:0:0:
320,192,44585,1,0,0:0:0:0:
64,192,44585,1,0,0:0:0:0:
192,192,44708,1,0,0:0:0:0:
448,192,44831,1,0,0:0:0:0:
320,192,44861,1,0,0:0:0:0:
192,192,44892,1,0,0:0:0:0:
64,192,44923,1,0,0:0:0:0:
448,192,44954,1,0,0:0:0:0:
320,192,44984,1,0,0:0:0:0:
64,192,45015,1,0,0:0:0:0:
192,192,45046,1,0,0:0:0:0:
448,192,45077,1,0,0:0:0:0:
320,192,45077,1,0,0:0:0:0:
64,192,45200,1,0,0:0:0:0:
320,192,45322,1,0,0:0:0:0:
192,192,45322,1,0,0:0:0:0:
64,192,45445,1,0,0:0:0:0:
320,192,45568,1,0,0:0:0:0:
448,192,45568,1,0,0:0:0:0:
192,192,45568,1,0,0:0:0:0:
64,192,45691,1,0,0:0:0:0:
448,192,45814,1,0,0:0:0:0:
320,192,45814,1,0,0:0:0:0:
192,192,45876,1,0,0:0:0:0:
320,192,45937,1,0,0:0:0:0:
64,192,45937,1,0,0:0:0:0:
448,192,45999,1,0,0:0:0:0:
192,192,46060,1,0,0:0:0:0:
64,192,46060,1,0,0:0:0:0:
320,192,46183,1,0,0:0:0:0:
448,192,46183,1,0,0:0:0:0:
192,192,46245,1,0,0:0:0:0:
448,192,46306,1,0,0:0:0:0:
64,192,46306,1,0,0:0:0:0:
192,192,46429,1,0,0:0:0:0:
448,192,46552,1,0,0:0:0:0:
320,192,46552,1,0,0:0:0:0:
64,192,46552,1,0,0:0:0:0:
320,192,46675,1,0,0:0:0:0:
64,192,46798,1,0,0:0:0:0:
192,192,46829,1,0,0:0:0:0:
448,192,46859,1,0,0:0:0:0:
320,192,46890,1,0,0:0:0:0:
192,192,46921,1,0,0:0:0:0:
64,192,46952,1,0,0:0:0:0:
320,192,46982,1,0,0:0:0:0:
448,192,47013,1,0,0:0:0:0:
192,192,47044,1,0,0:0:0:0:
64,192,47044,1,0,0:0:0:0:
320,192,47167,1,0,0:0:0:0:
64,192,47290,1,0,0:0:0:0:
448,192,47290,1,0,0:0:0:0:
192,192,47413,1,0,0:0:0:0:
448,192,47536,1,0,0:0:0:0:
64,192,47536,1,0,0:0:0:0:
320,192,47536,1,0,0:0:0:0:
448,192,47658,1,0,0:0:0:0:
192,192,47781,1,0,0:0:0:0:
64,192,47781,1,0,0:0:0:0:
320,192,47843,1,0,0:0:0:0:
448,192,47904,1,0,0:0:0:0:
192,192,47904,1,0,0:0:0:0:
64,192,47966,1,0,0:0:0:0:
448,192,48027,1,0,0:0:0:0:
320,192,48027,1,0,0:0:0:0:
64,192,48150,1,0,0:0:0:0:
192,192,48150,1,0,0:0:0:0:
320,192,48212,1,0,0:0:0:0:
448,192,48273,1,0,0:0:0:0:
192,192,48273,1,0,0:0:0:0:
64,192,48273,1,0,0:0:0:0:
320,192,48519,1,0,0:0:0:0:
448,192,48519,1,0,0:0:0:0:
320,192,48642,1,0,0:0:0:0:
64,192,48642,1,0,0:0:0:0:
64,192,48765,1,0,0:0:0:0:
192,192,48765,1,0,0:0:0:0:
448,192,48765,1,0,0:0:0:0:
320,192,49011,1,0,0:0:0:0:
64,192,49011,1,0,0:0:0:0:
192,192,49134,5,0,0:0:0:0:
320,192,49134,1,0,0:0:0:0:
448,192,49257,1,0,0:0:0:0:
64,192,49257,1,0,0:0:0:0:
192,192,49257,1,0,0:0:0:0:
448,192,49503,1,0,0:0:0:0:
192,192,49503,1,0,0:0:0:0:
448,192,49626,1,0,0:0:0:0:
64,192,49626,1,0,0:0:0:0:
320,192,49749,1,0,0:0:0:0:
192,192,49749,1,0,0:0:0:0:
64,192,49749,1,0,0:0:0:0:
320,192,49871,1,0,0:0:0:0:
64,192,49994,1,0,0:0:0:0:
192,192,49994,1,0,0:0:0:0:
64,192,50117,1,0,0:0:0:0:
448,192,50117,1,0,0:0:0:0:
448,192,50240,5,0,0:0:0:0:
320,192,50240,1,0,0:0:0:0:
192,192,50240,1,0,0:0:0:0:
64,192,50486,1,0,0:0:0:0:
192,192,50486,1,0,0:0:0:0:
448,192,50609,1,0,0:0:0:0:
192,192,50609,1,0,0:0:0:0:
64,192,50732,1,0,0:0:0:0:
320,192,50732,1,0,0:0:0:0:
448,192,50732,1,0,0:0:0:0:
192,192,50978,1,0,0:0:0:0:
64,192,50978,1,0,0:0:0:0:
192,192,51101,1,0,0:0:0:0:
448,192,51101,1,0,0:0:0:0:
448,192,51224,1,0,0:0:0:0:
320,192,51224,1,0,0:0:0:0:
64,192,51224,1,0,0:0:0:0:
320,192,51347,1,0,0:0:0:0:
192,192,51347,1,0,0:0:0:0:
448,192,51470,1,0,0:0:0:0:
64,192,51470,1,0,0:0:0:0:
192,192,51470,1,0,0:0:0:0:
320,192,51593,1,0,0:0:0:0:
448,192,51593,1,0,0:0:0:0:
192,192,51716,1,0,0:0:0:0:
64,192,51716,1,0,0:0:0:0:
320,192,51716,1,0,0:0:0:0:
64,192,51839,1,0,0:0:0:0:
448,192,51839,1,0,0:0:0:0:
320,192,51962,1,0,0:0:0:0:
192,192,51962,1,0,0:0:0:0:
448,192,51962,1,0,0:0:0:0:
192,192,52085,1,0,0:0:0:0:
64,192,52085,1,0,0:0:0:0:
320,192,52207,1,0,0:0:0:0:
448,192,52330,1,0,0:0:0:0:
192,192,52453,1,0,0:0:0:0:
64,192,52576,1,0,0:0:0:0:
320,192,52699,1,0,0:0:0:0:
448,192,52822,1,0,0:0:0:0:
64,192,52945,1,0,0:0:0:0:
192,192,53068,1,0,0:0:0:0:
64,192,53191,1,0,0:0:0:0:
448,192,53314,1,0,0:0:0:0:
320,192,53437,1,0,0:0:0:0:
64,192,53560,1,0,0:0:0:0:
192,192,53683,1,0,0:0:0:0:
448,192,53806,1,0,0:0:0:0:
448,192,53929,1,0,0:0:0:0:
192,192,54052,1,0,0:0:0:0:
192,192,54175,1,0,0:0:0:0:
320,192,54298,1,0,0:0:0:0:
320,192,54421,1,0,0:0:0:0:
64,192,54543,1,0,0:0:0:0:
64,192,54666,1,0,0:0:0:0:
192,192,54666,1,0,0:0:0:0:
448,192,54789,1,0,0:0:0:0:
320,192,54789,1,0,0:0:0:0:
448,192,54912,1,0,0:0:0:0:
192,192,54912,1,0,0:0:0:0:
64,192,55035,1,0,0:0:0:0:
192,192,55035,1,0,0:0:0:0:
448,192,55158,1,0,0:0:0:0:
320,192,55158,1,0,0:0:0:0:
64,192,55281,1,0,0:0:0:0:
320,192,55281,1,0,0:0:0:0:
64,192,55404,1,0,0:0:0:0:
192,192,55404,1,0,0:0:0:0:
448,192,55527,1,0,0:0:0:0:
320,192,55527,1,0,0:0:0:0:
192,192,55650,1,0,0:0:0:0:
64,192,55650,1,0,0:0:0:0:
448,192,55650,1,0,0:0:0:0:
64,192,56142,1,0,0:0:0:0:
192,192,56142,1,0,0:0:0:0:
320,192,56142,1,0,0:0:0:0:
448,192,56142,1,0,0:0:0:0:
64,192,56265,1,0,0:0:0:0:
448,192,56388,1,0,0:0:0:0:
192,192,56511,1,0,0:0:0:0:
320,192,56511,1,0,0:0:0:0:
448,192,56511,1,0,0:0:0:0:
64,192,56511,1,0,0:0:0:0:
192,192,56634,1,0,0:0:0:0:
320,192,56757,1,0,0:0:0:0:
64,192,56879,1,0,0:0:0:0:
192,192,56879,1,0,0:0:0:0:
320,192,56879,1,0,0:0:0:0:
448,192,56879,1,0,0:0:0:0:
64,192,57002,1,0,0:0:0:0:
448,192,57125,1,0,0:0:0:0:
320,192,57248,1,0,0:0:0:0:
192,192,57371,1,0,0:0:0:0:
64,192,57371,1,0,0:0:0:0:
320,192,57494,1,0,0:0:0:0:
64,192,57617,1,0,0:0:0:0:
448,192,57617,1,0,0:0:0:0:
192,192,57617,1,0,0:0:0:0:
64,192,57740,1,0,0:0:0:0:
320,192,57863,1,0,0:0:0:0:
192,192,57986,1,0,0:0:0:0:
192,192,58109,1,0,0:0:0:0:
320,192,58109,1,0,0:0:0:0:
448,192,58109,1,0,0:0:0:0:
64,192,58109,1,0,0:0:0:0:
320,192,58232,1,0,0:0:0:0:
192,192,58355,1,0,0:0:0:0:
64,192,58478,1,0,0:0:0:0:
448,192,58478,1,0,0:0:0:0:
448,192,58601,1,0,0:0:0:0:
320,192,58601,1,0,0:0:0:0:
192,192,58601,1,0,0:0:0:0:
64,192,58724,1,0,0:0:0:0:
64,192,58847,1,0,0:0:0:0:
192,192,58847,1,0,0:0:0:0:
320,192,58847,1,0,0:0:0:0:
448,192,58847,1,0,0:0:0:0:
320,192,58970,1,0,0:0:0:0:
64,192,59093,1,0,0:0:0:0:
192,192,59215,1,0,0:0:0:0:
448,192,59338,1,0,0:0:0:0:
320,192,59338,1,0,0:0:0:0:
64,192,59461,1,0,0:0:0:0:
192,192,59584,1,0,0:0:0:0:
448,192,59584,1,0,0:0:0:0:
320,192,59584,1,0,0:0:0:0:
320,192,59707,1,0,0:0:0:0:
448,192,59707,1,0,0:0:0:0:
192,192,59830,1,0,0:0:0:0:
320,192,59953,1,0,0:0:0:0:
64,192,59953,1,0,0:0:0:0:
448,192,60076,1,0,0:0:0:0:
192,192,60076,1,0,0:0:0:0:
320,192,60076,1,0,0:0:0:0:
64,192,60076,1,0,0:0:0:0:
192,192,60199,1,0,0:0:0:0:
448,192,60322,1,0,0:0:0:0:
448,192,60445,1,0,0:0:0:0:
320,192,60445,1,0,0:0:0:0:
192,192,60445,1,0,0:0:0:0:
64,192,60445,1,0,0:0:0:0:
320,192,60568,1,0,0:0:0:0:
64,192,60691,1,0,0:0:0:0:
64,192,60814,1,0,0:0:0:0:
192,192,60814,1,0,0:0:0:0:
448,192,60814,1,0,0:0:0:0:
320,192,60814,1,0,0:0:0:0:
448,192,60937,1,0,0:0:0:0:
320,192,61060,1,0,0:0:0:0:
64,192,61183,1,0,0:0:0:0:
448,192,61306,1,0,0:0:0:0:
192,192,61306,1,0,0:0:0:0:
320,192,61429,1,0,0:0:0:0:
64,192,61551,1,0,0:0:0:0:
192,192,61551,1,0,0:0:0:0:
448,192,61551,1,0,0:0:0:0:
320,192,61674,1,0,0:0:0:0:
64,192,61797,1,0,0:0:0:0:
320,192,61920,1,0,0:0:0:0:
448,192,61920,1,0,0:0:0:0:
64,192,62043,1,0,0:0:0:0:
192,192,62043,1,0,0:0:0:0:
320,192,62043,1,0,0:0:0:0:
448,192,62043,1,0,0:0:0:0:
192,192,62166,1,0,0:0:0:0:
64,192,62289,1,0,0:0:0:0:
320,192,62412,1,0,0:0:0:0:
448,192,62412,1,0,0:0:0:0:
448,192,62535,1,0,0:0:0:0:
192,192,62535,1,0,0:0:0:0:
64,192,62535,1,0,0:0:0:0:
320,192,62658,1,0,0:0:0:0:
448,192,62781,1,0,0:0:0:0:
320,192,62781,1,0,0:0:0:0:
64,192,62781,1,0,0:0:0:0:
192,192,62781,1,0,0:0:0:0:
192,192,62904,1,0,0:0:0:0:
64,192,63027,1,0,0:0:0:0:
320,192,63150,1,0,0:0:0:0:
64,192,63273,1,0,0:0:0:0:
320,192,63396,1,0,0:0:0:0:
64,192,63519,1,0,0:0:0:0:
192,192,63519,1,0,0:0:0:0:
448,192,63642,1,0,0:0:0:0:
192,192,63765,1,0,0:0:0:0:
448,192,63887,1,0,0:0:0:0:
64,192,64010,1,0,0:0:0:0:
320,192,64010,1,0,0:0:0:0:
192,192,64010,1,0,0:0:0:0:
448,192,64010,1,0,0:0:0:0:
64,192,64133,1,0,0:0:0:0:
320,192,64256,1,0,0:0:0:0:
448,192,64379,1,0,0:0:0:0:
320,192,64379,1,0,0:0:0:0:
192,192,64379,1,0,0:0:0:0:
64,192,64379,1,0,0:0:0:0:
192,192,64502,1,0,0:0:0:0:
448,192,64625,1,0,0:0:0:0:
64,192,64748,1,0,0:0:0:0:
192,192,64748,1,0,0:0:0:0:
320,192,64748,1,0,0:0:0:0:
448,192,64748,1,0,0:0:0:0:
64,192,64871,1,0,0:0:0:0:
192,192,64994,1,0,0:0:0:0:
448,192,65117,1,0,0:0:0:0:
192,192,65240,1,0,0:0:0:0:
64,192,65240,1,0,0:0:0:0:
320,192,65240,1,0,0:0:0:0:
448,192,65363,1,0,0:0:0:0:
448,192,65486,1,0,0:0:0:0:
320,192,65486,1,0,0:0:0:0:
192,192,65486,1,0,0:0:0:0:
64,192,65486,1,0,0:0:0:0:
192,192,65609,1,0,0:0:0:0:
320,192,65732,1,0,0:0:0:0:
192,192,65855,1,0,0:0:0:0:
64,192,65855,1,0,0:0:0:0:
64,192,65978,1,0,0:0:0:0:
192,192,65978,1,0,0:0:0:0:
320,192,65978,1,0,0:0:0:0:
448,192,65978,1,0,0:0:0:0:
320,192,66101,1,0,0:0:0:0:
192,192,66223,1,0,0:0:0:0:
448,192,66346,1,0,0:0:0:0:
64,192,66346,1,0,0:0:0:0:
192,192,66469,1,0,0:0:0:0:
320,192,66469,1,0,0:0:0:0:
448,192,66469,1,0,0:0:0:0:
64,192,66592,1,0,0:0:0:0:
64,192,66715,1,0,0:0:0:0:
192,192,66715,1,0,0:0:0:0:
320,192,66715,1,0,0:0:0:0:
448,192,66715,1,0,0:0:0:0:
320,192,66838,1,0,0:0:0:0:
448,192,66961,1,0,0:0:0:0:
192,192,67084,1,0,0:0:0:0:
320,192,67207,1,0,0:0:0:0:
448,192,67207,1,0,0:0:0:0:
64,192,67330,1,0,0:0:0:0:
320,192,67453,1,0,0:0:0:0:
192,192,67453,1,0,0:0:0:0:
448,192,67453,1,0,0:0:0:0:
64,192,67576,1,0,0:0:0:0:
192,192,67576,1,0,0:0:0:0:
448,192,67699,1,0,0:0:0:0:
320,192,67822,1,0,0:0:0:0:
64,192,67945,1,0,0:0:0:0:
192,192,67945,1,0,0:0:0:0:
320,192,67945,1,0,0:0:0:0:
448,192,67945,1,0,0:0:0:0:
64,192,68068,1,0,0:0:0:0:
192,192,68191,1,0,0:0:0:0:
64,192,68314,1,0,0:0:0:0:
192,192,68314,1,0,0:0:0:0:
320,192,68314,1,0,0:0:0:0:
448,192,68314,1,0,0:0:0:0:
320,192,68437,1,0,0:0:0:0:
448,192,68559,1,0,0:0:0:0:
64,192,68682,1,0,0:0:0:0:
192,192,68682,1,0,0:0:0:0:
320,192,68682,1,0,0:0:0:0:
448,192,68682,1,0,0:0:0:0:
192,192,68805,1,0,0:0:0:0:
64,192,68928,1,0,0:0:0:0:
320,192,69051,1,0,0:0:0:0:
448,192,69174,5,0,0:0:0:0:
192,192,69174,1,0,0:0:0:0:
64,192,69174,1,0,0:0:0:0:
320,192,69297,1,0,0:0:0:0:
64,192,69420,1,0,0:0:0:0:
192,192,69420,1,0,0:0:0:0:
320,192,69420,1,0,0:0:0:0:
448,192,69420,1,0,0:0:0:0:
64,192,69543,1,0,0:0:0:0:
448,192,69666,1,0,0:0:0:0:
320,192,69789,1,0,0:0:0:0:
64,192,69912,5,0,0:0:0:0:
192,192,69912,1,0,0:0:0:0:
448,192,69912,1,0,0:0:0:0:
320,192,70035,1,0,0:0:0:0:
64,192,70158,1,0,0:0:0:0:
192,192,70158,1,0,0:0:0:0:
64,192,70281,1,0,0:0:0:0:
448,192,70281,1,0,0:0:0:0:
320,192,70404,1,0,0:0:0:0:
448,192,70404,1,0,0:0:0:0:
192,192,70404,1,0,0:0:0:0:
192,192,70650,1,0,0:0:0:0:
64,192,70650,1,0,0:0:0:0:
320,192,70773,1,0,0:0:0:0:
64,192,70895,1,0,0:0:0:0:
448,192,70895,1,0,0:0:0:0:
448,192,71018,1,0,0:0:0:0:
192,192,71018,1,0,0:0:0:0:
192,192,71141,1,0,0:0:0:0:
64,192,71141,1,0,0:0:0:0:
320,192,71141,1,0,0:0:0:0:
448,192,71387,1,0,0:0:0:0:
320,192,71387,1,0,0:0:0:0:
448,192,71510,1,0,0:0:0:0:
64,192,71510,1,0,0:0:0:0:
192,192,71633,1,0,0:0:0:0:
64,192,71633,1,0,0:0:0:0:
448,192,71756,1,0,0:0:0:0:
320,192,71756,1,0,0:0:0:0:
192,192,71879,1,0,0:0:0:0:
64,192,71879,1,0,0:0:0:0:
448,192,71879,1,0,0:0:0:0:
320,192,71879,1,0,0:0:0:0:
192,192,72002,1,0,0:0:0:0:
320,192,72125,1,0,0:0:0:0:
64,192,72248,1,0,0:0:0:0:
448,192,72248,1,0,0:0:0:0:
320,192,72248,1,0,0:0:0:0:
192,192,72248,1,0,0:0:0:0:
448,192,72371,1,0,0:0:0:0:
64,192,72494,1,0,0:0:0:0:
192,192,72617,1,0,0:0:0:0:
64,192,72617,1,0,0:0:0:0:
448,192,72617,1,0,0:0:0:0:
320,192,72617,1,0,0:0:0:0:
320,192,72740,1,0,0:0:0:0:
64,192,72863,1,0,0:0:0:0:
192,192,72986,1,0,0:0:0:0:
448,192,73108,1,0,0:0:0:0:
320,192,73108,1,0,0:0:0:0:
192,192,73231,1,0,0:0:0:0:
320,192,73354,1,0,0:0:0:0:
64,192,73354,1,0,0:0:0:0:
448,192,73354,1,0,0:0:0:0:
448,192,73477,1,0,0:0:0:0:
192,192,73600,1,0,0:0:0:0:
320,192,73723,1,0,0:0:0:0:
64,192,73846,1,0,0:0:0:0:
448,192,73846,1,0,0:0:0:0:
320,192,73846,1,0,0:0:0:0:
192,192,73846,1,0,0:0:0:0:
192,192,73969,1,0,0:0:0:0:
320,192,74092,1,0,0:0:0:0:
64,192,74215,1,0,0:0:0:0:
448,192,74215,1,0,0:0:0:0:
320,192,74338,1,0,0:0:0:0:
192,192,74338,1,0,0:0:0:0:
64,192,74338,1,0,0:0:0:0:
448,192,74461,1,0,0:0:0:0:
192,192,74584,1,0,0:0:0:0:
64,192,74584,1,0,0:0:0:0:
448,192,74584,1,0,0:0:0:0:
320,192,74584,1,0,0:0:0:0:
192,192,74707,1,0,0:0:0:0:
448,192,74830,1,0,0:0:0:0:
320,192,74953,1,0,0:0:0:0:
192,192,75076,1,0,0:0:0:0:
64,192,75076,1,0,0:0:0:0:
448,192,75199,1,0,0:0:0:0:
192,192,75322,1,0,0:0:0:0:
64,192,75322,1,0,0:0:0:0:
320,192,75322,1,0,0:0:0:0:
64,192,75444,1,0,0:0:0:0:
192,192,75444,1,0,0:0:0:0:
320,192,75567,1,0,0:0:0:0:
448,192,75690,1,0,0:0:0:0:
64,192,75690,1,0,0:0:0:0:
192,192,75813,1,0,0:0:0:0:
448,192,75813,1,0,0:0:0:0:
64,192,75813,1,0,0:0:0:0:
320,192,75813,1,0,0:0:0:0:
320,192,75936,1,0,0:0:0:0:
192,192,76059,1,0,0:0:0:0:
320,192,76182,1,0,0:0:0:0:
448,192,76182,1,0,0:0:0:0:
64,192,76182,1,0,0:0:0:0:
192,192,76182,1,0,0:0:0:0:
448,192,76305,1,0,0:0:0:0:
64,192,76428,1,0,0:0:0:0:
64,192,76551,1,0,0:0:0:0:
192,192,76551,1,0,0:0:0:0:
448,192,76551,1,0,0:0:0:0:
320,192,76551,1,0,0:0:0:0:
320,192,76674,1,0,0:0:0:0:
192,192,76797,1,0,0:0:0:0:
320,192,76920,1,0,0:0:0:0:
448,192,77043,1,0,0:0:0:0:
64,192,77043,1,0,0:0:0:0:
192,192,77166,1,0,0:0:0:0:
320,192,77289,1,0,0:0:0:0:
448,192,77289,1,0,0:0:0:0:
64,192,77289,1,0,0:0:0:0:
192,192,77412,1,0,0:0:0:0:
448,192,77535,1,0,0:0:0:0:
192,192,77658,1,0,0:0:0:0:
64,192,77658,1,0,0:0:0:0:
192,192,77780,1,0,0:0:0:0:
64,192,77780,1,0,0:0:0:0:
448,192,77780,1,0,0:0:0:0:
320,192,77780,1,0,0:0:0:0:
320,192,77903,1,0,0:0:0:0:
64,192,78026,1,0,0:0:0:0:
320,192,78149,1,0,0:0:0:0:
448,192,78149,1,0,0:0:0:0:
448,192,78272,1,0,0:0:0:0:
192,192,78272,1,0,0:0:0:0:
64,192,78272,1,0,0:0:0:0:
320,192,78395,1,0,0:0:0:0:
448,192,78518,1,0,0:0:0:0:
320,192,78518,1,0,0:0:0:0:
64,192,78518,1,0,0:0:0:0:
192,192,78518,1,0,0:0:0:0:
64,192,78641,1,0,0:0:0:0:
448,192,78764,1,0,0:0:0:0:
192,192,78887,1,0,0:0:0:0:
448,192,79010,1,0,0:0:0:0:
192,192,79133,1,0,0:0:0:0:
320,192,79256,1,0,0:0:0:0:
448,192,79256,1,0,0:0:0:0:
64,192,79379,1,0,0:0:0:0:
320,192,79502,1,0,0:0:0:0:
64,192,79625,1,0,0:0:0:0:
320,192,79748,1,0,0:0:0:0:
64,192,79748,1,0,0:0:0:0:
448,192,79748,1,0,0:0:0:0:
192,192,79748,1,0,0:0:0:0:
448,192,79871,1,0,0:0:0:0:
192,192,79994,1,0,0:0:0:0:
320,192,80116,1,0,0:0:0:0:
448,192,80116,1,0,0:0:0:0:
64,192,80116,1,0,0:0:0:0:
192,192,80116,1,0,0:0:0:0:
320,192,80239,1,0,0:0:0:0:
64,192,80362,1,0,0:0:0:0:
192,192,80485,1,0,0:0:0:0:
64,192,80485,1,0,0:0:0:0:
448,192,80485,1,0,0:0:0:0:
320,192,80485,1,0,0:0:0:0:
448,192,80608,1,0,0:0:0:0:
320,192,80731,1,0,0:0:0:0:
64,192,80854,1,0,0:0:0:0:
192,192,80977,1,0,0:0:0:0:
448,192,80977,1,0,0:0:0:0:
320,192,80977,1,0,0:0:0:0:
64,192,81100,1,0,0:0:0:0:
320,192,81223,1,0,0:0:0:0:
448,192,81223,1,0,0:0:0:0:
64,192,81223,1,0,0:0:0:0:
192,192,81223,1,0,0:0:0:0:
320,192,81346,1,0,0:0:0:0:
192,192,81469,1,0,0:0:0:0:
448,192,81592,1,0,0:0:0:0:
320,192,81592,1,0,0:0:0:0:
192,192,81715,1,0,0:0:0:0:
64,192,81715,1,0,0:0:0:0:
448,192,81715,1,0,0:0:0:0:
320,192,81715,1,0,0:0:0:0:
192,192,81838,1,0,0:0:0:0:
320,192,81961,1,0,0:0:0:0:
448,192,82084,1,0,0:0:0:0:
64,192,82084,1,0,0:0:0:0:
64,192,82207,1,0,0:0:0:0:
192,192,82207,1,0,0:0:0:0:
320,192,82207,1,0,0:0:0:0:
448,192,82330,1,0,0:0:0:0:
192,192,82452,1,0,0:0:0:0:
64,192,82452,1,0,0:0:0:0:
448,192,82452,1,0,0:0:0:0:
320,192,82452,1,0,0:0:0:0:
192,192,82575,1,0,0:0:0:0:
64,192,82698,1,0,0:0:0:0:
320,192,82821,1,0,0:0:0:0:
64,192,82944,1,0,0:0:0:0:
192,192,82944,1,0,0:0:0:0:
448,192,83067,1,0,0:0:0:0:
64,192,83190,1,0,0:0:0:0:
320,192,83190,1,0,0:0:0:0:
192,192,83190,1,0,0:0:0:0:
320,192,83313,1,0,0:0:0:0:
448,192,83313,1,0,0:0:0:0:
64,192,83436,1,0,0:0:0:0:
192,192,83559,1,0,0:0:0:0:
192,192,83682,1,0,0:0:0:0:
64,192,83682,1,0,0:0:0:0:
448,192,83682,1,0,0:0:0:0:
320,192,83682,1,0,0:0:0:0:
448,192,83805,1,0,0:0:0:0:
320,192,83928,1,0,0:0:0:0:
192,192,84051,1,0,0:0:0:0:
64,192,84051,1,0,0:0:0:0:
448,192,84051,1,0,0:0:0:0:
320,192,84051,1,0,0:0:0:0:
192,192,84174,1,0,0:0:0:0:
64,192,84297,1,0,0:0:0:0:
192,192,84420,1,0,0:0:0:0:
64,192,84420,1,0,0:0:0:0:
448,192,84420,1,0,0:0:0:0:
320,192,84420,1,0,0:0:0:0:
320,192,84543,1,0,0:0:0:0:
448,192,84666,1,0,0:0:0:0:
192,192,84788,1,0,0:0:0:0:
64,192,84911,5,0,0:0:0:0:
448,192,84911,1,0,0:0:0:0:
320,192,84911,1,0,0:0:0:0:
192,192,85034,1,0,0:0:0:0:
192,192,85157,1,0,0:0:0:0:
64,192,85157,1,0,0:0:0:0:
448,192,85157,1,0,0:0:0:0:
320,192,85157,1,0,0:0:0:0:
448,192,85280,1,0,0:0:0:0:
64,192,85403,1,0,0:0:0:0:
192,192,85526,1,0,0:0:0:0:
448,192,85649,5,0,0:0:0:0:
64,192,85649,1,0,0:0:0:0:
320,192,85649,1,0,0:0:0:0:
192,192,85772,1,0,0:0:0:0:
320,192,85895,1,0,0:0:0:0:
448,192,85895,1,0,0:0:0:0:
64,192,86018,1,0,0:0:0:0:
448,192,86018,1,0,0:0:0:0:
320,192,86141,1,0,0:0:0:0:
64,192,86141,1,0,0:0:0:0:
192,192,86141,1,0,0:0:0:0:
448,192,86387,1,0,0:0:0:0:
320,192,86387,1,0,0:0:0:0:
64,192,86633,1,0,0:0:0:0:
192,192,86633,1,0,0:0:0:0:
64,192,86756,1,0,0:0:0:0:
448,192,86756,1,0,0:0:0:0:
448,192,86879,1,0,0:0:0:0:
320,192,86879,1,0,0:0:0:0:
64,192,87002,1,0,0:0:0:0:
192,192,87002,1,0,0:0:0:0:
448,192,87124,1,0,0:0:0:0:
64,192,87124,1,0,0:0:0:0:
320,192,87247,1,0,0:0:0:0:
192,192,87247,1,0,0:0:0:0:
64,192,87370,1,0,0:0:0:0:
320,192,87370,1,0,0:0:0:0:
448,192,87370,1,0,0:0:0:0:
64,192,87493,1,0,0:0:0:0:
192,192,87493,1,0,0:0:0:0:
