osu file format v14

[General]
AudioFilename: audio.mp3
AudioLeadIn: 0
PreviewTime: 55500
Countdown: 0
SampleSet: Soft
StackLeniency: 0.7
Mode: 0
LetterboxInBreaks: 0
WidescreenStoryboard: 0

[Editor]
Bookmarks: 86829
DistanceSpacing: 3
BeatDivisor: 4
GridSize: 4
TimelineZoom: 1

[Metadata]
Title:Through My Blood
TitleUnicode:Through My Blood
Artist:Mika Kobayashi
ArtistUnicode:小林未郁
Creator:Janpai
Version:Misery
Source:甲鉄城のカバネリ
Tags:Koutetsujou no Kabaneri of the Iron Fortress Mumei Episode 4 BGM Background Music OST Original Soundtrack 澤野弘之 sawano hiroyuki cAnON Akitoshi
BeatmapID:1011599
BeatmapSetID:473415

[Difficulty]
HPDrainRate:6
CircleSize:4.2
OverallDifficulty:8.5
ApproachRate:9.3
SliderMultiplier:1.7
SliderTickRate:2

[Events]
//Background and Video events
0,0,"BG.jpg",0,0
//Break Periods
//Storyboard Layer 0 (Background)
//Storyboard Layer 1 (Fail)
//Storyboard Layer 2 (Pass)
//Storyboard Layer 3 (Foreground)
//Storyboard Sound Samples

[TimingPoints]
11829,312.5,6,2,1,70,1,0
26829,-125,6,2,1,40,0,0
34329,-200,6,2,1,40,0,0
41829,-125,6,2,1,60,0,0
55891,-200,6,2,1,40,0,0
56829,-90.9090909090909,6,2,1,80,0,1
85891,-200,6,2,1,70,0,0
86204,-200,6,2,1,50,0,0
86829,-100,6,2,1,70,0,0

[Colours]
Combo1 : 187,119,255
Combo2 : 128,0,0
Combo3 : 255,138,197
Combo4 : 255,128,64

[HitObjects]
64,304,11829,6,0,B|49:261|49:261|56:203,1,85,2|0,0:3|0:0,0:0:0:0:
118,101,12141,2,0,L|22:89,1,85
143,198,12454,2,0,L|239:186,1,85
270,65,12766,6,0,P|326:44|413:111,1,170,8|0,0:0|0:0,0:0:0:0:
464,209,13235,1,0,0:0:0:0:
424,320,13391,2,0,L|312:329,1,85,2|0,0:0|0:0,0:0:0:0:
199,321,13704,6,0,B|186:280|186:280|199:220,1,85,2|0,0:0|0:0,0:0:0:0:
295,167,14016,1,0,0:0:0:0:
291,347,14172,1,2,0:0:0:0:
295,167,14329,1,0,0:0:0:0:
397,290,14485,1,2,0:0:0:0:
469,90,14641,6,0,P|437:60|318:86,1,170,8|0,0:0|0:0,0:0:0:0:
266,244,15110,1,0,0:0:0:0:
459,197,15266,2,0,L|361:188,1,85,2|0,0:0|0:0,0:0:0:0:
168,154,15579,6,0,P|207:138|265:151,1,85,2|0,0:0|0:0,0:0:0:0:
391,276,15891,1,2,0:0:0:0:
220,268,16047,1,2,0:0:0:0:
358,174,16204,1,0,0:0:0:0:
358,174,16360,1,0,0:0:0:0:
267,350,16516,6,0,P|180:353|127:272,1,170,8|0,0:0|0:0,0:0:0:0:
218,184,16985,1,0,0:0:0:0:
42,330,17141,2,0,L|26:222,1,85,2|0,0:0|0:0,0:0:0:0:
163,102,17454,5,2,0:0:0:0:
30,153,17610,1,2,0:0:0:0:
188,181,17766,1,0,0:0:0:0:
70,59,17922,1,2,0:0:0:0:
29,245,18079,2,0,L|127:239,1,85
322,164,18391,6,0,B|307:210|307:210|333:335,1,170,8|0,0:0|0:0,0:0:0:0:
462,210,18860,1,2,0:0:0:0:
445,52,19016,2,0,L|359:53,1,85
181,111,19329,6,0,B|168:67|168:67|178:16,1,85,6|0,0:0|0:0,0:0:0:0:
314,138,19641,2,0,B|327:182|327:182|317:233,1,85
253,62,19954,2,0,L|345:53,1,85
498,15,20266,6,0,L|509:208,1,170,8|0,0:0|0:0,0:0:0:0:
446,297,20735,1,0,0:0:0:0:
309,167,20891,2,0,L|415:178,1,85,2|0,0:0|0:0,0:0:0:0:
193,275,21204,6,0,B|150:279|150:279|87:256,1,85,2|0,0:0|0:0,0:0:0:0:
242,123,21516,1,2,0:0:0:0:
304,285,21672,1,2,0:0:0:0:
304,285,21829,1,0,0:0:0:0:
231,141,21985,1,2,0:0:0:0:
228,356,22141,6,0,B|180:370|180:370|41:355,1,170,8|0,0:0|0:0,0:0:0:0:
60,172,22610,1,0,0:0:0:0:
168,287,22766,2,0,L|60:275,1,85,2|0,0:0|0:0,0:0:0:0:
21,91,23079,6,0,P|60:76|126:87,1,85,2|0,0:0|0:0,0:0:0:0:
244,161,23391,1,2,0:0:0:0:
73,156,23547,1,2,0:0:0:0:
177,262,23704,1,0,0:0:0:0:
177,262,23860,1,0,0:0:0:0:
197,79,24016,6,0,P|263:69|336:150,1,170,8|0,0:0|0:0,0:0:0:0:
406,227,24485,1,0,0:0:0:0:
509,117,24641,2,0,P|462:109|408:107,1,85,2|0,0:0|0:0,0:0:0:0:
258,128,24954,5,2,0:0:0:0:
406,227,25110,1,2,0:0:0:0:
406,227,25266,1,0,0:0:0:0:
211,213,25422,1,2,0:0:0:0:
370,308,25579,1,0,0:0:0:0:
334,137,25735,1,2,0:0:0:0:
238,330,25891,6,0,L|130:310,1,85,8|0,0:0|0:0,0:0:0:0:
84,77,26204,1,8,0:0:0:0:
78,246,26360,1,8,0:3:0:0:
124,165,26516,1,4,0:3:0:0:
30,170,26672,1,4,0:3:0:0:
33,343,26829,6,0,P|82:354|164:299,1,136,6|0,0:0|0:0,0:0:0:0:
204,249,27297,1,0,0:0:0:0:
204,249,27454,2,0,L|276:245,1,68,4|0,0:1|0:0,0:0:0:0:
377,336,27766,6,0,L|361:267,1,68,8|0,0:0|0:0,0:0:0:0:
477,180,28079,2,0,L|461:249,1,68,2|0,0:0|0:0,0:0:0:0:
355,151,28391,1,4,0:1:0:0:
271,245,28547,1,2,0:0:0:0:
286,77,28704,6,0,B|336:62|336:62|430:61,1,136
373,233,29172,1,0,0:0:0:0:
469,142,29329,1,2,0:0:0:0:
469,142,29485,1,2,0:0:0:0:
263,165,29641,6,0,P|212:170|153:99,1,136,8|0,0:0|0:0,0:0:0:0:
58,55,30110,1,4,0:1:0:0:
58,55,30266,2,0,P|71:101|71:128,1,68,2|0,0:0|0:0,0:0:0:0:
9,249,30579,6,0,P|44:223|147:241,1,136,2|0,0:0|0:0,0:0:0:0:
208,289,31047,2,0,P|173:315|70:297,1,136
197,157,31516,6,0,L|278:149,1,68,8|0,0:0|0:0,0:0:0:0:
356,184,31829,1,2,0:0:0:0:
449,155,31985,2,0,B|453:120|453:120|441:82,1,68,0|4,0:0|0:1,0:0:0:0:
314,55,32297,1,2,0:0:0:0:
290,263,32454,6,0,P|337:265|414:221,1,136
271,168,32922,1,0,0:0:0:0:
298,348,33079,1,2,0:0:0:0:
298,348,33235,1,2,0:0:0:0:
183,201,33391,6,0,B|160:136|216:136|179:52,1,136,8|0,0:0|0:0,0:0:0:0:
102,102,33860,1,4,0:1:0:0:
271,168,34016,2,0,P|306:166|346:168,1,68,2|0,0:0|0:0,0:0:0:0:
280,324,34329,6,0,B|196:299|196:359|140:337|140:337|182:284|152:235,1,255,4|0,0:0|0:0,0:0:0:0:
126,162,35422,2,0,P|137:159|179:157,1,42.5
258,234,35735,2,0,P|297:220|320:185,1,85
472,112,36204,6,0,B|368:160|368:80|263:124,1,212.5
184,161,37141,2,0,P|92:130|111:34,1,212.5
265,122,38079,6,0,L|362:114,1,85
383,239,38704,1,0,0:0:0:0:
383,239,38860,1,0,0:0:0:0:
241,326,39172,2,0,L|247:369,2,42.5
192,164,39797,1,0,0:0:0:0:
192,164,39954,6,0,P|144:140|98:145,1,85
54,269,40579,1,0,0:0:0:0:
54,269,40735,1,0,0:0:0:0:
257,329,41047,2,0,L|172:334,2,85,0|4|0,0:0|0:1|0:0,0:0:0:0:
416,260,41829,6,0,L|410:169,1,68,6|0,0:0|0:0,0:0:0:0:
393,96,42141,1,0,0:0:0:0:
297,210,42297,1,0,0:0:0:0:
297,71,42454,1,0,0:0:0:0:
411,192,42610,1,0,0:0:0:0:
296,304,42766,6,0,L|190:299,1,102,8|0,0:0|0:0,0:0:0:0:
159,295,43079,1,2,0:0:0:0:
47,182,43235,1,0,0:0:0:0:
87,314,43391,1,4,0:1:0:0:
153,134,43547,1,2,0:0:0:0:
153,134,43704,6,0,B|110:149|110:149|10:142,1,136
71,43,44172,1,0,0:0:0:0:
173,217,44329,1,2,0:0:0:0:
173,217,44485,1,2,0:0:0:0:
212,61,44641,6,0,B|264:61|264:61|300:49|300:49|364:49,1,136,8|0,0:0|0:0,0:0:0:0:
402,193,45110,1,4,0:1:0:0:
468,49,45266,1,2,0:0:0:0:
339,139,45422,1,0,0:0:0:0:
468,49,45579,6,0,B|490:90|490:90|482:188,1,136,2|0,0:0|0:0,0:0:0:0:
369,302,46047,1,0,0:0:0:0:
369,302,46204,2,0,L|458:293,1,68
240,361,46516,6,0,P|246:301|244:234,1,102,8|0,0:0|0:0,0:0:0:0:
245,224,46829,1,2,0:0:0:0:
86,243,46985,1,0,0:0:0:0:
178,157,47141,1,4,0:1:0:0:
164,300,47297,1,2,0:0:0:0:
90,134,47454,6,0,P|121:83|209:70,1,136
337,126,47922,1,0,0:0:0:0:
178,157,48079,1,2,0:0:0:0:
178,157,48235,1,2,0:0:0:0:
409,88,48391,6,0,B|442:158|390:158|414:234,1,136,8|0,0:0|0:0,0:0:0:0:
310,357,48860,1,0,0:0:0:0:
310,357,49016,2,0,P|315:315|311:273,1,68,4|0,0:1|0:0,0:0:0:0:
202,117,49329,6,0,P|262:127|351:125,1,136,2|0,0:0|0:0,0:0:0:0:
252,253,49797,1,0,0:0:0:0:
252,253,49954,2,0,P|212:246|169:244,1,68
356,362,50266,6,0,B|364:319|364:319|356:292|356:292|363:242,1,102,8|0,0:0|0:0,0:0:0:0:
369,229,50579,1,2,0:0:0:0:
431,127,50735,1,0,0:0:0:0:
297,194,50891,1,4,0:1:0:0:
451,209,51047,1,2,0:0:0:0:
360,100,51204,6,0,L|192:89,1,136
297,194,51672,1,0,0:0:0:0:
172,24,51829,1,2,0:0:0:0:
172,24,51985,1,2,0:0:0:0:
71,174,52141,6,0,B|139:180|139:180|232:164,1,136,8|0,0:0|0:0,0:0:0:0:
330,99,52610,1,4,0:1:0:0:
172,24,52766,2,0,L|183:97,1,68,2|0,0:0|0:0,0:0:0:0:
304,249,53079,6,0,B|236:243|236:243|143:259,1,136,2|0,0:0|0:0,0:0:0:0:
283,337,53547,1,0,0:0:0:0:
283,337,53704,2,0,B|318:341|318:341|371:332,1,68
487,185,54016,6,0,P|461:145|393:132,1,102,8|0,0:0|0:0,0:0:0:0:
377,133,54329,1,2,0:0:0:0:
256,211,54485,1,0,0:0:0:0:
313,71,54641,1,4,0:1:0:0:
361,234,54797,1,2,0:0:0:0:
249,130,54954,6,0,L|104:127,1,136
50,216,55422,1,0,0:0:0:0:
150,294,55579,2,0,L|151:224,1,68
249,130,55891,6,0,L|250:245,1,106.25,2|0,0:0|0:0,0:0:0:0:
258,331,56360,2,0,P|285:340|329:344,1,63.75,2|0,0:0|0:0,0:0:0:0:
342,344,56672,1,2,0:0:0:0:
486,140,56829,6,0,L|365:134,1,93.5000028533936,2|0,0:3|0:0,0:0:0:0:
226,172,57141,1,0,0:0:0:0:
381,213,57297,1,0,0:0:0:0:
265,72,57454,1,0,0:0:0:0:
380,250,57610,1,0,0:0:0:0:
179,266,57766,6,0,L|171:72,1,187.000005706787,8|4,0:0|0:1,0:0:0:0:
332,158,58235,1,0,0:0:0:0:
332,158,58391,2,0,B|341:205|341:205|332:267,1,93.5000028533936,2|0,0:0|0:0,0:0:0:0:
168,369,58704,6,0,B|159:322|159:322|168:260,1,93.5000028533936,2|0,0:0|0:0,0:0:0:0:
255,196,59016,1,0,0:0:0:0:
77,273,59172,1,2,0:0:0:0:
142,154,59329,1,0,0:0:0:0:
250,281,59485,1,2,0:0:0:0:
182,71,59641,6,0,P|90:75|47:150,1,187.000005706787,8|0,0:0|0:0,0:0:0:0:
170,234,60110,1,0,0:0:0:0:
61,341,60266,2,0,L|172:335,1,93.5000028533936,2|0,0:0|0:0,0:0:0:0:
315,216,60579,6,0,P|344:259|334:314,1,93.5000028533936,6|0,0:0|0:0,0:0:0:0:
96,259,60891,1,2,0:0:0:0:
267,275,61047,1,2,0:0:0:0:
154,335,61204,1,0,0:0:0:0:
265,204,61360,1,0,0:0:0:0:
423,343,61516,6,0,B|413:276|413:276|431:230|431:230|419:150,1,187.000005706787,8|4,0:0|0:1,0:0:0:0:
291,55,61985,1,0,0:0:0:0:
291,55,62141,2,0,L|301:152,1,93.5000028533936,2|0,0:0|0:0,0:0:0:0:
104,250,62454,5,2,0:0:0:0:
217,135,62610,1,2,0:0:0:0:
56,152,62766,1,0,0:0:0:0:
184,47,62922,1,2,0:0:0:0:
104,250,63079,1,0,0:0:0:0:
118,87,63235,1,0,0:0:0:0:
214,316,63391,6,0,P|285:318|340:209,1,187.000005706787,8|0,0:0|0:0,0:0:0:0:
158,231,63860,2,0,L|252:231,1,93.5000028533936,2|0,0:0|0:0,0:0:0:0:
119,137,64172,1,0,0:0:0:0:
40,283,64329,6,0,B|31:237|31:237|43:175,1,93.5000028533936,6|0,0:0|0:0,0:0:0:0:
201,166,64641,1,0,0:0:0:0:
43,54,64797,2,0,L|139:42,1,93.5000028533936
201,166,65110,1,0,0:0:0:0:
51,315,65266,6,0,P|102:281|224:329,1,187.000005706787,8|4,0:0|0:1,0:0:0:0:
352,362,65735,1,0,0:0:0:0:
352,362,65891,2,0,B|367:315|367:315|358:259,1,93.5000028533936,2|0,0:0|0:0,0:0:0:0:
145,213,66204,6,0,L|248:204,1,93.5000028533936,2|0,0:0|0:0,0:0:0:0:
280,289,66516,1,0,0:0:0:0:
398,179,66672,1,2,0:0:0:0:
228,104,66829,1,0,0:0:0:0:
280,289,66985,1,2,0:0:0:0:
277,37,67141,6,0,B|189:1|189:69|80:37,1,187.000005706787,8|0,0:0|0:0,0:0:0:0:
94,208,67610,1,0,0:0:0:0:
94,208,67766,2,0,P|112:159|98:109,1,93.5000028533936,2|0,0:0|0:0,0:0:0:0:
277,37,68079,6,0,L|284:138,1,93.5000028533936,6|0,0:0|0:0,0:0:0:0:
432,203,68391,1,2,0:0:0:0:
250,232,68547,1,2,0:0:0:0:
357,87,68704,1,0,0:0:0:0:
357,87,68860,1,0,0:0:0:0:
328,326,69016,6,0,L|124:305,1,187.000005706787,8|4,0:0|0:1,0:0:0:0:
211,113,69485,1,0,0:0:0:0:
211,113,69641,2,0,B|218:162|218:162|206:205,1,93.5000028533936,2|0,0:0|0:0,0:0:0:0:
53,319,69954,5,2,0:0:0:0:
242,276,70110,1,2,0:0:0:0:
123,230,70266,1,0,0:0:0:0:
218,356,70422,1,2,0:0:0:0:
257,197,70579,1,0,0:0:0:0:
347,338,70735,1,2,0:0:0:0:
426,204,70891,6,0,L|326:209,1,93.5000028533936,8|0,0:0|0:0,0:0:0:0:
208,101,71204,1,8,0:3:0:0:
142,261,71360,1,8,0:3:0:0:
300,138,71516,1,4,0:3:0:0:
104,106,71672,1,8,0:3:0:0:
78,343,71829,6,0,L|190:331,1,93.5000028533936,2|0,0:3|0:0,0:0:0:0:
325,250,72141,1,0,0:0:0:0:
170,232,72297,1,0,0:0:0:0:
300,138,72454,1,0,0:0:0:0:
288,327,72610,1,0,0:0:0:0:
145,211,72766,6,0,P|104:152|152:50,1,187.000005706787,8|4,0:0|0:1,0:0:0:0:
288,133,73235,1,0,0:0:0:0:
288,133,73391,2,0,L|195:133,1,93.5000028533936,2|0,0:0|0:0,0:0:0:0:
71,312,73704,6,0,L|164:312,1,93.5000028533936,2|0,0:0|0:0,0:0:0:0:
310,354,74016,1,0,0:0:0:0:
402,221,74172,1,2,0:0:0:0:
244,300,74329,1,0,0:0:0:0:
440,339,74485,1,2,0:0:0:0:
223,220,74641,6,0,B|170:205|170:205|34:205,1,187.000005706787,8|0,0:0|0:0,0:0:0:0:
136,376,75110,1,0,0:0:0:0:
136,376,75266,2,0,P|152:321|124:263,1,93.5000028533936,2|0,0:0|0:0,0:0:0:0:
40,132,75579,6,0,L|160:132,1,93.5000028533936,6|0,0:0|0:0,0:0:0:0:
249,50,75891,1,2,0:0:0:0:
201,198,76047,1,2,0:0:0:0:
164,40,76204,1,0,0:0:0:0:
287,210,76360,1,0,0:0:0:0:
371,37,76516,6,0,P|449:39|489:140,1,187.000005706787,8|4,0:0|0:1,0:0:0:0:
373,245,76985,1,0,0:0:0:0:
373,245,77141,2,0,B|361:197|361:197|372:146,1,93.5000028533936,2|0,0:0|0:0,0:0:0:0:
472,341,77454,6,0,L|372:337,1,93.5000028533936,2|0,0:0|0:0,0:0:0:0:
286,236,77766,1,0,0:0:0:0:
445,188,77922,1,2,0:0:0:0:
259,142,78079,1,0,0:0:0:0:
102,251,78235,1,2,0:0:0:0:
102,251,78313,1,2,0:0:0:0:
102,251,78391,6,0,B|156:261|156:261|299:233,1,187.000005706787,8|0,0:0|0:0,0:0:0:0:
135,155,78860,1,2,0:0:0:0:
242,351,79016,1,8,0:0:0:0:
207,110,79172,1,8,0:0:0:0:
128,348,79329,6,0,P|78:349|38:328,1,93.5000028533936,6|0,0:0|0:0,0:0:0:0:
61,130,79641,1,0,0:0:0:0:
102,265,79797,1,0,0:0:0:0:
207,110,79954,1,0,0:0:0:0:
31,213,80110,1,0,0:0:0:0:
235,226,80266,6,0,B|305:225|305:225|351:210|351:210|427:210,1,187.000005706787,8|4,0:0|0:1,0:0:0:0:
496,98,80735,1,0,0:0:0:0:
496,98,80891,2,0,L|398:97,1,93.5000028533936,2|0,0:0|0:0,0:0:0:0:
235,226,81204,6,0,P|220:168|239:119,1,93.5000028533936,2|0,0:0|0:0,0:0:0:0:
350,183,81516,1,0,0:0:0:0:
175,70,81672,1,2,0:0:0:0:
347,140,81829,1,0,0:0:0:0:
147,198,81985,1,2,0:0:0:0:
263,43,82141,6,0,L|270:233,1,187.000005706787,8|0,0:0|0:0,0:0:0:0:
373,333,82610,1,0,0:0:0:0:
373,333,82766,2,0,L|376:230,1,93.5000028533936,2|0,0:0|0:0,0:0:0:0:
474,67,83079,6,0,L|477:170,1,93.5000028533936,6|0,0:0|0:0,0:0:0:0:
312,123,83391,1,2,0:0:0:0:
471,243,83547,1,2,0:0:0:0:
388,74,83704,1,0,0:0:0:0:
313,248,83860,1,0,0:0:0:0:
227,86,84016,6,0,B|176:65|176:65|32:74,1,187.000005706787,8|4,0:0|0:1,0:0:0:0:
27,244,84485,1,0,0:0:0:0:
27,244,84641,2,0,L|121:238,1,93.5000028533936,2|0,0:0|0:0,0:0:0:0:
360,220,84954,5,2,0:0:0:0:
249,114,85110,1,2,0:0:0:0:
293,287,85266,1,0,0:0:0:0:
162,100,85422,1,8,0:0:0:0:
378,145,85579,1,4,0:3:0:0:
210,294,85735,1,8,0:3:0:0:
226,40,85891,6,0,L|359:33,1,127.5,8|0,0:0|0:0,0:0:0:0:
210,294,86829,6,0,L|29:274,1,170,2|0,0:3|0:0,0:0:0:0:
57,120,87297,1,0,0:0:0:0:
57,120,87454,2,0,L|154:112,1,85
286,44,87766,6,0,L|297:162,1,85,8|0,0:0|0:0,0:0:0:0:
387,234,88079,1,0,0:0:0:0:
366,79,88235,1,0,0:0:0:0:
247,211,88391,1,2,0:0:0:0:
416,154,88547,1,0,0:0:0:0:
248,304,88704,6,0,P|186:281|160:180,1,170,2|0,0:0|0:0,0:0:0:0:
237,48,89172,1,2,0:0:0:0:
237,48,89329,2,0,P|253:108|253:158,1,85,0|2,0:0|0:0,0:0:0:0:
98,288,89641,6,0,P|82:228|82:178,1,85,8|0,0:0|0:0,0:0:0:0:
166,81,89954,1,0,0:0:0:0:
234,213,90110,1,0,0:0:0:0:
164,37,90266,1,2,0:0:0:0:
80,205,90422,1,0,0:0:0:0:
248,70,90579,6,0,P|286:42|394:63,1,127.5,6|0,0:0|0:0,0:0:0:0:
403,67,90891,1,2,0:0:0:0:
331,175,91047,1,2,0:0:0:0:
490,152,91204,2,0,L|501:58,1,85
331,175,91516,6,0,L|342:269,1,85,8|0,0:0|0:0,0:0:0:0:
246,341,91829,1,0,0:0:0:0:
436,295,91985,1,0,0:0:0:0:
253,219,92141,1,2,0:0:0:0:
420,154,92297,1,0,0:0:0:0:
253,219,92454,6,0,L|151:207,1,85,2|2,0:0|0:0,0:0:0:0:
31,165,92766,1,0,0:0:0:0:
213,125,92922,1,2,0:0:0:0:
47,161,93079,1,0,0:0:0:0:
165,63,93235,1,0,0:0:0:0:
203,279,93391,6,0,L|51:277,1,127.5,8|0,0:0|0:0,0:0:0:0:
28,277,93704,1,2,0:0:0:0:
251,356,93860,1,8,0:0:0:0:
153,192,94016,1,0,0:0:0:0:
172,376,94172,1,2,0:0:0:0:
311,220,94329,6,0,P|376:214|437:302,1,170,6|0,0:0|0:0,0:0:0:0:
222,261,94797,1,0,0:0:0:0:
222,261,94954,2,0,L|232:170,1,85
90,59,95266,6,0,L|100:150,1,85,8|0,0:0|0:0,0:0:0:0:
64,299,95579,1,0,0:0:0:0:
153,214,95735,1,0,0:0:0:0:
31,330,95891,1,2,0:0:0:0:
12,163,96047,1,0,0:0:0:0:
151,323,96204,6,0,P|199:327|330:325,1,170,2|0,0:0|0:0,0:0:0:0:
296,184,96672,1,2,0:0:0:0:
296,184,96829,2,0,P|295:135|292:85,1,85,0|2,0:0|0:0,0:0:0:0:
155,15,97141,6,0,P|156:64|159:114,1,85,8|0,0:0|0:0,0:0:0:0:
88,257,97454,1,0,0:0:0:0:
70,108,97610,1,0,0:0:0:0:
194,181,97766,1,2,0:0:0:0:
293,99,97922,1,0,0:0:0:0:
337,274,98079,6,0,L|182:274,1,127.5,6|0,0:0|0:0,0:0:0:0:
162,274,98391,1,2,0:0:0:0:
104,127,98547,1,2,0:0:0:0:
15,244,98704,2,0,P|5:303|24:336,1,85
169,163,99016,6,0,L|269:159,1,85,8|0,0:0|0:0,0:0:0:0:
356,94,99329,1,0,0:0:0:0:
221,64,99485,1,0,0:0:0:0:
380,99,99641,1,2,0:0:0:0:
308,258,99797,1,0,0:0:0:0:
454,162,99954,5,2,0:0:0:0:
253,159,100110,1,8,0:0:0:0:
371,207,100266,1,0,0:0:0:0:
274,45,100422,1,2,0:0:0:0:
223,259,100579,1,8,0:0:0:0:
267,75,100735,1,2,0:0:0:0:
67,249,100891,5,8,0:0:0:0:
321,153,101047,1,8,0:0:0:0:
47,135,101204,1,8,0:0:0:0:
267,75,101360,1,8,0:0:0:0:
176,285,101516,1,8,0:0:0:0:
198,27,101672,1,8,0:0:0:0:
283,232,101829,6,0,P|354:235|409:134,1,170,2|2,0:3|0:0,0:0:0:0:
316,38,102297,1,4,0:3:0:0:
316,38,102454,2,0,B|307:79|307:79|318:145,1,85
184,297,102766,6,0,B|193:256|193:256|182:190,1,85,8|0,0:0|0:0,0:0:0:0:
87,116,103079,1,2,0:0:0:0:
7,249,103235,2,0,L|92:233,1,85,8|0,0:3|0:0,0:0:0:0:
198,133,103547,1,2,0:0:0:0:
263,265,103704,6,0,P|321:272|368:262,1,85,2|0,0:0|0:0,0:0:0:0:
456,234,104016,1,2,0:0:0:0:
442,120,104172,2,0,P|401:101|353:107,1,85,8|0,0:3|0:0,0:0:0:0:
362,103,104485,1,2,0:0:0:0:
235,193,104641,6,0,L|225:100,1,85,8|0,0:0|0:0,0:0:0:0:
96,48,104954,2,0,L|86:141,1,85,2|0,0:0|0:0,0:0:0:0:
136,281,105266,2,0,P|93:265|45:271,1,85,8|0,0:3|0:0,0:0:0:0:
243,354,105579,6,0,P|260:294|262:169,1,170,6|0,0:0|0:0,0:0:0:0:
205,81,106047,2,0,P|255:67|292:71,1,85,4|0,0:3|0:0,0:0:0:0:
287,69,106360,1,2,0:0:0:0:
461,204,106516,6,0,P|411:218|374:214,1,85,8|0,0:0|0:0,0:0:0:0:
401,41,106829,2,0,L|407:133,1,85,2|0,0:0|0:0,0:0:0:0:
266,294,107141,2,0,L|272:202,1,85,2|0,0:0|0:0,0:0:0:0:
273,50,107454,6,0,P|216:38|139:128,1,170,2|0,0:0|0:0,0:0:0:0:
185,244,107922,2,0,L|77:231,1,85,4|0,0:3|0:0,0:0:0:0:
100,233,108235,1,2,0:0:0:0:
275,106,108391,6,0,L|272:46,2,56.6666666666667,8|0|0,0:0|0:0|0:0,0:0:0:0:
383,197,108704,2,0,L|385:253,2,56.6666666666667,2|0|0,0:0|0:0|0:0,0:0:0:0:
465,84,109016,2,0,L|467:27,2,56.6666666666667,8|0|0,0:3|0:0|0:0,0:0:0:0:
297,226,109329,5,6,0:0:0:0:
482,216,109485,1,0,0:0:0:0:
356,109,109641,1,0,0:0:0:0:
351,334,109797,2,0,B|301:343|301:343|190:332,1,127.5,8|0,0:3|0:0,0:0:0:0:
178,323,110110,1,2,0:0:0:0:
86,152,110266,5,8,0:0:0:0:
243,229,110422,1,0,0:0:0:0:
51,281,110579,1,2,0:0:0:0:
287,279,110735,2,0,L|286:117,1,127.5,8|0,0:3|0:0,0:0:0:0:
283,104,111047,1,2,0:0:0:0:
410,214,111204,5,2,0:0:0:0:
368,60,111360,1,0,0:0:0:0:
489,169,111516,1,2,0:0:0:0:
357,316,111672,2,8,P|303:327|222:310,1,127.5,8|0,0:3|0:0,0:3:0:0:
190,291,111985,1,2,0:0:0:0:
104,100,112141,6,0,P|153:85|242:154,1,170,8|2,0:0|0:0,0:0:0:0:
26,215,112610,2,0,L|23:37,1,170,8|2,0:3|0:0,0:0:0:0:
153,178,113079,5,6,0:0:0:0:
268,54,113235,1,0,0:0:0:0:
103,51,113391,1,0,0:0:0:0:
244,207,113547,2,0,B|298:220|298:220|407:210,1,127.5,8|0,0:3|0:0,0:0:0:0:
416,207,113860,1,2,0:0:0:0:
341,348,114016,5,8,0:0:0:0:
353,131,114172,1,0,0:0:0:0:
484,249,114329,1,0,0:0:0:0:
353,131,114485,2,0,P|309:110|248:111,1,85,8|0,0:3|0:0,0:0:0:0:
59,272,114797,1,2,0:0:0:0:
59,272,114875,1,0,0:0:0:0:
59,272,114954,5,12,0:0:0:0:
250,193,115110,1,0,0:0:0:0:
111,176,115266,1,2,0:0:0:0:
280,350,115422,1,8,0:0:0:0:
188,123,115579,1,0,0:0:0:0:
187,279,115735,1,2,0:0:0:0:
353,91,115891,5,12,0:0:0:0:
250,193,116047,1,2,0:0:0:0:
462,170,116204,1,8,0:0:0:0:
236,56,116360,1,8,0:0:0:0:
367,291,116516,1,8,0:0:0:0:
449,33,116672,5,8,0:0:0:0:
