osu file format v14

[General]
AudioFilename: audio.mp3
AudioLeadIn: 0
PreviewTime: -1
Countdown: 1
SampleSet: Normal
StackLeniency: 0.7
Mode: 0
LetterboxInBreaks: 0
WidescreenStoryboard: 0

[Editor]
DistanceSpacing: 0.6
BeatDivisor: 4
GridSize: 32
TimelineZoom: 2.1

[Metadata]
Title:Girl Inside
TitleUnicode:Girl Inside
Artist:Mika Kobayashi
ArtistUnicode:Mika Kobayashi
Creator:Agony-Nyan
Version:Honkai Power
Source:
Tags:Honkai Impact 3 Gun Girls Mika Kobayashi Girl Inside
BeatmapID:1780302
BeatmapSetID:851647

[Difficulty]
HPDrainRate:5
CircleSize:4.2
OverallDifficulty:9
ApproachRate:9.6
SliderMultiplier:2.5
SliderTickRate:1

[Events]
//Background and Video events
0,0,"be416253e6cfc9f1f33752a141f539eb.jpg",0,0
//Break Periods
//Storyboard Layer 0 (Background)
//Storyboard Layer 1 (Fail)
//Storyboard Layer 2 (Pass)
//Storyboard Layer 3 (Foreground)
//Storyboard Sound Samples

[TimingPoints]
716.88483613444,312.5,4,1,1,100,1,0
12586,-200,4,1,1,100,0,0
30789,-500,4,1,1,100,0,0
31805,-1000,4,1,1,100,0,0
33289,-333.333333333333,4,1,1,100,0,0
38289,-1000,4,1,1,100,0,0
40711,-500,4,1,1,100,0,0
51883,-66.6666666666667,4,1,1,100,0,0
53211,-250,4,1,1,100,0,0
58289,-100,4,1,1,100,0,0
62898,-200,4,1,1,100,0,0
64461,-100,4,1,1,100,0,0
65476,-500,4,1,1,100,0,0
66336,-66.6666666666667,4,1,1,100,0,0
67039,-500,4,1,1,100,0,0
68211,-133.333333333333,4,1,1,100,0,0
81648,-200,4,1,1,100,0,0
90555,-66.6666666666667,4,1,1,100,0,0
95711,-100,4,1,1,100,0,0
120789,-200,4,1,1,100,0,0
131180,-100,4,1,1,100,0,0
139305,-250,4,1,1,100,0,0
143211,-100,4,1,1,100,0,0
149930,-66.6666666666667,4,1,1,100,0,0
163211,-100,4,1,1,100,0,0
181492,-200,4,1,1,100,0,0
182039,-66.6666666666667,4,1,1,100,0,0

[HitObjects]
223,107,716,5,0,2:0:0:0:
294,200,872,1,0,2:0:0:0:
325,56,1028,1,0,2:0:0:0:
204,192,1185,1,0,2:0:0:0:
255,82,1341,5,0,2:0:0:0:
331,195,1497,1,0,2:0:0:0:
176,137,1653,1,0,2:0:0:0:
329,47,1810,1,0,2:0:0:0:
183,85,1966,5,0,2:0:0:0:
298,167,2122,1,0,2:0:0:0:
154,225,2278,1,0,2:0:0:0:
246,93,2435,1,0,2:0:0:0:
341,104,2591,5,0,2:0:0:0:
422,228,2747,1,0,2:0:0:0:
321,212,2903,1,0,2:0:0:0:
450,136,3060,1,0,2:0:0:0:
187,106,3216,5,0,2:0:0:0:
320,66,3372,1,0,2:0:0:0:
395,51,3528,6,0,P|438:140|427:186,1,125,0|0,2:0|2:0,2:0:0:0:
243,54,3841,1,0,2:0:0:0:
155,278,3997,2,0,P|141:160|147:123,1,125,0|0,2:0|2:0,2:0:0:0:
309,224,4310,1,0,2:0:0:0:
443,184,4466,2,0,P|463:256|440:330,1,125,0|0,2:0|2:0,2:0:0:0:
132,236,4778,6,0,L|194:128,1,125,0|0,2:0|2:0,2:0:0:0:
416,204,5091,2,0,L|478:369,1,125,0|0,2:0|2:0,2:0:0:0:
87,120,5403,2,0,L|226:69,1,125,0|0,2:0|2:0,2:0:0:0:
239,130,5716,5,0,2:0:0:0:
329,249,5872,1,0,2:0:0:0:
369,65,6028,1,0,2:0:0:0:
215,239,6185,1,0,2:0:0:0:
280,99,6341,5,0,2:0:0:0:
376,242,6497,1,0,2:0:0:0:
179,169,6653,1,0,2:0:0:0:
374,54,6810,1,0,2:0:0:0:
188,102,6966,5,0,2:0:0:0:
334,207,7122,1,0,2:0:0:0:
151,281,7278,1,0,2:0:0:0:
268,113,7435,1,0,2:0:0:0:
359,83,7591,5,0,2:0:0:0:
282,203,7747,1,0,2:0:0:0:
393,252,7903,1,0,2:0:0:0:
292,104,8060,1,0,2:0:0:0:
138,37,8216,6,0,P|92:130|96:192,1,125,0|0,2:0|2:0,2:0:0:0:
368,373,8528,2,0,P|425:253|415:214,1,125,0|0,2:0|2:0,2:0:0:0:
206,40,8841,2,0,P|148:106|133:153,1,125,0|0,2:0|2:0,2:0:0:0:
376,328,9153,2,0,P|408:251|400:189,1,125,0|0,2:0|2:0,2:0:0:0:
128,64,9466,5,0,2:0:0:0:
384,128,9622,1,0,2:0:0:0:
320,352,9778,1,0,2:0:0:0:
64,288,9935,1,0,2:0:0:0:
205,58,10091,5,0,2:0:0:0:
150,252,10247,1,0,2:0:0:0:
289,67,10403,5,0,2:0:0:0:
288,305,10560,1,0,2:0:0:0:
369,144,10716,5,0,3:1:0:0:
369,199,10794,1,0,3:1:0:0:
335,250,10872,1,0,3:1:0:0:
291,284,10950,1,0,3:1:0:0:
232,298,11028,1,0,3:1:0:0:
174,298,11106,5,0,3:1:0:0:
120,266,11185,1,0,3:1:0:0:
81,229,11263,1,0,3:1:0:0:
73,181,11341,1,0,3:1:0:0:
88,137,11419,1,0,3:1:0:0:
124,107,11497,5,0,3:1:0:0:
165,82,11575,1,0,3:1:0:0:
209,67,11653,1,0,3:1:0:0:
260,74,11731,1,0,3:1:0:0:
303,96,11810,1,0,3:1:0:0:
336,129,11888,5,0,3:1:0:0:
361,174,11966,1,0,3:1:0:0:
402,213,12044,1,0,3:1:0:0:
448,239,12122,1,0,3:1:0:0:
497,242,12200,1,0,3:1:0:0:
484,290,12278,5,0,3:1:0:0:
446,327,12356,1,0,3:1:0:0:
403,357,12435,1,0,3:1:0:0:
352,375,12513,1,0,3:1:0:0:
307,384,12591,2,0,P|212:364|243:279,1,187.5,0|0,2:0|2:0,2:0:0:0:
256,249,13138,5,0,3:3:0:0:
214,207,13216,1,0,3:3:0:0:
185,158,13294,1,0,3:3:0:0:
197,105,13373,1,0,3:3:0:0:
239,69,13451,1,0,3:3:0:0:
293,63,13528,5,0,3:3:0:0:
322,109,13607,1,0,3:3:0:0:
371,158,13685,1,0,3:3:0:0:
426,185,13763,1,0,3:3:0:0:
472,185,13841,1,0,3:3:0:0:
453,224,13919,5,0,3:3:0:0:
409,247,13998,1,0,3:3:0:0:
355,245,14076,1,0,3:3:0:0:
298,233,14153,1,0,3:3:0:0:
255,201,14231,1,0,3:3:0:0:
220,173,14309,2,0,P|146:211|156:78,1,281.25,0|0,2:0|2:0,2:0:0:0:
217,204,15091,6,0,P|309:182|254:224,1,250,0|0,2:0|2:0,2:0:0:0:
254,253,15794,5,0,2:0:0:0:
285,296,15873,1,0,2:0:0:0:
329,325,15951,1,0,2:0:0:0:
382,326,16029,1,0,2:0:0:0:
426,296,16107,1,0,2:0:0:0:
465,260,16185,5,0,2:0:0:0:
495,216,16263,1,0,2:0:0:0:
512,165,16341,1,0,2:0:0:0:
487,116,16419,1,0,2:0:0:0:
444,82,16498,1,0,2:0:0:0:
394,63,16576,5,0,2:0:0:0:
344,43,16654,1,0,2:0:0:0:
292,31,16731,1,0,2:0:0:0:
238,23,16810,1,0,2:0:0:0:
187,39,16888,1,0,2:0:0:0:
141,65,16966,2,0,P|100:147|214:193,1,218.75,0|0,2:0|2:0,2:0:0:0:
223,102,17669,2,0,L|349:199,1,156.25,0|0,2:0|2:0,2:0:0:0:
365,233,18216,5,0,2:0:0:0:
410,275,18294,1,0,2:0:0:0:
473,263,18372,1,0,2:0:0:0:
499,207,18450,1,0,2:0:0:0:
486,153,18528,1,0,2:0:0:0:
429,139,18607,5,0,2:0:0:0:
375,157,18685,1,0,2:0:0:0:
319,136,18763,1,0,2:0:0:0:
299,83,18841,1,0,2:0:0:0:
245,49,18919,1,0,2:0:0:0:
193,49,18997,5,0,2:0:0:0:
138,59,19075,1,0,2:0:0:0:
92,93,19153,1,0,2:0:0:0:
58,140,19232,1,0,2:0:0:0:
55,192,19310,1,0,2:0:0:0:
80,233,19388,2,0,P|135:272|266:262,1,187.5,0|0,2:0|2:0,2:0:0:0:
314,275,20013,5,0,2:0:0:0:
264,165,20169,1,0,2:0:0:0:
348,253,20325,1,0,2:0:0:0:
309,171,20481,1,0,2:0:0:0:
374,175,20638,5,0,2:0:0:0:
430,187,20716,1,0,2:0:0:0:
485,227,20794,1,0,2:0:0:0:
500,289,20872,1,0,2:0:0:0:
472,342,20950,1,0,2:0:0:0:
418,349,21028,5,0,2:0:0:0:
365,361,21106,1,0,2:0:0:0:
310,352,21185,1,0,2:0:0:0:
266,318,21263,1,0,2:0:0:0:
237,277,21341,1,0,2:0:0:0:
197,249,21419,5,0,2:0:0:0:
141,250,21497,1,0,2:0:0:0:
99,211,21575,1,0,2:0:0:0:
114,161,21653,1,0,2:0:0:0:
156,129,21731,1,0,2:0:0:0:
206,142,21810,5,0,2:0:0:0:
263,160,21888,1,0,2:0:0:0:
320,145,21966,1,0,2:0:0:0:
372,122,22044,1,0,2:0:0:0:
420,155,22122,1,0,2:0:0:0:
448,192,22200,5,0,2:0:0:0:
463,249,22278,1,0,2:0:0:0:
452,309,22356,1,0,2:0:0:0:
409,349,22435,1,0,2:0:0:0:
344,335,22513,1,0,2:0:0:0:
294,323,22591,2,0,P|226:273|321:265,1,218.75,0|0,2:0|2:0,2:0:0:0:
360,274,23216,5,0,2:0:0:0:
406,301,23294,1,0,2:0:0:0:
465,299,23372,1,0,2:0:0:0:
503,258,23450,1,0,2:0:0:0:
512,209,23528,1,0,2:0:0:0:
473,175,23606,5,0,2:0:0:0:
423,147,23685,1,0,2:0:0:0:
383,132,23763,1,0,2:0:0:0:
331,131,23841,1,0,2:0:0:0:
283,143,23919,1,0,2:0:0:0:
244,125,23997,5,0,2:0:0:0:
280,86,24075,1,0,2:0:0:0:
272,35,24153,1,0,2:0:0:0:
229,1,24231,1,0,2:0:0:0:
164,10,24310,1,0,2:0:0:0:
115,45,24388,5,0,2:0:0:0:
100,103,24466,1,0,2:0:0:0:
123,153,24544,1,0,2:0:0:0:
159,189,24622,1,0,2:0:0:0:
203,163,24700,1,0,2:0:0:0:
257,171,24778,5,0,2:0:0:0:
296,209,24856,1,0,2:0:0:0:
337,251,24935,1,0,2:0:0:0:
314,294,25013,1,0,2:0:0:0:
333,344,25091,1,0,2:0:0:0:
385,368,25169,5,0,2:0:0:0:
438,360,25247,1,0,2:0:0:0:
485,332,25325,1,0,2:0:0:0:
499,278,25403,1,0,2:0:0:0:
462,233,25481,1,0,2:0:0:0:
423,191,25560,5,0,2:0:0:0:
457,144,25638,1,0,2:0:0:0:
433,98,25716,1,0,2:0:0:0:
402,60,25794,1,0,2:0:0:0:
352,38,25872,1,0,2:0:0:0:
316,87,25950,5,0,2:0:0:0:
264,113,26028,1,0,2:0:0:0:
224,147,26106,1,0,2:0:0:0:
166,156,26185,1,0,2:0:0:0:
128,137,26263,1,0,2:0:0:0:
88,116,26341,5,0,2:0:0:0:
59,152,26419,1,0,2:0:0:0:
53,203,26497,1,0,2:0:0:0:
81,250,26575,1,0,2:0:0:0:
120,296,26653,1,0,2:0:0:0:
161,323,26731,2,0,P|293:318|235:232,1,281.25,0|0,2:0|2:0,2:0:0:0:
171,242,27513,2,0,P|157:181|174:120,1,125,0|0,2:0|2:0,2:0:0:0:
298,31,27903,2,0,P|332:104|330:129,1,93.75,0|0,2:0|2:0,2:0:0:0:
281,156,28216,5,0,2:0:0:0:
328,199,28294,1,0,2:0:0:0:
339,258,28372,1,0,2:0:0:0:
323,317,28450,1,0,2:0:0:0:
278,356,28528,1,0,2:0:0:0:
225,362,28606,5,0,2:0:0:0:
166,356,28685,1,0,2:0:0:0:
116,313,28763,1,0,2:0:0:0:
94,259,28841,1,0,2:0:0:0:
107,203,28919,1,0,2:0:0:0:
157,190,28997,5,0,2:0:0:0:
210,206,29075,1,0,2:0:0:0:
252,220,29153,1,0,2:0:0:0:
292,201,29231,1,0,2:0:0:0:
316,168,29310,1,0,2:0:0:0:
350,127,29388,5,0,2:0:0:0:
408,115,29466,1,0,2:0:0:0:
462,127,29544,1,0,2:0:0:0:
488,180,29622,1,0,2:0:0:0:
481,236,29700,1,0,2:0:0:0:
451,286,29778,5,0,2:0:0:0:
411,318,29856,1,0,2:0:0:0:
364,300,29935,1,0,2:0:0:0:
313,279,30013,1,0,2:0:0:0:
260,278,30091,1,0,2:0:0:0:
212,295,30169,6,0,P|144:226|226:240,1,218.75,0|0,2:0|2:0,2:0:0:0:
297,250,30794,2,0,L|411:224,1,112.5,0|0,2:0|2:0,2:0:0:0:
438,132,31575,2,0,L|407:140,1,25,0|0,2:0|2:0,2:0:0:0:
320,103,31810,2,0,L|296:177,1,75,0|0,2:0|2:0,2:0:0:0:
304,124,33294,6,0,P|348:192|298:181,1,187.499994277954,0|0,2:0|2:0,2:0:0:0:
196,51,34231,5,0,2:0:0:0:
192,285,34466,1,0,2:0:0:0:
192,285,34544,2,0,P|189:332|258:282,1,187.499994277954,0|0,2:0|2:0,2:0:0:0:
249,160,35716,2,0,B|293:207|293:207|279:280,1,131.249995994568,0|0,2:0|2:0,2:0:0:0:
115,158,36575,1,0,2:0:0:0:
171,268,36888,2,0,P|254:231|246:159,1,168.749994850159,0|0,2:0|2:0,2:0:0:0:
336,106,37747,2,0,P|363:153|355:195,1,93.7499971389771,0|0,2:0|2:0,2:0:0:0:
258,187,38294,6,0,L|272:253,1,62.5,0|0,2:0|2:0,2:0:0:0:
156,187,39231,1,0,2:0:0:0:
291,81,39466,1,0,2:0:0:0:
291,81,39544,2,0,L|319:146,1,68.75,0|0,2:0|2:0,2:0:0:0:
175,128,40716,6,0,P|176:200|223:236,1,125,0|0,2:0|2:0,2:0:0:0:
289,319,41653,2,0,L|336:273,1,62.5,0|0,2:0|2:0,2:0:0:0:
196,136,42981,5,0,2:0:0:0:
196,136,43060,2,0,P|235:173|315:186,1,137.5,0|0,2:0|2:0,2:0:0:0:
426,115,44075,6,0,B|453:184|453:184|453:186,1,75,0|0,2:0|2:0,2:0:0:0:
342,198,44622,2,0,P|366:275|355:315,1,125,0|0,2:0|2:0,2:0:0:0:
282,112,45794,6,0,P|347:180|274:201,1,200,0|0,2:0|2:0,2:0:0:0:
293,66,47669,5,0,2:0:0:0:
317,166,47903,1,0,2:0:0:0:
172,203,48138,2,0,P|221:262|263:280,1,112.5,0|0,2:0|2:0,2:0:0:0:
268,90,49153,5,0,2:0:0:0:
429,115,49466,2,0,P|422:171|383:209,1,112.5,0|0,2:0|2:0,2:0:0:0:
324,233,50325,5,0,2:0:0:0:
284,109,50481,1,0,2:0:0:0:
261,243,50638,5,0,2:0:0:0:
181,120,50794,1,0,2:0:0:0:
207,280,50950,5,0,2:0:0:0:
97,175,51106,1,0,2:0:0:0:
169,339,51263,5,0,2:0:0:0:
42,256,51419,1,0,2:0:0:0:
125,184,51575,2,0,P|137:172|155:155,1,37.5,0|0,2:0|2:0,2:0:0:0:
239,130,51888,5,0,2:0:0:0:
293,116,51966,1,0,2:0:0:0:
349,113,52044,1,0,2:0:0:0:
395,144,52122,1,0,2:0:0:0:
432,203,52200,1,0,2:0:0:0:
447,257,52278,5,0,2:0:0:0:
436,314,52356,1,0,2:0:0:0:
393,352,52435,1,0,2:0:0:0:
336,355,52513,1,0,2:0:0:0:
285,331,52591,1,0,2:0:0:0:
245,290,52669,5,0,2:0:0:0:
195,317,52747,1,0,2:0:0:0:
138,321,52825,1,0,2:0:0:0:
86,299,52903,1,0,2:0:0:0:
41,264,52981,1,0,2:0:0:0:
21,210,53060,5,0,2:0:0:0:
32,161,53138,1,0,2:0:0:0:
81,125,53216,2,0,L|207:153,3,125,0|0|0|0,2:0|2:0|2:0|2:0,2:0:0:0:
253,152,54466,5,0,2:0:0:0:
266,107,54544,1,0,2:0:0:0:
303,75,54622,1,0,2:0:0:0:
353,51,54700,1,0,2:0:0:0:
408,60,54778,1,0,2:0:0:0:
452,98,54856,5,0,2:0:0:0:
481,145,54935,1,0,2:0:0:0:
496,193,55013,1,0,2:0:0:0:
481,248,55091,1,0,2:0:0:0:
437,295,55169,1,0,2:0:0:0:
399,329,55247,5,0,2:0:0:0:
347,335,55325,1,0,2:0:0:0:
315,300,55403,1,0,2:0:0:0:
304,248,55481,1,0,2:0:0:0:
330,206,55560,1,0,2:0:0:0:
380,188,55638,5,0,2:0:0:0:
432,172,55716,1,0,2:0:0:0:
465,130,55794,1,0,2:0:0:0:
450,81,55872,1,0,2:0:0:0:
413,41,55950,1,0,2:0:0:0:
358,44,56028,5,0,2:0:0:0:
313,74,56106,1,0,2:0:0:0:
259,107,56185,1,0,2:0:0:0:
199,115,56263,1,0,2:0:0:0:
146,107,56341,1,0,2:0:0:0:
102,123,56419,5,0,2:0:0:0:
72,160,56497,1,0,2:0:0:0:
65,196,56575,1,0,2:0:0:0:
80,220,56653,1,0,2:0:0:0:
95,240,56731,1,0,2:0:0:0:
109,254,56810,5,0,2:0:0:0:
121,271,56888,1,0,2:0:0:0:
134,286,56966,1,0,2:0:0:0:
172,312,57044,1,0,2:0:0:0:
208,337,57122,1,0,2:0:0:0:
270,342,57200,5,0,2:0:0:0:
323,319,57278,1,0,2:0:0:0:
373,287,57356,1,0,2:0:0:0:
412,252,57435,1,0,2:0:0:0:
456,225,57513,1,0,2:0:0:0:
500,189,57591,5,0,2:0:0:0:
511,130,57669,1,0,2:0:0:0:
469,74,57747,1,0,2:0:0:0:
419,33,57825,1,0,2:0:0:0:
357,20,57903,1,0,2:0:0:0:
294,21,57981,5,0,2:0:0:0:
236,26,58060,1,0,2:0:0:0:
182,54,58138,1,0,2:0:0:0:
124,83,58216,1,0,2:0:0:0:
77,125,58294,2,0,L|115:175,4,62.5,0|0|0|0|0,2:0|2:0|2:0|2:0|2:0,2:0:0:0:
167,182,58685,5,0,2:0:0:0:
224,159,58763,1,0,2:0:0:0:
281,131,58841,1,0,2:0:0:0:
344,145,58919,1,0,2:0:0:0:
384,187,58997,1,0,2:0:0:0:
388,240,59075,5,0,2:0:0:0:
381,286,59153,1,0,2:0:0:0:
363,306,59231,1,0,2:0:0:0:
333,315,59310,1,0,2:0:0:0:
304,302,59388,1,0,2:0:0:0:
275,288,59466,6,0,P|159:246|145:219,1,125,0|0,2:0|2:0,2:0:0:0:
261,73,59700,2,0,P|377:115|391:142,1,125,0|0,2:0|2:0,2:0:0:0:
270,215,59935,2,0,P|154:173|140:146,1,125,0|0,2:0|2:0,2:0:0:0:
294,133,60169,2,0,P|410:175|424:202,1,125,0|0,2:0|2:0,2:0:0:0:
391,219,60403,1,0,2:0:0:0:
354,260,60481,5,0,2:0:0:0:
335,314,60560,1,0,2:0:0:0:
364,362,60638,1,0,2:0:0:0:
422,374,60716,1,0,2:0:0:0:
468,353,60794,1,0,2:0:0:0:
493,306,60872,5,0,2:0:0:0:
508,257,60950,1,0,2:0:0:0:
494,201,61028,1,0,2:0:0:0:
462,165,61106,1,0,2:0:0:0:
426,128,61185,1,0,2:0:0:0:
374,97,61263,6,0,P|297:41|253:39,1,125,0|0,2:0|2:0,2:0:0:0:
213,70,61575,1,0,2:0:0:0:
225,132,61731,2,0,P|208:212|283:137,1,250,0|0,2:0|2:0,2:0:0:0:
488,173,62122,5,0,2:0:0:0:
488,173,62200,1,0,2:0:0:0:
488,173,62278,1,0,2:0:0:0:
488,173,62356,1,0,2:0:0:0:
488,173,62435,1,0,2:0:0:0:
488,173,62513,6,0,L|343:209,1,125,0|0,2:0|2:0,2:0:0:0:
197,236,62747,2,0,L|157:178,1,62.5,0|0,2:0|2:0,2:0:0:0:
197,138,62903,2,0,P|315:139|223:295,1,375,0|0,2:0|2:0,2:0:0:0:
121,181,63919,2,0,L|125:257,1,62.5,0|0,2:0|2:0,2:0:0:0:
186,340,64153,2,0,L|252:250,1,93.75,0|0,2:0|2:0,2:0:0:0:
314,127,64466,6,0,P|386:183|321:169,1,250,0|0,2:0|2:0,2:0:0:0:
227,125,64856,5,0,2:0:0:0:
200,225,64935,1,0,2:0:0:0:
265,267,65013,2,0,P|329:275|365:215,1,125,0|0,2:0|2:0,2:0:0:0:
397,59,65247,2,0,L|293:138,1,125,0|0,2:0|2:0,2:0:0:0:
152,223,65481,2,0,P|143:121|155:95,1,125,0|0,2:0|2:0,2:0:0:0:
259,82,66341,6,0,P|339:160|245:121,1,281.250010728836,0|0,2:0|2:0,2:0:0:0:
197,127,66653,5,0,2:0:0:0:
172,143,66731,1,0,2:0:0:0:
150,176,66810,1,0,2:0:0:0:
148,211,66888,1,0,2:0:0:0:
158,248,66966,1,0,2:0:0:0:
194,283,67044,6,0,L|319:311,1,125,0|0,2:0|2:0,2:0:0:0:
391,302,67903,2,0,L|390:265,1,37.5,0|0,2:0|2:0,2:0:0:0:
483,222,68216,2,0,P|448:162|313:135,1,187.500007152558,0|0,2:0|2:0,2:0:0:0:
279,68,68606,2,0,L|261:126,1,46.8750017881394,0|0,2:0|2:0,2:0:0:0:
196,147,68763,2,0,B|164:172|152:195|154:220|171:246|195:256|221:257|240:258|258:242|268:230|270:214|269:188|262:166|254:143|254:143|352:204,1,375.000014305115,0|0,2:0|2:0,2:0:0:0:
332,273,69466,6,0,P|400:323|423:206,1,234.375008940697,0|0,2:0|2:0,2:0:0:0:
345,164,69935,2,0,P|361:61|421:130,1,234.375008940697,0|0,2:0|2:0,2:0:0:0:
416,210,70403,2,0,P|411:272|270:296,1,187.500007152558,0|0,2:0|2:0,2:0:0:0:
252,260,70794,2,0,P|177:173|179:98,1,187.500007152558,0|0,2:0|2:0,2:0:0:0:
306,85,71185,2,0,P|449:163|302:145,1,421.875016093255,0|0,2:0|2:0,2:0:0:0:
257,151,71966,5,0,2:0:0:0:
200,171,72044,1,0,2:0:0:0:
159,214,72122,1,0,2:0:0:0:
150,267,72200,1,0,2:0:0:0:
175,313,72278,1,0,2:0:0:0:
218,344,72356,5,0,2:0:0:0:
265,361,72435,1,0,2:0:0:0:
317,372,72513,1,0,2:0:0:0:
365,361,72591,1,0,2:0:0:0:
400,325,72669,1,0,2:0:0:0:
370,283,72747,5,0,2:0:0:0:
335,241,72825,1,0,2:0:0:0:
321,192,72903,1,0,2:0:0:0:
341,141,72981,1,0,2:0:0:0:
385,118,73060,1,0,2:0:0:0:
437,120,73138,6,0,L|465:176,4,46.8750017881394,0|0|0|0|0,2:0|2:0|2:0|2:0|2:0,2:0:0:0:
383,188,73528,2,0,L|411:244,4,46.8750017881394,0|0|0|0|0,2:0|2:0|2:0|2:0|2:0,2:0:0:0:
473,212,73919,2,0,L|501:268,4,46.8750017881394,0|0|0|0|0,2:0|2:0|2:0|2:0|2:0,2:0:0:0:
457,296,74310,5,0,2:0:0:0:
410,275,74388,1,0,2:0:0:0:
355,255,74466,1,0,2:0:0:0:
307,276,74544,1,0,2:0:0:0:
261,295,74622,1,0,2:0:0:0:
217,279,74700,5,0,2:0:0:0:
182,247,74778,1,0,2:0:0:0:
187,196,74856,1,0,2:0:0:0:
221,158,74935,1,0,2:0:0:0:
269,142,75013,1,0,2:0:0:0:
322,166,75091,5,0,2:0:0:0:
308,225,75169,1,0,2:0:0:0:
326,274,75247,1,0,2:0:0:0:
366,307,75325,1,0,2:0:0:0:
411,327,75403,1,0,2:0:0:0:
466,308,75481,5,0,2:0:0:0:
502,262,75560,1,0,2:0:0:0:
512,205,75638,1,0,2:0:0:0:
483,157,75716,1,0,2:0:0:0:
431,130,75794,6,0,L|408:176,4,46.8750017881394,0|0|0|0|0,2:0|2:0|2:0|2:0|2:0,2:0:0:0:
367,66,76185,2,0,L|339:117,4,46.8750017881394,0|0|0|0|0,2:0|2:0|2:0|2:0|2:0,2:0:0:0:
269,112,76575,2,0,L|241:163,4,46.8750017881394,0|0|0|0|0,2:0|2:0|2:0|2:0|2:0,2:0:0:0:
315,160,76966,5,0,2:0:0:0:
283,213,77044,1,0,2:0:0:0:
293,275,77122,1,0,2:0:0:0:
338,317,77200,1,0,2:0:0:0:
395,335,77278,1,0,2:0:0:0:
451,328,77356,5,0,2:0:0:0:
486,280,77435,1,0,2:0:0:0:
484,226,77513,1,0,2:0:0:0:
457,177,77591,1,0,2:0:0:0:
419,148,77669,1,0,2:0:0:0:
365,137,77747,5,0,2:0:0:0:
321,121,77825,1,0,2:0:0:0:
278,118,77903,1,0,2:0:0:0:
226,122,77981,1,0,2:0:0:0:
189,158,78060,1,0,2:0:0:0:
183,206,78138,5,0,2:0:0:0:
222,221,78216,2,0,L|194:272,4,46.8750017881394,0|0|0|0|0,2:0|2:0|2:0|2:0|2:0,2:0:0:0:
320,175,78607,2,0,L|292:226,4,46.8750017881394,0|0|0|0|0,2:0|2:0|2:0|2:0|2:0,2:0:0:0:
384,239,78997,2,0,L|361:285,4,46.8750017881394,0|0|0|0|0,2:0|2:0|2:0|2:0|2:0,2:0:0:0:
471,221,79388,2,0,L|448:267,4,46.8750017881394,0|0|0|0|0,2:0|2:0|2:0|2:0|2:0,2:0:0:0:
496,220,79778,6,0,L|474:171,1,46.8750017881394,0|0,2:0|2:0,2:0:0:0:
425,122,79935,2,0,P|371:162|378:248,1,140.625005364418,0|0,2:0|2:0,2:0:0:0:
422,257,80247,1,0,2:0:0:0:
456,309,80325,1,0,2:0:0:0:
423,354,80403,1,0,2:0:0:0:
373,372,80481,5,0,2:0:0:0:
319,347,80560,1,0,2:0:0:0:
302,290,80638,1,0,2:0:0:0:
329,245,80716,1,0,2:0:0:0:
374,214,80794,1,0,2:0:0:0:
411,170,80872,5,0,2:0:0:0:
425,119,80950,1,0,2:0:0:0:
414,64,81028,1,0,2:0:0:0:
370,40,81106,1,0,2:0:0:0:
314,34,81185,1,0,2:0:0:0:
254,48,81263,5,0,2:0:0:0:
218,90,81341,1,0,2:0:0:0:
205,150,81419,1,0,2:0:0:0:
238,205,81497,1,0,2:0:0:0:
287,244,81575,1,0,2:0:0:0:
351,249,81653,6,0,P|425:180|426:136,1,125,0|0,2:0|2:0,2:0:0:0:
365,41,82044,2,0,P|291:110|286:130,1,125,0|0,2:0|2:0,2:0:0:0:
354,161,82435,1,0,2:0:0:0:
435,225,82513,1,0,2:0:0:0:
490,286,82591,2,0,P|461:346|426:362,1,93.75,0|0,2:0|2:0,2:0:0:0:
360,305,82903,5,0,2:0:0:0:
257,231,82981,2,0,P|231:178|287:107,1,156.25,0|0,2:0|2:0,2:0:0:0:
344,111,83450,1,0,2:0:0:0:
344,111,83528,1,0,2:0:0:0:
344,111,83606,1,0,2:0:0:0:
413,172,83685,5,0,2:0:0:0:
355,238,83763,1,0,2:0:0:0:
262,251,83841,2,0,P|237:300|281:371,1,125,0|0,2:0|2:0,2:0:0:0:
355,335,84231,2,0,P|386:266|382:243,1,93.75,0|0,2:0|2:0,2:0:0:0:
364,185,84544,2,0,P|328:154|241:163,1,125,0|0,2:0|2:0,2:0:0:0:
187,218,84935,5,0,2:0:0:0:
130,129,85013,1,0,2:0:0:0:
180,47,85091,2,0,P|222:67|264:120,1,93.75,0|0,2:0|2:0,2:0:0:0:
216,173,85403,1,0,2:0:0:0:
255,264,85481,1,0,2:0:0:0:
339,243,85560,6,0,P|400:188|397:312,1,281.25,0|0,2:0|2:0,2:0:0:0:
263,268,86341,2,0,P|142:281|94:179,1,250,0|0,2:0|2:0,2:0:0:0:
100,140,87044,5,0,2:0:0:0:
100,140,87122,1,0,2:0:0:0:
100,140,87200,1,0,2:0:0:0:
100,140,87278,1,0,2:0:0:0:
100,140,87356,1,0,2:0:0:0:
134,163,87435,5,0,2:0:0:0:
186,189,87513,1,0,2:0:0:0:
219,235,87591,1,0,2:0:0:0:
241,285,87669,1,0,2:0:0:0:
286,316,87747,1,0,2:0:0:0:
342,318,87825,5,0,2:0:0:0:
386,292,87903,1,0,2:0:0:0:
411,250,87981,1,0,2:0:0:0:
413,202,88060,1,0,2:0:0:0:
384,162,88138,1,0,2:0:0:0:
407,122,88216,5,0,2:0:0:0:
440,88,88294,1,0,2:0:0:0:
423,39,88372,1,0,2:0:0:0:
382,13,88450,1,0,2:0:0:0:
324,26,88528,1,0,2:0:0:0:
306,84,88606,5,0,2:0:0:0:
263,115,88685,1,0,2:0:0:0:
217,115,88763,1,0,2:0:0:0:
175,94,88841,1,0,2:0:0:0:
133,70,88919,1,0,2:0:0:0:
92,92,88997,5,0,2:0:0:0:
52,123,89075,1,0,2:0:0:0:
26,164,89153,1,0,2:0:0:0:
29,222,89231,1,0,2:0:0:0:
64,261,89310,1,0,2:0:0:0:
119,297,89388,5,0,2:0:0:0:
179,327,89466,1,0,2:0:0:0:
246,341,89544,1,0,2:0:0:0:
311,344,89622,1,0,2:0:0:0:
372,336,89700,1,0,2:0:0:0:
429,302,89778,5,0,2:0:0:0:
472,249,89856,1,0,2:0:0:0:
484,187,89935,1,0,2:0:0:0:
474,129,90013,1,0,2:0:0:0:
432,90,90091,1,0,2:0:0:0:
356,79,90169,5,0,2:0:0:0:
356,79,90247,1,0,2:0:0:0:
356,79,90325,1,0,2:0:0:0:
356,79,90403,1,0,2:0:0:0:
356,79,90481,1,0,2:0:0:0:
356,79,90560,6,0,P|453:128|459:137,1,93.7500035762788,0|0,2:0|2:0,2:0:0:0:
437,230,90716,2,0,P|349:204|340:191,1,93.7500035762788,0|0,2:0|2:0,2:0:0:0:
326,164,90872,1,0,2:0:0:0:
282,131,90950,1,0,2:0:0:0:
228,126,91028,1,0,2:0:0:0:
172,145,91106,5,0,2:0:0:0:
129,180,91185,1,0,2:0:0:0:
104,232,91263,1,0,2:0:0:0:
133,283,91341,1,0,2:0:0:0:
183,312,91419,1,0,2:0:0:0:
230,340,91497,6,0,P|293:325|337:288,1,93.7500035762788,0|0,2:0|2:0,2:0:0:0:
373,153,91653,2,0,P|310:170|264:202,1,93.7500035762788,0|0,2:0|2:0,2:0:0:0:
241,210,91810,1,0,2:0:0:0:
188,246,91888,1,0,2:0:0:0:
131,240,91966,1,0,2:0:0:0:
85,211,92044,5,0,2:0:0:0:
67,160,92122,1,0,2:0:0:0:
80,109,92200,1,0,2:0:0:0:
128,76,92278,1,0,2:0:0:0:
184,57,92356,1,0,2:0:0:0:
239,52,92435,5,0,2:0:0:0:
291,70,92513,1,0,2:0:0:0:
335,109,92591,1,0,2:0:0:0:
372,150,92669,1,0,2:0:0:0:
386,199,92747,1,0,2:0:0:0:
369,254,92825,5,0,2:0:0:0:
317,267,92903,1,0,2:0:0:0:
272,254,92981,1,0,2:0:0:0:
239,218,93060,1,0,2:0:0:0:
214,169,93138,1,0,2:0:0:0:
202,117,93216,5,0,2:0:0:0:
218,71,93294,1,0,2:0:0:0:
251,30,93372,1,0,2:0:0:0:
304,15,93450,1,0,2:0:0:0:
356,34,93528,1,0,2:0:0:0:
381,80,93606,5,0,2:0:0:0:
400,132,93685,1,0,2:0:0:0:
367,179,93763,1,0,2:0:0:0:
348,224,93841,1,0,2:0:0:0:
368,271,93919,1,0,2:0:0:0:
401,315,93997,5,0,2:0:0:0:
378,361,94075,1,0,2:0:0:0:
327,379,94153,1,0,2:0:0:0:
280,365,94231,1,0,2:0:0:0:
250,320,94310,1,0,2:0:0:0:
211,277,94388,5,0,2:0:0:0:
173,242,94466,1,0,2:0:0:0:
157,196,94544,1,0,2:0:0:0:
182,156,94622,1,0,2:0:0:0:
226,128,94700,1,0,2:0:0:0:
278,137,94778,5,0,2:0:0:0:
287,142,94856,1,0,2:0:0:0:
303,158,94935,1,0,2:0:0:0:
314,181,95013,1,0,2:0:0:0:
311,209,95091,1,0,2:0:0:0:
295,230,95169,5,0,2:0:0:0:
271,246,95247,1,0,2:0:0:0:
259,273,95325,1,0,2:0:0:0:
267,297,95403,1,0,2:0:0:0:
291,314,95481,1,0,2:0:0:0:
346,330,95560,6,0,P|439:320|469:268,1,93.7500035762788,0|0,2:0|2:0,2:0:0:0:
475,253,95716,2,0,B|459:165|459:165|385:284,1,187.5,0|0,2:0|2:0,2:0:0:0:
262,263,96028,1,0,2:0:0:0:
179,183,96185,1,0,2:0:0:0:
276,165,96341,1,0,2:0:0:0:
173,253,96497,5,0,2:0:0:0:
239,111,96653,1,0,2:0:0:0:
239,111,96731,1,0,2:0:0:0:
239,111,96810,1,0,2:0:0:0:
239,111,96888,1,0,2:0:0:0:
329,126,97044,5,0,2:0:0:0:
351,280,97200,1,0,2:0:0:0:
245,188,97356,1,0,2:0:0:0:
398,163,97513,1,0,2:0:0:0:
287,266,97669,1,0,2:0:0:0:
260,143,97825,5,0,2:0:0:0:
169,221,97981,1,0,2:0:0:0:
263,154,98138,5,0,2:0:0:0:
211,274,98294,1,0,2:0:0:0:
269,159,98450,5,0,2:0:0:0:
263,325,98606,1,0,2:0:0:0:
366,254,98763,5,0,2:0:0:0:
366,254,98841,1,0,2:0:0:0:
366,254,98919,1,0,2:0:0:0:
366,254,98997,2,0,P|434:218|460:161,1,125,0|0,2:0|2:0,2:0:0:0:
415,41,99231,5,0,2:0:0:0:
415,41,99309,1,0,2:0:0:0:
415,41,99387,1,0,2:0:0:0:
415,41,99465,2,0,P|347:77|321:134,1,125,0|0,2:0|2:0,2:0:0:0:
234,132,99700,1,0,2:0:0:0:
190,241,99856,5,0,2:0:0:0:
226,283,100013,1,0,2:0:0:0:
400,236,100169,6,0,L|336:184,1,62.5,0|0,2:0|2:0,2:0:0:0:
192,182,100403,2,0,L|250:223,1,62.5,0|0,2:0|2:0,2:0:0:0:
192,32,100638,5,0,2:0:0:0:
96,192,100794,1,0,2:0:0:0:
256,352,100950,1,0,2:0:0:0:
448,224,101106,1,0,2:0:0:0:
384,64,101263,1,0,2:0:0:0:
233,73,101419,5,0,2:0:0:0:
233,73,101497,1,0,2:0:0:0:
233,73,101575,1,0,2:0:0:0:
254,222,101731,1,0,2:0:0:0:
336,96,101888,1,0,2:0:0:0:
165,80,102044,5,0,2:0:0:0:
249,250,102200,1,0,2:0:0:0:
346,94,102356,1,0,2:0:0:0:
164,183,102513,1,0,2:0:0:0:
243,79,102669,1,0,2:0:0:0:
305,223,102747,5,0,2:0:0:0:
359,95,102903,1,0,2:0:0:0:
193,105,103060,1,0,2:0:0:0:
275,275,103216,1,0,2:0:0:0:
124,206,103372,1,0,2:0:0:0:
274,81,103528,5,0,2:0:0:0:
274,81,103606,1,0,2:0:0:0:
274,81,103685,1,0,2:0:0:0:
291,218,103841,1,0,2:0:0:0:
145,148,103997,1,0,2:0:0:0:
259,84,104153,5,0,2:0:0:0:
308,241,104310,1,0,2:0:0:0:
207,165,104466,1,0,2:0:0:0:
338,84,104622,1,0,2:0:0:0:
402,243,104778,1,0,2:0:0:0:
283,155,104935,5,0,2:0:0:0:
376,105,105091,1,0,2:0:0:0:
349,248,105247,1,0,2:0:0:0:
292,88,105403,1,0,2:0:0:0:
432,207,105560,1,0,2:0:0:0:
284,69,105716,5,0,2:0:0:0:
330,230,105872,1,0,2:0:0:0:
141,167,106028,1,0,2:0:0:0:
383,80,106185,1,0,2:0:0:0:
260,260,106341,1,0,2:0:0:0:
358,133,106497,5,0,2:0:0:0:
358,133,106575,1,0,2:0:0:0:
358,133,106653,1,0,2:0:0:0:
213,85,106810,1,0,2:0:0:0:
242,245,106966,1,0,2:0:0:0:
371,290,107122,5,0,2:0:0:0:
424,146,107278,1,0,2:0:0:0:
274,211,107435,1,0,2:0:0:0:
426,246,107591,1,0,2:0:0:0:
335,105,107747,1,0,2:0:0:0:
206,59,107903,5,0,2:0:0:0:
296,256,108060,1,0,2:0:0:0:
159,184,108216,1,0,2:0:0:0:
330,56,108372,1,0,2:0:0:0:
316,227,108528,1,0,2:0:0:0:
168,126,108685,5,0,2:0:0:0:
168,126,108763,1,0,2:0:0:0:
168,126,108841,1,0,2:0:0:0:
276,183,108997,1,0,2:0:0:0:
166,291,109153,2,0,P|189:353|235:277,1,187.5,0|0,2:0|2:0,2:0:0:0:
243,131,109544,5,0,2:0:0:0:
243,131,109622,1,0,2:0:0:0:
243,131,109700,1,0,2:0:0:0:
317,236,109856,2,0,P|400:217|314:146,1,250,0|0,2:0|2:0,2:0:0:0:
238,170,110325,1,0,2:0:0:0:
404,142,110481,5,0,2:0:0:0:
404,142,110560,1,0,2:0:0:0:
404,142,110638,1,0,2:0:0:0:
404,142,110716,1,0,2:0:0:0:
404,142,110794,1,0,2:0:0:0:
236,107,110950,5,0,2:0:0:0:
324,263,111106,1,0,2:0:0:0:
392,131,111263,1,0,2:0:0:0:
203,211,111419,1,0,2:0:0:0:
329,84,111575,1,0,2:0:0:0:
232,90,111731,5,0,2:0:0:0:
232,90,111810,1,0,2:0:0:0:
232,90,111888,1,0,2:0:0:0:
299,191,112044,1,0,2:0:0:0:
126,171,112200,1,0,2:0:0:0:
217,294,112356,5,0,2:0:0:0:
264,183,112513,1,0,2:0:0:0:
157,216,112669,1,0,2:0:0:0:
316,290,112825,1,0,2:0:0:0:
303,139,112981,1,0,2:0:0:0:
244,58,113138,5,0,2:0:0:0:
187,147,113294,1,0,2:0:0:0:
280,213,113450,1,0,2:0:0:0:
332,89,113606,1,0,2:0:0:0:
397,214,113763,1,0,2:0:0:0:
266,89,113919,5,0,2:0:0:0:
266,89,113997,1,0,2:0:0:0:
266,89,114075,1,0,2:0:0:0:
141,250,114231,1,0,2:0:0:0:
426,199,114388,1,0,2:0:0:0:
309,118,114544,6,0,P|274:194|359:301,1,187.5,0|0,2:0|2:0,2:0:0:0:
435,268,114935,1,0,2:0:0:0:
253,66,115091,1,0,2:0:0:0:
350,289,115247,1,0,2:0:0:0:
174,126,115403,1,0,2:0:0:0:
303,102,115560,5,0,2:0:0:0:
327,249,115716,1,0,2:0:0:0:
207,184,115872,1,0,2:0:0:0:
416,73,116028,1,0,2:0:0:0:
406,260,116185,1,0,2:0:0:0:
228,64,116341,5,0,2:0:0:0:
228,64,116419,1,0,2:0:0:0:
228,64,116497,1,0,2:0:0:0:
341,271,116653,1,0,2:0:0:0:
128,175,116810,1,0,2:0:0:0:
294,119,116966,5,0,2:0:0:0:
346,134,117044,1,0,2:0:0:0:
390,174,117122,1,0,2:0:0:0:
394,223,117200,1,0,2:0:0:0:
407,277,117278,1,0,2:0:0:0:
439,320,117356,5,0,2:0:0:0:
423,368,117435,1,0,2:0:0:0:
368,382,117513,1,0,2:0:0:0:
317,365,117591,1,0,2:0:0:0:
276,331,117669,1,0,2:0:0:0:
216,317,117747,5,0,2:0:0:0:
180,277,117825,1,0,2:0:0:0:
161,222,117903,1,0,2:0:0:0:
185,177,117981,1,0,2:0:0:0:
233,159,118060,1,0,2:0:0:0:
287,171,118138,5,0,2:0:0:0:
346,180,118216,1,0,2:0:0:0:
397,149,118294,1,0,2:0:0:0:
424,98,118372,1,0,2:0:0:0:
418,49,118450,1,0,2:0:0:0:
376,15,118528,5,0,2:0:0:0:
333,1,118606,1,0,2:0:0:0:
284,10,118685,1,0,2:0:0:0:
240,37,118763,1,0,2:0:0:0:
228,88,118841,1,0,2:0:0:0:
179,152,118919,6,0,L|185:217,4,62.5,0|0|0|0|0,2:0|2:0|2:0|2:0|2:0,2:0:0:0:
258,183,119310,2,0,L|264:248,4,62.5,0|0|0|0|0,2:0|2:0|2:0|2:0|2:0,2:0:0:0:
331,134,119700,2,0,L|337:199,4,62.5,0|0|0|0|0,2:0|2:0|2:0|2:0|2:0,2:0:0:0:
406,168,120091,2,0,L|412:233,4,62.5,0|0|0|0|0,2:0|2:0|2:0|2:0|2:0,2:0:0:0:
475,133,120481,2,0,P|454:64|353:76,1,187.5,0|0,2:0|2:0,2:0:0:0:
305,157,120794,6,0,P|238:204|167:86,1,250,0|0,2:0|2:0,2:0:0:0:
253,72,121653,1,0,2:0:0:0:
325,106,121888,5,0,2:0:0:0:
393,146,122044,1,0,2:0:0:0:
302,164,122200,5,0,2:0:0:0:
400,215,122356,1,0,2:0:0:0:
281,220,122513,5,0,2:0:0:0:
414,282,122669,1,0,2:0:0:0:
296,223,122825,5,0,2:0:0:0:
296,223,122903,1,0,2:0:0:0:
296,223,122981,1,0,2:0:0:0:
296,223,123060,1,0,2:0:0:0:
296,223,123138,1,0,2:0:0:0:
296,223,123216,2,0,L|425:263,1,125,0|0,2:0|2:0,2:0:0:0:
469,207,123685,2,0,P|469:169|414:101,1,125,0|0,2:0|2:0,2:0:0:0:
344,61,124153,2,0,L|235:138,1,125,0|0,2:0|2:0,2:0:0:0:
102,108,124622,5,0,2:0:0:0:
168,243,124778,1,0,2:0:0:0:
227,108,124935,1,0,2:0:0:0:
78,217,125091,1,0,2:0:0:0:
277,201,125247,1,0,2:0:0:0:
138,77,125403,1,0,2:0:0:0:
224,250,125560,1,0,2:0:0:0:
72,174,125716,5,0,2:0:0:0:
72,174,125794,1,0,2:0:0:0:
72,174,125872,1,0,2:0:0:0:
72,174,125950,2,0,L|203:138,1,125,0|0,2:0|2:0,2:0:0:0:
298,108,126419,2,0,P|316:155|281:231,1,125,0|0,2:0|2:0,2:0:0:0:
158,286,126888,2,0,P|144:205|162:150,1,125,0|0,2:0|2:0,2:0:0:0:
233,178,127356,5,0,2:0:0:0:
308,86,127513,1,0,2:0:0:0:
233,178,127669,5,0,2:0:0:0:
383,69,127825,1,0,2:0:0:0:
365,171,127981,5,0,2:0:0:0:
365,171,128060,1,0,2:0:0:0:
365,171,128138,1,0,2:0:0:0:
365,171,128216,2,0,L|252:220,1,93.75,0|0,2:0|2:0,2:0:0:0:
159,270,128606,6,0,L|134:173,1,93.75,0|0,2:0|2:0,2:0:0:0:
216,192,128997,2,0,L|177:86,1,93.75,0|0,2:0|2:0,2:0:0:0:
275,73,129388,2,0,P|327:101|331:120,1,62.5,0|0,2:0|2:0,2:0:0:0:
350,189,129700,5,0,2:0:0:0:
350,189,129778,1,0,2:0:0:0:
350,189,129856,1,0,2:0:0:0:
339,305,130013,1,0,2:0:0:0:
220,165,130091,1,0,2:0:0:0:
427,88,130247,2,0,P|451:133|453:192,1,93.75,0|0,2:0|2:0,2:0:0:0:
327,195,130638,5,0,2:0:0:0:
327,195,130716,1,0,2:0:0:0:
327,195,130794,1,0,2:0:0:0:
327,195,130872,1,0,2:0:0:0:
327,195,130950,1,0,2:0:0:0:
327,195,131028,1,0,2:0:0:0:
327,195,131106,1,0,2:0:0:0:
433,262,131185,6,0,P|360:310|303:324,1,125,0|0,2:0|2:0,2:0:0:0:
200,101,131497,5,0,2:0:0:0:
200,101,131575,1,0,2:0:0:0:
200,101,131653,1,0,2:0:0:0:
200,101,131731,1,0,2:0:0:0:
200,101,131810,1,0,2:0:0:0:
200,101,131888,1,0,2:0:0:0:
200,101,131966,1,0,2:0:0:0:
109,217,132044,6,0,P|189:229|237:217,1,125,0|0,2:0|2:0,2:0:0:0:
314,109,132356,5,0,2:0:0:0:
443,147,132513,1,0,2:0:0:0:
304,139,132669,5,0,2:0:0:0:
486,244,132825,1,0,2:0:0:0:
191,160,132981,6,0,P|216:223|228:235,1,62.5,0|0,2:0|2:0,2:0:0:0:
343,134,133216,5,0,2:0:0:0:
343,134,133294,1,0,2:0:0:0:
343,134,133372,1,0,2:0:0:0:
343,134,133450,1,0,2:0:0:0:
343,134,133528,1,0,2:0:0:0:
343,134,133606,1,0,2:0:0:0:
343,134,133685,1,0,2:0:0:0:
242,102,133841,1,0,2:0:0:0:
161,177,133997,6,0,L|302:319,2,187.5,0|0|0,2:0|2:0|2:0,2:0:0:0:
254,90,134622,5,0,2:0:0:0:
254,90,134700,1,0,2:0:0:0:
254,90,134778,1,0,2:0:0:0:
363,193,134935,1,0,2:0:0:0:
256,318,135091,1,0,2:0:0:0:
230,155,135247,1,0,2:0:0:0:
460,97,135403,5,0,2:0:0:0:
460,97,135481,1,0,2:0:0:0:
460,97,135560,1,0,2:0:0:0:
314,111,135716,1,0,2:0:0:0:
291,289,135872,6,0,P|168:293|257:246,1,312.5,0|0,2:0|2:0,2:0:0:0:
352,128,136575,1,0,2:0:0:0:
87,104,136888,2,0,P|210:100|121:147,1,312.5,0|0,2:0|2:0,2:0:0:0:
252,212,137513,5,0,2:0:0:0:
252,212,137591,1,0,2:0:0:0:
252,212,137669,1,0,2:0:0:0:
252,212,137747,1,0,2:0:0:0:
252,212,137825,1,0,2:0:0:0:
382,69,138060,5,0,2:0:0:0:
392,256,138216,1,0,2:0:0:0:
212,62,138450,5,0,2:0:0:0:
173,233,138606,1,0,2:0:0:0:
343,64,138919,5,0,2:0:0:0:
302,257,139075,1,0,2:0:0:0:
196,130,139310,2,0,P|132:219|226:154,1,300,0|0,2:0|2:0,2:0:0:0:
363,112,140403,5,0,2:0:0:0:
363,112,140481,1,0,2:0:0:0:
363,112,140560,1,0,2:0:0:0:
179,74,140716,1,0,2:0:0:0:
275,281,140794,1,0,2:0:0:0:
259,133,140950,1,0,2:0:0:0:
356,207,141028,1,0,2:0:0:0:
203,294,141185,1,0,2:0:0:0:
195,127,141263,1,0,2:0:0:0:
371,131,141419,5,0,2:0:0:0:
371,131,141497,1,0,2:0:0:0:
371,131,141575,1,0,2:0:0:0:
371,131,141653,1,0,2:0:0:0:
371,131,141731,1,0,2:0:0:0:
371,131,141810,1,0,2:0:0:0:
371,131,141888,1,0,2:0:0:0:
371,131,141966,1,0,2:0:0:0:
393,174,142044,5,0,2:0:0:0:
425,218,142122,1,0,2:0:0:0:
429,267,142200,1,0,2:0:0:0:
399,308,142278,1,0,2:0:0:0:
348,300,142356,1,0,2:0:0:0:
301,277,142435,5,0,2:0:0:0:
251,281,142513,1,0,2:0:0:0:
213,308,142591,1,0,2:0:0:0:
165,321,142669,1,0,2:0:0:0:
121,308,142747,1,0,2:0:0:0:
85,272,142825,5,0,2:0:0:0:
66,223,142903,1,0,2:0:0:0:
87,177,142981,1,0,2:0:0:0:
121,148,143060,1,0,2:0:0:0:
174,131,143138,1,0,2:0:0:0:
249,119,143216,6,0,L|263:192,4,62.5,0|0|0|0|0,2:0|2:0|2:0|2:0|2:0,2:0:0:0:
318,74,143606,2,0,L|332:147,4,62.5,0|0|0|0|0,2:0|2:0|2:0|2:0|2:0,2:0:0:0:
407,111,143997,2,0,L|421:184,4,62.5,0|0|0|0|0,2:0|2:0|2:0|2:0|2:0,2:0:0:0:
347,83,144388,5,0,2:0:0:0:
283,68,144466,1,0,2:0:0:0:
221,81,144544,1,0,2:0:0:0:
169,121,144622,1,0,2:0:0:0:
140,181,144700,1,0,2:0:0:0:
169,233,144778,5,0,2:0:0:0:
212,281,144856,1,0,2:0:0:0:
265,314,144935,1,0,2:0:0:0:
322,336,145013,1,0,2:0:0:0:
378,332,145091,1,0,2:0:0:0:
416,293,145169,5,0,2:0:0:0:
419,237,145247,1,0,2:0:0:0:
389,190,145325,1,0,2:0:0:0:
343,152,145403,1,0,2:0:0:0:
287,145,145481,1,0,2:0:0:0:
231,168,145560,5,0,2:0:0:0:
191,229,145638,6,0,L|177:302,4,62.5,0|0|0|0|0,2:0|2:0|2:0|2:0|2:0,2:0:0:0:
122,184,146028,2,0,L|108:257,4,62.5,0|0|0|0|0,2:0|2:0|2:0|2:0|2:0,2:0:0:0:
33,221,146419,2,0,L|19:294,4,62.5,0|0|0|0|0,2:0|2:0|2:0|2:0|2:0,2:0:0:0:
71,189,146810,1,0,2:0:0:0:
111,160,146888,1,0,2:0:0:0:
168,150,146966,5,0,2:0:0:0:
212,122,147044,1,0,2:0:0:0:
233,73,147122,1,0,2:0:0:0:
267,38,147200,1,0,2:0:0:0:
319,33,147278,1,0,2:0:0:0:
369,59,147356,5,0,2:0:0:0:
376,116,147435,1,0,2:0:0:0:
344,157,147513,1,0,2:0:0:0:
316,206,147591,1,0,2:0:0:0:
338,256,147669,1,0,2:0:0:0:
368,294,147747,5,0,2:0:0:0:
349,341,147825,1,0,2:0:0:0:
312,364,147903,1,0,2:0:0:0:
255,360,147981,1,0,2:0:0:0:
216,334,148060,1,0,2:0:0:0:
178,301,148138,5,0,2:0:0:0:
141,252,148216,6,0,L|153:191,4,62.5,0|0|0|0|0,2:0|2:0|2:0|2:0|2:0,2:0:0:0:
235,201,148606,2,0,L|246:139,4,62.5,0|0|0|0|0,2:0|2:0|2:0|2:0|2:0,2:0:0:0:
312,261,148997,2,0,L|323:199,4,62.5,0|0|0|0|0,2:0|2:0|2:0|2:0|2:0,2:0:0:0:
332,288,149388,1,0,2:0:0:0:
368,315,149466,1,0,2:0:0:0:
415,331,149544,5,0,2:0:0:0:
462,305,149622,1,0,2:0:0:0:
496,269,149700,1,0,2:0:0:0:
506,223,149778,1,0,2:0:0:0:
486,179,149856,1,0,2:0:0:0:
447,152,149935,6,0,P|350:157|329:142,1,93.7500035762788,0|0,2:0|2:0,2:0:0:0:
312,79,150091,2,0,P|390:62|437:72,1,93.7500035762788,0|0,2:0|2:0,2:0:0:0:
437,83,150247,5,0,2:0:0:0:
464,136,150325,1,0,2:0:0:0:
442,184,150404,1,0,2:0:0:0:
400,218,150482,1,0,2:0:0:0:
354,237,150560,1,0,2:0:0:0:
298,233,150638,5,0,2:0:0:0:
253,213,150716,1,0,2:0:0:0:
192,228,150794,1,0,2:0:0:0:
150,259,150872,1,0,2:0:0:0:
128,308,150950,1,0,2:0:0:0:
96,340,151028,5,0,2:0:0:0:
43,331,151106,1,0,2:0:0:0:
4,298,151185,1,0,2:0:0:0:
57,274,151263,1,0,2:0:0:0:
96,228,151341,1,0,2:0:0:0:
114,171,151419,5,0,2:0:0:0:
156,130,151497,1,0,2:0:0:0:
208,151,151575,1,0,2:0:0:0:
234,201,151653,1,0,2:0:0:0:
212,251,151731,1,0,2:0:0:0:
160,280,151810,6,0,P|63:285|40:277,1,93.7500035762788,0|0,2:0|2:0,2:0:0:0:
0,172,151966,2,0,P|80:161|109:164,1,93.7500035762788,0|0,2:0|2:0,2:0:0:0:
133,202,152122,1,0,2:0:0:0:
185,240,152200,1,0,2:0:0:0:
243,226,152278,1,0,2:0:0:0:
294,195,152356,5,0,2:0:0:0:
316,147,152435,1,0,2:0:0:0:
308,100,152513,1,0,2:0:0:0:
276,65,152591,1,0,2:0:0:0:
228,52,152669,1,0,2:0:0:0:
171,60,152747,5,0,2:0:0:0:
127,91,152825,1,0,2:0:0:0:
120,154,152903,1,0,2:0:0:0:
162,198,152981,1,0,2:0:0:0:
215,228,153060,1,0,2:0:0:0:
277,240,153138,5,0,2:0:0:0:
338,241,153216,1,0,2:0:0:0:
391,225,153294,1,0,2:0:0:0:
440,199,153372,1,0,2:0:0:0:
482,160,153450,1,0,2:0:0:0:
482,109,153528,5,0,2:0:0:0:
452,70,153606,1,0,2:0:0:0:
407,45,153685,1,0,2:0:0:0:
360,39,153763,1,0,2:0:0:0:
311,57,153841,1,0,2:0:0:0:
251,81,153919,6,0,P|204:81|158:91,1,93.7500035762788,0|0,2:0|2:0,2:0:0:0:
226,205,154075,2,0,P|272:208|318:198,1,93.7500035762788,0|0,2:0|2:0,2:0:0:0:
364,166,154231,1,0,2:0:0:0:
419,184,154310,1,0,2:0:0:0:
462,224,154388,1,0,2:0:0:0:
476,281,154466,5,0,2:0:0:0:
439,321,154544,1,0,2:0:0:0:
392,351,154622,1,0,2:0:0:0:
339,349,154700,1,0,2:0:0:0:
303,312,154778,1,0,2:0:0:0:
291,255,154856,5,0,2:0:0:0:
340,215,154935,1,0,2:0:0:0:
372,163,155013,1,0,2:0:0:0:
348,103,155091,1,0,2:0:0:0:
301,63,155169,1,0,2:0:0:0:
235,55,155247,5,0,2:0:0:0:
174,70,155325,1,0,2:0:0:0:
115,114,155403,1,0,2:0:0:0:
93,177,155481,1,0,2:0:0:0:
108,240,155560,1,0,2:0:0:0:
131,278,155638,6,0,P|239:304|251:300,1,93.7500035762788,0|0,2:0|2:0,2:0:0:0:
323,218,155794,2,0,P|282:194|236:188,1,93.7500035762788,0|0,2:0|2:0,2:0:0:0:
183,186,155950,1,0,2:0:0:0:
146,149,156028,1,0,2:0:0:0:
159,97,156106,1,0,2:0:0:0:
207,74,156185,5,0,2:0:0:0:
263,85,156263,1,0,2:0:0:0:
305,122,156341,1,0,2:0:0:0:
343,169,156419,1,0,2:0:0:0:
393,195,156497,1,0,2:0:0:0:
446,203,156575,5,0,2:0:0:0:
483,247,156653,1,0,2:0:0:0:
486,307,156731,1,0,2:0:0:0:
459,345,156810,1,0,2:0:0:0:
418,364,156888,1,0,2:0:0:0:
368,353,156966,5,0,2:0:0:0:
317,336,157044,1,0,2:0:0:0:
280,297,157122,1,0,2:0:0:0:
256,252,157200,1,0,2:0:0:0:
274,202,157278,1,0,2:0:0:0:
323,181,157356,5,0,2:0:0:0:
371,159,157435,1,0,2:0:0:0:
401,113,157513,1,0,2:0:0:0:
397,70,157591,1,0,2:0:0:0:
367,33,157669,1,0,2:0:0:0:
315,24,157747,5,0,2:0:0:0:
270,42,157825,1,0,2:0:0:0:
219,63,157903,1,0,2:0:0:0:
163,60,157981,1,0,2:0:0:0:
117,97,158060,1,0,2:0:0:0:
81,146,158138,5,0,2:0:0:0:
63,199,158216,1,0,2:0:0:0:
83,253,158294,1,0,2:0:0:0:
121,297,158372,1,0,2:0:0:0:
174,321,158450,1,0,2:0:0:0:
231,327,158528,5,0,2:0:0:0:
286,308,158606,1,0,2:0:0:0:
309,255,158685,1,0,2:0:0:0:
359,237,158763,2,0,P|407:234|454:213,1,93.7500035762788,0|0,2:0|2:0,2:0:0:0:
359,133,158919,2,0,P|311:136|264:157,1,93.7500035762788,0|0,2:0|2:0,2:0:0:0:
222,179,159075,5,0,2:0:0:0:
177,212,159153,1,0,2:0:0:0:
132,245,159231,1,0,2:0:0:0:
83,229,159310,1,0,2:0:0:0:
39,194,159388,1,0,2:0:0:0:
28,142,159466,5,0,2:0:0:0:
59,96,159544,1,0,2:0:0:0:
114,77,159622,1,0,2:0:0:0:
171,90,159700,1,0,2:0:0:0:
218,130,159778,1,0,2:0:0:0:
252,177,159856,5,0,2:0:0:0:
295,205,159935,1,0,2:0:0:0:
349,227,160013,1,0,2:0:0:0:
405,217,160091,1,0,2:0:0:0:
447,183,160169,1,0,2:0:0:0:
465,131,160247,5,0,2:0:0:0:
445,84,160325,1,0,2:0:0:0:
408,51,160403,1,0,2:0:0:0:
358,37,160481,1,0,2:0:0:0:
304,47,160560,1,0,2:0:0:0:
261,76,160638,5,0,2:0:0:0:
219,115,160716,1,0,2:0:0:0:
206,169,160794,1,0,2:0:0:0:
243,213,160872,1,0,2:0:0:0:
290,235,160950,1,0,2:0:0:0:
344,248,161028,5,0,2:0:0:0:
376,298,161106,1,0,2:0:0:0:
352,341,161185,1,0,2:0:0:0:
299,366,161263,1,0,2:0:0:0:
242,376,161341,1,0,2:0:0:0:
189,349,161419,5,0,2:0:0:0:
157,314,161497,1,0,2:0:0:0:
146,267,161575,1,0,2:0:0:0:
168,221,161653,1,0,2:0:0:0:
213,192,161731,1,0,2:0:0:0:
268,192,161810,5,0,2:0:0:0:
325,209,161888,1,0,2:0:0:0:
385,209,161966,1,0,2:0:0:0:
436,182,162044,1,0,2:0:0:0:
453,125,162122,1,0,2:0:0:0:
436,79,162200,5,0,2:0:0:0:
397,45,162278,1,0,2:0:0:0:
350,24,162356,1,0,2:0:0:0:
294,33,162435,1,0,2:0:0:0:
247,64,162513,1,0,2:0:0:0:
202,102,162591,5,0,2:0:0:0:
241,142,162669,1,0,2:0:0:0:
258,191,162747,1,0,2:0:0:0:
240,242,162825,1,0,2:0:0:0:
192,273,162903,1,0,2:0:0:0:
137,296,162981,5,0,2:0:0:0:
80,281,163060,1,0,2:0:0:0:
44,244,163138,1,0,2:0:0:0:
75,194,163216,2,0,L|91:130,4,62.5,0|0|0|0|0,2:0|2:0|2:0|2:0|2:0,2:0:0:0:
181,107,163606,2,0,L|166:168,4,62.5,0|0|0|0|0,2:0|2:0|2:0|2:0|2:0,2:0:0:0:
235,222,163997,6,0,L|251:158,4,62.5,0|0|0|0|0,2:0|2:0|2:0|2:0|2:0,2:0:0:0:
311,210,164388,2,0,L|326:279,1,62.5,0|0,2:0|2:0,2:0:0:0:
368,306,164544,1,0,2:0:0:0:
420,321,164622,1,0,2:0:0:0:
464,291,164700,1,0,2:0:0:0:
499,250,164778,5,0,2:0:0:0:
488,191,164856,1,0,2:0:0:0:
449,152,164935,1,0,2:0:0:0:
406,121,165013,1,0,2:0:0:0:
346,123,165091,1,0,2:0:0:0:
293,146,165169,5,0,2:0:0:0:
244,174,165247,1,0,2:0:0:0:
188,180,165325,1,0,2:0:0:0:
152,147,165403,1,0,2:0:0:0:
136,96,165481,1,0,2:0:0:0:
158,48,165560,5,0,2:0:0:0:
203,21,165638,1,0,2:0:0:0:
258,7,165716,1,0,2:0:0:0:
305,46,165794,1,0,2:0:0:0:
327,97,165872,1,0,2:0:0:0:
326,154,165950,5,0,2:0:0:0:
287,189,166028,1,0,2:0:0:0:
230,195,166106,1,0,2:0:0:0:
187,166,166185,1,0,2:0:0:0:
162,127,166263,1,0,2:0:0:0:
112,99,166341,5,0,2:0:0:0:
59,113,166419,1,0,2:0:0:0:
24,153,166497,1,0,2:0:0:0:
3,209,166575,1,0,2:0:0:0:
30,252,166653,1,0,2:0:0:0:
70,286,166731,5,0,2:0:0:0:
122,301,166810,1,0,2:0:0:0:
174,275,166888,1,0,2:0:0:0:
203,229,166966,1,0,2:0:0:0:
195,175,167044,1,0,2:0:0:0:
160,129,167122,5,0,2:0:0:0:
165,69,167200,1,0,2:0:0:0:
207,37,167278,1,0,2:0:0:0:
265,33,167356,1,0,2:0:0:0:
315,59,167435,1,0,2:0:0:0:
331,113,167513,5,0,2:0:0:0:
305,158,167591,1,0,2:0:0:0:
328,210,167669,1,0,2:0:0:0:
378,244,167747,1,0,2:0:0:0:
428,233,167825,1,0,2:0:0:0:
470,255,167903,5,0,2:0:0:0:
501,295,167981,1,0,2:0:0:0:
506,341,168060,1,0,2:0:0:0:
475,369,168138,1,0,2:0:0:0:
424,378,168216,1,0,2:0:0:0:
367,358,168294,6,0,L|348:289,4,62.5,0|0|0|0|0,2:0|2:0|2:0|2:0|2:0,2:0:0:0:
265,282,168685,2,0,L|282:343,4,62.5,0|0|0|0|0,2:0|2:0|2:0|2:0|2:0,2:0:0:0:
210,373,169075,2,0,L|191:304,4,62.5,0|0|0|0|0,2:0|2:0|2:0|2:0|2:0,2:0:0:0:
123,348,169466,2,0,L|89:278,1,62.5,0|0,2:0|2:0,2:0:0:0:
87,233,169622,1,0,2:0:0:0:
63,178,169700,5,0,2:0:0:0:
59,126,169778,1,0,2:0:0:0:
93,87,169856,1,0,2:0:0:0:
186,60,169935,1,0,2:0:0:0:
252,139,170013,1,0,2:0:0:0:
321,167,170091,5,0,2:0:0:0:
407,112,170169,1,0,2:0:0:0:
469,193,170247,1,0,2:0:0:0:
436,267,170325,1,0,2:0:0:0:
436,267,170403,1,0,2:0:0:0:
436,267,170481,5,0,2:0:0:0:
436,267,170559,1,0,2:0:0:0:
436,267,170637,1,0,2:0:0:0:
393,309,170715,1,0,2:0:0:0:
333,318,170794,1,0,2:0:0:0:
281,296,170872,5,0,2:0:0:0:
233,266,170950,1,0,2:0:0:0:
201,221,171028,1,0,2:0:0:0:
211,167,171106,1,0,2:0:0:0:
246,133,171185,1,0,2:0:0:0:
301,121,171263,5,0,2:0:0:0:
356,132,171341,1,0,2:0:0:0:
402,167,171419,1,0,2:0:0:0:
414,214,171497,1,0,2:0:0:0:
387,256,171575,1,0,2:0:0:0:
346,294,171653,6,0,P|275:306|192:278,1,125,0|0,2:0|2:0,2:0:0:0:
189,154,171966,1,0,2:0:0:0:
189,154,172044,1,0,2:0:0:0:
189,154,172122,1,0,2:0:0:0:
346,203,172278,2,0,P|292:254|219:278,1,125,0|0,2:0|2:0,2:0:0:0:
212,107,172591,1,0,2:0:0:0:
212,107,172669,1,0,2:0:0:0:
212,107,172747,2,0,P|321:154|344:181,1,125,0|0,2:0|2:0,2:0:0:0:
295,229,172981,6,0,B|334:318|334:318|425:154,1,250,0|0,2:0|2:0,2:0:0:0:
390,131,173372,1,0,2:0:0:0:
350,83,173450,1,0,2:0:0:0:
295,68,173528,1,0,2:0:0:0:
240,86,173606,1,0,2:0:0:0:
189,114,173685,5,0,2:0:0:0:
151,153,173763,1,0,2:0:0:0:
127,204,173841,1,0,2:0:0:0:
143,256,173919,1,0,2:0:0:0:
197,272,173997,2,0,L|192:349,1,62.5,0|0,2:0|2:0,2:0:0:0:
235,365,174153,2,0,L|239:290,1,62.5,0|0,2:0|2:0,2:0:0:0:
277,271,174310,2,0,L|270:349,1,62.5,0|0,2:0|2:0,2:0:0:0:
318,357,174466,5,0,2:0:0:0:
366,376,174544,1,0,2:0:0:0:
419,362,174622,1,0,2:0:0:0:
458,325,174700,1,0,2:0:0:0:
476,270,174778,1,0,2:0:0:0:
492,214,174856,6,0,L|311:180,1,125,0|0,2:0|2:0,2:0:0:0:
250,112,175091,1,0,2:0:0:0:
250,112,175169,1,0,2:0:0:0:
250,112,175247,1,0,2:0:0:0:
411,55,175325,2,0,L|441:194,1,125,0|0,2:0|2:0,2:0:0:0:
400,219,175560,5,0,2:0:0:0:
352,238,175638,1,0,2:0:0:0:
307,237,175716,1,0,2:0:0:0:
265,207,175794,1,0,2:0:0:0:
242,163,175872,1,0,2:0:0:0:
228,107,175950,5,0,2:0:0:0:
181,73,176028,1,0,2:0:0:0:
126,55,176106,1,0,2:0:0:0:
72,75,176185,1,0,2:0:0:0:
35,121,176263,1,0,2:0:0:0:
19,176,176341,5,0,2:0:0:0:
41,229,176419,1,0,2:0:0:0:
78,267,176497,2,0,L|65:332,4,62.5,0|0|0|0|0,2:0|2:0|2:0|2:0|2:0,2:0:0:0:
160,292,176888,2,0,L|172:230,4,62.5,0|0|0|0|0,2:0|2:0|2:0|2:0|2:0,2:0:0:0:
243,284,177278,2,0,L|231:346,4,62.5,0|0|0|0|0,2:0|2:0|2:0|2:0|2:0,2:0:0:0:
293,255,177669,5,0,2:0:0:0:
351,235,177747,1,0,2:0:0:0:
382,185,177825,1,0,2:0:0:0:
379,127,177903,1,0,2:0:0:0:
340,91,177981,1,0,2:0:0:0:
288,79,178060,5,0,2:0:0:0:
229,94,178138,1,0,2:0:0:0:
204,144,178216,1,0,2:0:0:0:
156,188,178294,1,0,2:0:0:0:
105,223,178372,1,0,2:0:0:0:
59,243,178450,5,0,2:0:0:0:
17,276,178528,1,0,2:0:0:0:
12,331,178606,1,0,2:0:0:0:
48,364,178685,1,0,2:0:0:0:
100,368,178763,1,0,2:0:0:0:
154,364,178841,5,0,2:0:0:0:
221,329,178919,1,0,2:0:0:0:
259,272,178997,1,0,2:0:0:0:
236,198,179075,1,0,2:0:0:0:
176,162,179153,1,0,2:0:0:0:
118,140,179231,5,0,2:0:0:0:
77,84,179310,1,0,2:0:0:0:
111,24,179388,1,0,2:0:0:0:
176,0,179466,1,0,2:0:0:0:
242,42,179544,1,0,2:0:0:0:
291,103,179622,5,0,2:0:0:0:
243,164,179700,1,0,2:0:0:0:
230,239,179778,1,0,2:0:0:0:
274,306,179856,1,0,2:0:0:0:
347,334,179935,1,0,2:0:0:0:
409,331,180013,5,0,2:0:0:0:
454,298,180091,1,0,2:0:0:0:
476,247,180169,1,0,2:0:0:0:
460,189,180247,1,0,2:0:0:0:
412,154,180325,1,0,2:0:0:0:
357,156,180403,5,0,2:0:0:0:
311,187,180481,1,0,2:0:0:0:
258,208,180560,1,0,2:0:0:0:
203,192,180638,1,0,2:0:0:0:
163,155,180716,1,0,2:0:0:0:
104,134,180794,5,0,2:0:0:0:
56,171,180872,1,0,2:0:0:0:
44,225,180950,1,0,2:0:0:0:
73,284,181028,1,0,2:0:0:0:
139,325,181106,1,0,2:0:0:0:
209,324,181185,5,0,2:0:0:0:
278,296,181263,1,0,2:0:0:0:
301,231,181341,1,0,2:0:0:0:
281,173,181419,1,0,2:0:0:0:
183,141,181497,2,0,P|116:163|194:184,1,187.5,0|0,2:0|2:0,2:0:0:0:
252,222,182044,2,0,L|343:269,1,93.7500035762788,0|0,2:0|2:0,2:0:0:0:
256,192,182200,12,0,184310,2:0:0:0:
