osu file format v14

[General]
AudioFilename: audio.mp3
AudioLeadIn: 0
PreviewTime: 49796
Countdown: 0
SampleSet: Soft
StackLeniency: 0.5
Mode: 0
LetterboxInBreaks: 0
WidescreenStoryboard: 1

[Editor]
Bookmarks: 104,4040,35528,51272,67016,78824
DistanceSpacing: 1.9
BeatDivisor: 4
GridSize: 4
TimelineZoom: 0.7000004

[Metadata]
Title:dis- (TV Size)
TitleUnicode:dis- (TV Size)
Artist:Mika Arisaka
ArtistUnicode:有坂美香
Creator:bossandy
Version:Normal
Source:無限のリヴァイアス
Tags:Japanese J-pop Jpop pop Anime Infinite Ryvius Mugen no Ryvius Sunrise female vocalist opening op ディス Silent Rock
BeatmapID:4418925
BeatmapSetID:2058572

[Difficulty]
HPDrainRate:3.5
CircleSize:3.6
OverallDifficulty:4
ApproachRate:5.6
SliderMultiplier:1.4
SliderTickRate:1

[Events]
//Background and Video events
Video,0,"video.mp4"
0,0,"BG.jpg",0,0
//Break Periods
//Storyboard Layer 0 (Background)
//Storyboard Layer 1 (Fail)
//Storyboard Layer 2 (Pass)
//Storyboard Layer 3 (Foreground)
//Storyboard Layer 4 (Overlay)
//Storyboard Sound Samples

[TimingPoints]
104,492.004920049201,4,2,1,70,1,0
4040,492.004920049201,4,2,1,70,1,0
51272,-100,4,2,1,90,0,1
78824,492.004920049201,4,2,1,70,1,0

[Colours]
Combo1 : 191,85,125
Combo2 : 148,46,58
Combo3 : 22,101,233
Combo4 : 178,108,59

[HitObjects]
256,40,104,5,2,0:0:0:0:
128,148,596,2,0,L|8:128,2,105,2|2|2,0:0|0:0|0:0,0:0:0:0:
256,40,1826,2,0,L|396:56,1,140,2|0,0:0|0:0,0:0:0:0:
452,116,2564,2,0,P|476:72|468:16,2,105,2|2|2,0:0|0:0|0:0,0:0:0:0:
292,160,3794,1,0,3:0:0:0:
292,160,4040,5,6,3:2:0:0:
128,188,4532,2,0,L|140:272,1,70,10|2,0:0|1:2,0:0:0:0:
96,328,5024,2,0,P|48:328|0:368,2,105,2|2|2,3:2|0:0|1:2,0:0:0:0:
156,384,6008,1,2,3:2:0:0:
320,356,6500,2,0,P|376:320|376:228,1,140,10|2,0:0|3:2,0:0:0:0:
368,176,7238,1,2,1:2:0:0:
368,176,7484,1,8,0:0:0:0:
256,48,7976,5,2,3:2:0:0:
128,152,8468,2,0,L|56:164,1,70,10|2,0:0|1:2,0:0:0:0:
36,84,8960,2,0,L|175:61,1,140,2|8,3:2|0:0,0:0:0:0:
256,44,9698,2,0,B|312:36|312:36|340:48|340:48|408:36,1,140,2|2,1:2|1:0,0:0:0:0:
476,20,10436,1,10,0:0:0:0:
352,132,10928,2,0,P|324:196|356:280,1,140,2|8,3:2|0:0,0:0:0:0:
376,336,11666,1,2,1:2:0:0:
376,336,11912,5,2,3:2:0:0:
208,312,12404,2,0,L|120:292,1,70,10|2,0:0|1:2,0:0:0:0:
56,280,12896,2,0,P|52:312|4:384,2,105,2|2|2,3:2|0:0|1:2,0:0:0:0:
36,200,13880,1,0,3:0:0:0:
104,48,14372,2,0,L|196:44,1,70,10|2,0:0|1:2,0:0:0:0:
236,100,14864,2,0,L|374:94,2,105,2|2|2,3:2|0:0|1:2,0:0:0:0:
164,144,15848,6,0,P|180:220|256:216,1,140,2|10,3:2|0:0,0:0:0:0:
312,204,16586,1,2,1:2:0:0:
312,204,16832,2,0,L|284:368,1,140,2|10,3:2|0:0,0:0:0:0:
208,364,17570,1,2,1:2:0:0:
60,288,18062,2,0,L|52:208,1,70,2|10,1:2|0:0,0:0:0:0:
104,152,18554,1,2,1:2:0:0:
104,152,18800,2,0,L|96:80,2,70,0|8|8,3:0|1:0|0:0,0:0:0:0:
212,280,19784,5,6,3:2:0:0:
312,148,20276,2,0,P|348:148|381:157,1,70,10|2,0:0|1:2,0:0:0:0:
440,220,20768,2,0,L|428:336,2,105,2|2|2,3:2|0:0|1:2,0:0:0:0:
512,172,21752,1,2,3:2:0:0:
428,28,22244,2,0,B|380:56|380:56|296:40,1,140,10|2,0:0|3:2,0:0:0:0:
216,24,22982,1,2,1:2:0:0:
216,24,23228,1,8,0:0:0:0:
256,188,23720,5,2,3:2:0:0:
112,100,24212,2,0,P|80:116|56:144,1,70,10|2,0:0|1:2,0:0:0:0:
40,224,24704,2,0,P|60:280|140:316,1,140,2|8,3:2|0:0,0:0:0:0:
212,304,25442,2,0,B|268:296|268:296|312:328|368:300,1,140,2|2,1:2|1:2,0:0:0:0:
416,260,26180,1,10,0:0:0:0:
472,100,26672,2,0,P|404:88|336:112,1,140,2|8,3:2|0:0,0:0:0:0:
276,168,27410,1,2,1:2:0:0:
276,168,27656,5,2,3:2:0:0:
176,32,28148,2,0,P|140:36|108:52,1,70,10|2,0:0|1:2,0:0:0:0:
44,104,28640,2,0,L|24:-4,2,105,2|2|2,3:2|0:0|1:2,0:0:0:0:
56,188,29624,1,0,3:0:0:0:
80,356,30116,2,0,L|172:344,1,70,10|2,0:0|1:2,0:0:0:0:
232,332,30608,2,0,L|220:248,1,70,2|2,3:2|1:2,0:0:0:0:
208,180,31100,1,10,0:0:0:0:
364,236,31592,6,0,P|429:230|449:167,1,140,2|10,3:2|0:0,0:0:0:0:
392,104,32330,2,0,P|326:109|306:172,1,140,2|2,1:2|1:2,0:0:0:0:
364,236,33068,1,10,0:0:0:0:
364,236,33314,2,0,P|344:299|264:216,1,210,2|10,1:2|0:0,0:0:0:0:
224,76,34544,2,0,B|144:60|172:92|84:76,1,140,0|10,3:0|0:0,0:0:0:0:
16,128,35282,1,8,1:0:0:0:
16,128,35528,6,0,L|32:280,1,140,6|8,3:2|0:0,0:0:0:0:
40,352,36266,1,2,1:2:0:0:
40,352,36512,1,2,3:2:0:0:
180,260,37004,1,8,0:0:0:0:
324,344,37496,2,0,L|340:192,1,140,2|8,3:2|0:0,0:0:0:0:
348,120,38234,1,2,1:2:0:0:
348,120,38480,1,2,3:2:0:0:
488,212,38972,1,10,0:0:0:0:
416,60,39464,6,0,P|352:28|280:56,1,140,2|8,3:2|0:0,0:0:0:0:
256,124,40202,1,2,1:2:0:0:
256,124,40448,2,0,P|192:156|120:128,1,140,2|8,3:2|0:0,0:0:0:0:
81,298,41432,2,0,B|133:318|133:318|173:294|229:310,1,140,2|8,3:2|0:0,0:0:0:0:
297,306,42170,2,0,B|338:293|378:317|378:317|430:297,1,140,2|0,1:2|1:0,0:0:0:0:
505,260,42908,1,10,0:0:0:0:
504,92,43400,6,0,P|472:51|366:44,1,140,2|8,3:2|0:0,0:0:0:0:
308,64,44138,1,2,1:2:0:0:
308,64,44384,1,2,3:2:0:0:
384,212,44876,1,8,0:0:0:0:
228,152,45368,2,0,P|159:159|113:209,1,140,2|8,3:2|0:0,0:0:0:0:
112,292,46106,1,2,1:2:0:0:
112,292,46352,1,2,3:2:0:0:
273,338,46844,2,0,L|341:318,1,70,10|2,0:0|1:2,0:0:0:0:
420,288,47336,6,0,L|408:132,1,140,2|8,3:2|0:0,0:0:0:0:
456,76,48074,2,0,P|408:60|328:116,1,140,2|2,1:2|1:2,0:0:0:0:
324,184,48812,1,10,0:0:0:0:
324,184,49058,2,0,B|236:204|272:168|184:184,1,140,2|0,1:2|1:0,0:0:0:0:
144,256,49796,1,8,0:0:0:0:
72,108,50288,2,0,L|88:-16,2,105,2|10|8,3:2|0:1|1:0,0:0:0:0:
16,172,51272,6,0,P|56:192|144:148,1,140,6|8,3:2|0:0,0:0:0:0:
160,76,52010,1,0,1:0:0:0:
160,76,52256,2,0,B|216:88|216:88|252:76|252:76|316:76,1,140,2|8,3:2|0:0,0:0:0:0:
368,28,52994,2,0,P|440:28|492:72,1,140,2|0,1:2|1:0,0:0:0:0:
512,152,53732,1,8,0:0:0:0:
396,272,54224,2,0,P|384:328|396:380,2,105,2|2|2,3:2|0:0|1:2,0:0:0:0:
340,212,55208,6,0,L|264:224,1,70,2|2,3:2|1:2,0:0:0:0:
216,288,55700,2,0,L|140:300,1,70,10|2,0:0|1:2,0:0:0:0:
96,368,56192,2,0,P|60:312|92:232,1,140,2|10,3:2|0:0,0:0:0:0:
156,212,56930,2,0,P|192:156|160:76,1,140,2|2,1:2|1:2,0:0:0:0:
124,20,57668,1,10,0:0:0:0:
292,16,58160,2,0,L|404:12,2,105,2|2|2,3:2|0:0|1:2,0:0:0:0:
312,96,59144,6,0,L|396:93,1,70,2|0,3:2|1:0,0:0:0:0:
396,176,59636,2,0,L|326:178,1,70,8|0,0:0|1:0,0:0:0:0:
340,260,60128,2,0,L|452:256,2,105,2|2|2,3:2|0:0|1:2,0:0:0:0:
276,316,61112,2,0,L|206:318,1,70,2|0,3:2|1:0,0:0:0:0:
140,368,61604,2,0,L|70:370,1,70,8|0,0:0|1:0,0:0:0:0:
0,328,62096,1,2,3:2:0:0:
32,164,62588,1,10,0:0:0:0:
32,164,62834,2,0,L|172:168,1,140,2|2,1:2|1:2,0:0:0:0:
220,236,63572,6,0,P|264:276|360:248,2,140,10|0|10,0:0|3:0|0:0,0:0:0:0:
296,196,64802,2,0,B|308:148|308:148|320:96|276:52,1,140,2|0,1:2|1:0,0:0:0:0:
216,16,65540,1,8,0:0:0:0:
68,96,66032,2,0,P|16:88|16:32,2,105,2|10|10,3:2|0:1|1:0,0:0:0:0:
100,172,67016,6,0,P|92:248|144:280,1,140,6|8,3:2|0:0,0:0:0:0:
224,268,67754,1,0,1:0:0:0:
224,268,68000,2,0,B|304:248|288:292|361:268,1,140,2|8,3:2|0:0,0:0:0:0:
436,232,68738,2,0,P|456:184|432:88,1,140,2|2,1:2|1:2,0:0:0:0:
376,44,69476,1,10,0:0:0:0:
208,32,69968,2,0,L|64:40,1,140,2|10,3:2|0:0,0:0:0:0:
56,124,70706,6,0,B|48:180|48:180|60:204|60:204|52:268,1,140,2|2,1:2|1:2,0:0:0:0:
44,344,71444,2,0,L|128:336,1,70,10|2,0:0|1:2,0:0:0:0:
196,332,71936,1,2,3:2:0:0:
364,316,72428,1,10,0:0:0:0:
364,316,72674,2,0,B|356:259|356:259|368:235|368:235|360:179,1,140,2|2,1:2|1:2,0:0:0:0:
352,96,73412,1,10,0:0:0:0:
468,216,73904,2,0,L|480:312,2,70,2|2|10,3:2|1:2|0:0,0:0:0:0:
456,132,74642,6,0,B|448:80|448:80|436:24|364:16,1,140,2|2,1:2|1:2,0:0:0:0:
308,44,75380,1,10,0:0:0:0:
144,88,75872,2,0,L|132:-8,2,70,2|2|10,3:2|1:2|0:0,0:0:0:0:
156,172,76610,2,0,B|164:224|164:224|176:280|248:288,1,140,2|2,1:2|1:2,0:0:0:0:
304,260,77348,1,10,0:0:0:0:
436,156,77840,2,0,L|448:44,2,105,2|2|2,3:2|0:0|1:2,0:0:0:0:
484,224,78824,5,0,3:0:0:0:
256,192,79070,12,0,81776,3:0:0:0:
204,324,82760,6,0,L|60:332,2,140,2|8|0,3:2|0:0|3:0,0:0:0:0:
304,188,84236,1,10,0:0:0:0:
304,188,84482,2,0,L|448:196,1,140,2|0,1:2|1:0,0:0:0:0:
452,112,85220,1,8,0:0:0:0:
452,112,85466,2,0,L|312:104,1,140,2|8,1:2|1:0,0:0:0:0:
236,140,86204,1,8,0:0:0:0:
104,36,86696,5,6,3:2:0:0:
