osu file format v14

[General]
AudioFilename: audio.mp3
AudioLeadIn: 0
PreviewTime: 49796
Countdown: 0
SampleSet: Soft
StackLeniency: 0.8
Mode: 0
LetterboxInBreaks: 0
WidescreenStoryboard: 1

[Editor]
Bookmarks: 104,4040,35528,51272,67016,78824
DistanceSpacing: 1.9
BeatDivisor: 4
GridSize: 4
TimelineZoom: 0.6000004

[Metadata]
Title:dis- (TV Size)
TitleUnicode:dis- (TV Size)
Artist:Mika Arisaka
ArtistUnicode:有坂美香
Creator:bossandy
Version:Infinite Ryvius
Source:無限のリヴァイアス
Tags:Japanese J-pop Jpop pop Anime Infinite Ryvius Mugen no Ryvius Sunrise female vocalist opening op ディス Silent Rock
BeatmapID:4302852
BeatmapSetID:2058572

[Difficulty]
HPDrainRate:6
CircleSize:4.5
OverallDifficulty:7
ApproachRate:8.5
SliderMultiplier:1.8
SliderTickRate:1

[Events]
//Background and Video events
Video,0,"video.mp4"
0,0,"BG.jpg",0,0
//Break Periods
//Storyboard Layer 0 (Background)
//Storyboard Layer 1 (Fail)
//Storyboard Layer 2 (Pass)
//Storyboard Layer 3 (Foreground)
//Storyboard Layer 4 (Overlay)
//Storyboard Sound Samples

[TimingPoints]
104,492.004920049201,4,2,1,70,1,0
104,-125,4,2,1,70,0,0
4040,492.004920049201,4,2,1,70,1,0
51272,-83.3333333333333,4,2,1,90,0,1
78824,492.004920049201,4,2,1,70,1,0

[Colours]
Combo1 : 191,85,125
Combo2 : 148,46,58
Combo3 : 22,101,233
Combo4 : 178,108,59

[HitObjects]
360,108,104,6,0,L|241:95,1,108,2|0,0:0|0:0,0:0:0:0:
191,127,596,2,0,P|183:91|208:43,1,72,2|0,0:0|0:0,0:0:0:0:
256,25,965,1,2,0:0:0:0:
92,172,1334,2,0,P|100:136|88:100,1,72,2|0,0:0|0:0,0:0:0:0:
48,237,1826,6,0,B|84:268|102:237|131:253|131:253|161:271|142:302|189:318,1,180,2|0,0:0|0:0,0:0:0:0:
256,292,2564,2,0,P|291:295|323:319,1,72,2|2,0:0|0:0,0:0:0:0:
266,361,2933,1,2,0:0:0:0:
293,162,3302,6,0,L|294:91,1,72,2|0,0:0|0:0,0:0:0:0:
294,79,3671,1,2,0:0:0:0:
294,68,3794,2,0,L|323:68,2,18,0|0|0,3:0|3:0|3:0,0:0:0:0:
218,68,4040,5,6,3:2:0:0:
320,315,4532,1,10,0:0:0:0:
364,216,4778,1,2,1:2:0:0:
444,288,5024,2,0,P|468:232|428:136,1,135,2|2,3:2|0:0,0:0:0:0:
451,162,5516,2,0,L|460:72,1,90,8|2,0:0|1:2,0:0:0:0:
364,216,6008,5,2,3:2:0:0:
364,216,6500,2,0,B|316:232|316:232|284:224|284:224|228:240,1,135,10|2,0:0|0:0,0:0:0:0:
234,238,6992,2,0,P|212:272|156:280,1,90,2|2,3:2|1:2,0:0:0:0:
108,248,7361,1,2,0:0:0:0:
108,248,7484,1,8,0:0:0:0:
64,152,7730,1,2,1:2:0:0:
28,320,7976,6,0,P|116:316|184:376,1,180,2|10,3:2|0:0,0:0:0:0:
256,288,8714,1,2,1:2:0:0:
256,288,8837,1,2,0:0:0:0:
256,288,8960,2,0,P|328:294|379:252,1,135,2|2,3:2|0:0,0:0:0:0:
375,257,9452,2,0,L|368:304,1,45,8|0,0:0|0:0,0:0:0:0:
300,204,9698,2,0,L|316:104,1,90,2|0,1:2|3:0,0:0:0:0:
400,180,10190,5,2,1:0:0:0:
332,32,10436,2,0,P|267:46|229:113,1,135,10|2,0:0|0:0,0:0:0:0:
230,100,10928,2,0,L|110:66,1,90,2|2,3:2|1:2,0:0:0:0:
232,192,11420,1,8,0:0:0:0:
314,115,11666,1,2,1:2:0:0:
180,8,11912,5,2,3:2:0:0:
180,8,12404,1,10,0:0:0:0:
314,115,12650,1,2,1:2:0:0:
314,115,12773,1,2,0:0:0:0:
314,115,12896,2,0,L|443:78,1,135,2|2,3:2|0:0,0:0:0:0:
443,77,13388,2,0,L|416:168,1,90,8|2,0:0|1:2,0:0:0:0:
280,40,13880,5,0,3:0:0:0:
280,40,14372,1,10,0:0:0:0:
344,192,14618,1,2,1:2:0:0:
280,344,14864,2,0,L|151:307,1,135,2|2,3:2|0:0,0:0:0:0:
150,306,15356,2,0,L|64:336,1,90,8|2,0:0|1:2,0:0:0:0:
32,224,15848,6,0,P|80:232|92:152,1,135,2|0,3:2|0:0,0:0:0:0:
101,162,16340,1,10,0:0:0:0:
40,72,16586,1,2,1:2:0:0:
236,116,16832,2,0,P|188:124|176:44,1,135,2|0,3:2|0:0,0:0:0:0:
166,54,17324,1,10,0:0:0:0:
320,104,17570,2,0,L|432:80,1,90,2|2,1:2|3:2,0:0:0:0:
292,196,18062,5,2,1:2:0:0:
264,28,18308,1,10,0:0:0:0:
380,176,18554,2,0,L|360:272,1,90,2|0,1:2|3:0,0:0:0:0:
344,336,18923,1,8,0:1:0:0:
344,336,19046,1,8,1:0:0:0:
204,256,19292,1,8,0:0:0:0:
84,364,19538,1,8,1:0:0:0:
84,364,19661,1,8,0:1:0:0:
24,312,19784,5,6,3:2:0:0:
24,72,20276,1,10,0:0:0:0:
104,144,20522,1,2,1:2:0:0:
144,44,20768,2,0,B|196:56|196:56|224:52|224:52|276:64,1,135,2|2,3:2|0:0,0:0:0:0:
276,64,21260,2,0,L|365:49,1,90,8|2,0:0|1:2,0:0:0:0:
232,144,21752,5,2,3:2:0:0:
232,144,22244,2,0,P|232:208|292:252,1,135,10|2,0:0|0:0,0:0:0:0:
283,250,22736,2,0,P|324:244|372:280,1,90,2|2,3:2|1:2,0:0:0:0:
312,316,23105,1,2,0:0:0:0:
312,316,23228,1,8,0:0:0:0:
400,380,23474,1,2,1:2:0:0:
500,232,23720,6,0,L|488:48,1,180,2|10,3:2|0:0,0:0:0:0:
388,92,24458,1,2,1:2:0:0:
388,92,24581,1,2,0:0:0:0:
388,92,24704,2,0,L|379:230,1,135,2|2,3:2|0:0,0:0:0:0:
379,226,25196,2,0,L|336:192,1,45,8|0,0:0|0:0,0:0:0:0:
429,287,25442,2,0,L|499:231,1,90,2|0,1:2|3:0,0:0:0:0:
376,348,25934,5,2,1:2:0:0:
272,248,26180,2,0,P|304:184|292:108,1,135,10|2,0:0|0:0,0:0:0:0:
298,122,26672,2,0,L|204:120,1,90,2|2,3:2|1:2,0:0:0:0:
100,116,27164,1,8,0:0:0:0:
156,208,27410,1,2,1:2:0:0:
168,32,27656,5,2,3:2:0:0:
168,32,28148,1,10,0:0:0:0:
156,208,28394,1,2,1:2:0:0:
156,208,28517,1,2,0:0:0:0:
156,208,28640,2,0,L|144:352,1,135,2|2,3:2|0:0,0:0:0:0:
144,342,29132,2,0,L|60:296,1,90,8|2,0:0|1:2,0:0:0:0:
232,168,29624,5,0,3:0:0:0:
232,168,30116,1,10,0:0:0:0:
288,260,30362,1,2,1:2:0:0:
344,168,30608,1,2,3:2:0:0:
176,260,30854,1,2,1:2:0:0:
232,352,31100,1,10,0:0:0:0:
288,260,31346,1,2,1:2:0:0:
120,352,31592,6,0,P|72:292|96:192,1,180,2|10,3:2|0:0,0:0:0:0:
420,196,32330,2,0,P|442:281|392:352,1,180,2|2,1:2|1:2,0:0:0:0:
120,352,33068,1,10,0:0:0:0:
256,252,33314,2,0,L|304:260,1,45,2|0,1:2|0:0,0:0:0:0:
186,280,33560,6,0,P|180:236|200:196,1,90,2|2,3:2|1:2,0:0:0:0:
292,140,34052,2,0,P|297:95|278:55,1,90,10|2,0:0|1:2,0:0:0:0:
199,196,34544,1,0,3:0:0:0:
199,196,34667,1,8,0:1:0:0:
199,196,34790,1,8,1:0:0:0:
392,168,35036,1,10,0:0:0:0:
320,348,35282,1,8,1:0:0:0:
320,348,35405,1,8,0:1:0:0:
252,316,35528,6,0,L|268:196,1,90,6|8,3:2|1:0,0:0:0:0:
272,156,35897,1,10,0:1:0:0:
272,156,36020,1,8,0:0:0:0:
132,240,36266,1,2,1:2:0:0:
4,143,36512,2,0,L|99:216,1,90,2|8,3:2|1:0,0:0:0:0:
136,244,36881,1,10,0:1:0:0:
136,244,37004,1,8,0:0:0:0:
129,77,37250,1,2,1:2:0:0:
278,15,37496,6,0,L|166:61,1,90,2|8,3:2|1:0,0:0:0:0:
129,77,37865,1,10,0:1:0:0:
129,77,37988,1,8,0:0:0:0:
272,156,38234,1,2,1:2:0:0:
415,235,38480,1,2,3:2:0:0:
129,77,38972,1,10,0:0:0:0:
415,235,39464,6,0,P|374:293|268:331,1,180,2|8,3:2|0:0,0:0:0:0:
328,188,40202,1,2,1:2:0:0:
328,188,40325,1,2,0:0:0:0:
328,188,40448,2,0,P|300:222|257:236,1,90,2|0,3:2|1:0,0:0:0:0:
164,180,40940,2,0,P|191:145|234:131,1,90,8|0,0:0|1:0,0:0:0:0:
77,133,41432,6,0,P|118:75|224:37,1,180,2|8,3:2|0:0,0:0:0:0:
316,80,42170,1,2,1:2:0:0:
328,187,42416,2,0,P|299:221|256:234,1,90,0|0,3:0|1:0,0:0:0:0:
164,180,42908,2,0,P|191:145|234:131,1,90,10|0,0:0|1:0,0:0:0:0:
275,324,43400,6,0,L|256:231,1,90,2|8,3:2|1:0,0:0:0:0:
300,176,43769,1,10,0:1:0:0:
300,176,43892,1,8,0:0:0:0:
192,296,44138,1,2,1:2:0:0:
77,201,44384,2,0,L|166:231,1,90,2|8,3:2|1:0,0:0:0:0:
196,300,44753,1,10,0:1:0:0:
196,300,44876,1,8,0:0:0:0:
142,143,45122,1,2,1:2:0:0:
282,91,45368,6,0,L|211:153,1,90,2|8,3:2|1:0,0:0:0:0:
142,143,45737,1,10,0:1:0:0:
142,143,45860,1,8,0:0:0:0:
299,176,46106,1,2,1:2:0:0:
328,336,46352,2,0,P|396:332|436:272,1,135,2|10,3:2|0:1,0:0:0:0:
434,282,46844,2,0,L|516:328,1,90,10|2,0:0|1:2,0:0:0:0:
352,244,47336,5,2,3:2:0:0:
352,244,47828,1,8,0:0:0:0:
326,139,48074,2,0,L|360:40,1,90,2|0,1:2|3:0,0:0:0:0:
247,218,48566,1,2,1:2:0:0:
221,113,48812,1,10,0:0:0:0:
326,139,49058,1,2,1:2:0:0:
231,322,49304,6,0,P|155:278|141:192,1,180,2|8,3:2|0:0,0:0:0:0:
216,108,50042,1,2,1:2:0:0:
353,244,50288,1,2,3:2:0:0:
376,248,50411,1,8,0:0:0:0:
398,244,50534,1,10,1:0:0:0:
421,248,50657,1,10,0:1:0:0:
443,244,50780,1,10,0:0:0:0:
326,322,51026,1,8,1:0:0:0:
303,326,51149,1,8,0:1:0:0:
231,322,51272,6,0,L|168:328,3,53.9999983520508,6|0|0|0,3:2|0:0|1:0|0:0,0:0:0:0:
136,264,51764,2,0,L|44:272,3,53.9999983520508,8|0|0|0,0:0|0:0|1:0|0:0,0:0:0:0:
40,204,52256,2,0,B|44:148|44:148|24:108|24:108|32:40,1,161.999995056153,2|0,3:2|0:0,0:0:0:0:
100,92,52748,1,8,0:0:0:0:
212,28,52994,2,0,L|360:52,1,107.999996704102,2|0,1:2|3:0,0:0:0:0:
244,152,53486,5,0,1:0:0:0:
364,200,53732,2,0,L|512:176,1,107.999996704102,8|0,0:0|1:0,0:0:0:0:
412,328,54224,2,0,L|305:310,1,107.999996704102,2|0,3:2|1:0,0:0:0:0:
228,296,54593,1,2,0:0:0:0:
228,296,54716,1,8,0:0:0:0:
364,200,54962,1,2,1:2:0:0:
248,60,55208,6,0,L|176:68,1,53.9999983520508,2|0,3:2|0:0,0:0:0:0:
116,20,55454,2,0,L|124:92,1,53.9999983520508,2|0,1:2|0:0,0:0:0:0:
76,152,55700,2,0,L|148:144,1,53.9999983520508,10|0,0:0|0:0,0:0:0:0:
208,192,55946,2,0,L|200:120,1,53.9999983520508,2|0,1:2|0:0,0:0:0:0:
301,54,56192,2,0,L|193:65,1,107.999996704102,2|0,3:2|1:0,0:0:0:0:
390,44,56684,1,10,0:0:0:0:
320,172,56930,2,0,L|427:183,1,107.999996704102,2|0,1:2|3:0,0:0:0:0:
256,276,57422,5,2,1:2:0:0:
202,138,57668,2,0,L|18:166,1,161.999995056153,10|0,0:0|0:0,0:0:0:0:
164,68,58160,2,0,L|57:84,1,107.999996704102,2|0,3:2|1:0,0:0:0:0:
41,162,58529,1,2,0:0:0:0:
41,162,58652,1,8,0:0:0:0:
140,244,58898,1,2,1:2:0:0:
64,348,59144,6,0,L|-8:360,3,53.9999983520508,2|0|0|0,3:2|0:0|1:0|0:0,0:0:0:0:
134,372,59636,2,0,L|188:364,3,53.9999983520508,8|0|0|0,0:0|0:0|1:0|0:0,0:0:0:0:
10,356,60128,2,0,L|26:244,1,107.999996704102,2|0,3:2|1:0,0:0:0:0:
38,172,60497,1,2,0:0:0:0:
38,172,60620,1,8,0:0:0:0:
56,44,60866,1,2,1:2:0:0:
148,136,61112,6,0,L|224:120,3,53.9999983520508,2|0|0|0,3:2|0:0|1:0|0:0,0:0:0:0:
90,183,61604,2,0,L|14:167,3,53.9999983520508,8|0|0|0,0:0|0:0|1:0|0:0,0:0:0:0:
200,125,62096,2,0,L|305:102,1,107.999996704102,2|0,3:2|1:0,0:0:0:0:
268,228,62588,1,10,0:0:0:0:
305,102,62834,2,0,L|410:79,1,107.999996704102,2|0,1:2|3:0,0:0:0:0:
373,205,63326,5,2,1:2:0:0:
200,124,63572,2,0,L|41:157,1,161.999995056153,10|0,0:0|0:0,0:0:0:0:
41,157,64064,2,0,P|8:112|24:44,1,107.999996704102,0|0,3:0|1:0,0:0:0:0:
132,8,64556,1,10,0:0:0:0:
305,102,64802,2,0,P|312:220|240:315,1,215.999993408203,2|0,1:2|1:0,0:0:0:0:
41,156,65540,1,8,0:0:0:0:
41,156,66032,5,2,3:2:0:0:
60,137,66155,1,8,0:0:0:0:
73,113,66278,1,8,1:0:0:0:
76,87,66401,1,10,0:1:0:0:
69,61,66524,1,8,0:0:0:0:
135,211,66770,1,10,1:0:0:0:
128,237,66893,1,8,0:1:0:0:
160,304,67016,6,0,L|276:288,1,107.999996704102,6|0,3:2|1:0,0:0:0:0:
362,206,67508,2,0,L|255:191,1,107.999996704102,8|0,0:0|1:0,0:0:0:0:
416,324,68000,2,0,P|472:284|464:128,1,215.999993408203,2|8,3:2|0:0,0:0:0:0:
255,191,68738,2,0,L|362:206,1,107.999996704102,2|0,1:2|3:0,0:0:0:0:
478,146,69230,5,2,1:2:0:0:
416,324,69476,2,0,L|256:304,1,161.999995056153,10|0,0:0|0:0,0:0:0:0:
188,340,69968,2,0,L|81:325,1,107.999996704102,2|0,3:2|1:0,0:0:0:0:
156,216,70460,1,10,0:0:0:0:
84,108,70706,2,0,L|191:93,1,107.999996704102,2|2,1:2|3:2,0:0:0:0:
156,216,71198,5,2,1:2:0:0:
255,303,71444,1,10,0:0:0:0:
356,216,71690,1,2,1:2:0:0:
320,92,71936,2,0,B|427:107|427:107|464:112|492:84,1,161.999995056153,2|0,3:2|0:0,0:0:0:0:
436,32,72428,1,10,0:0:0:0:
320,92,72674,2,0,L|213:77,1,107.999996704102,2|0,1:2|3:0,0:0:0:0:
356,216,73166,5,2,1:2:0:0:
204,320,73412,2,0,B|258:312|258:312|308:328|308:328|372:316,1,161.999995056153,10|0,0:0|0:0,0:0:0:0:
432,304,73904,1,2,3:2:0:0:
500,192,74150,1,2,1:2:0:0:
432,80,74396,1,10,0:0:0:0:
312,128,74642,2,0,P|256:136|208:112,1,107.999996704102,2|0,1:2|3:0,0:0:0:0:
276,4,75134,5,2,1:2:0:0:
92,68,75380,2,0,L|112:184,1,107.999996704102,10|0,0:0|1:0,0:0:0:0:
128,304,75872,1,2,3:2:0:0:
256,280,76118,1,2,1:2:0:0:
384,304,76364,1,10,0:0:0:0:
332,184,76610,2,0,P|324:128|348:80,1,107.999996704102,2|0,1:2|3:0,0:0:0:0:
456,148,77102,5,2,1:2:0:0:
384,304,77348,2,0,L|272:284,1,107.999996704102,10|0,0:0|1:0,0:0:0:0:
60,192,77840,2,0,L|172:172,1,107.999996704102,2|0,3:2|1:0,0:0:0:0:
236,160,78209,1,2,0:0:0:0:
236,160,78332,1,8,0:0:0:0:
277,285,78578,1,2,1:2:0:0:
359,133,78824,6,0,L|342:25,1,90,0|2,3:0|1:2,0:0:0:0:
484,90,79316,2,0,L|463:223,1,135,10|2,0:0|0:0,0:0:0:0:
448,295,79808,1,0,3:0:0:0:
360,360,80054,1,2,1:2:0:0:
256,324,80300,1,8,0:0:0:0:
152,360,80546,2,0,B|116:352|116:352|100:356|100:356|64:348,1,90,2|0,1:2|3:0,0:0:0:0:
256,324,81038,5,2,1:2:0:0:
168,220,81284,2,0,B|222:232|222:232|246:226|246:226|300:238,1,135,10|2,0:0|0:0,0:0:0:0:
372,256,81776,1,0,3:0:0:0:
356,148,82022,1,2,1:2:0:0:
420,60,82268,2,0,L|305:35,1,90,8|2,0:0|1:2,0:0:0:0:
356,148,82760,6,0,L|148:104,2,180,2|8|0,3:2|0:0|3:0,0:0:0:0:
104,88,84236,1,10,0:0:0:0:
76,192,84482,6,0,P|124:296|192:312,1,180,2|0,1:2|1:0,0:0:0:0:
256,236,85220,1,8,0:0:0:0:
332,312,85466,1,2,1:2:0:0:
375,302,85589,2,0,L|388:328,1,22.5,8|8,0:1|0:1,0:0:0:0:
411,275,85712,1,0,3:0:0:0:
432,236,85835,1,8,0:1:0:0:
436,192,85958,1,8,1:0:0:0:
256,68,86204,1,8,0:0:0:0:
76,192,86450,1,8,1:0:0:0:
79,236,86573,1,8,0:1:0:0:
100,275,86696,1,6,3:2:0:0:
