osu file format v14

[General]
AudioFilename: Morikawa Miho - Blue Water.mp3
AudioLeadIn: 0
PreviewTime: 51578
Countdown: 0
SampleSet: Soft
StackLeniency: 0.4
Mode: 0
LetterboxInBreaks: 0
WidescreenStoryboard: 0

[Editor]
Bookmarks: 1764,16028,23160,37425,51689,65954,80218
DistanceSpacing: 1.1
BeatDivisor: 4
GridSize: 4
TimelineZoom: 1

[Metadata]
Title:Blue Water (TV Size)
TitleUnicode:ブルーウォーター (TVサイズ)
Artist:Miho Morikawa
ArtistUnicode:森川美穂
Creator:Sure
Version:Normal
Source:ふしぎの海のナディア
Tags:Fushigi no Umi Nadia The Secret of ykcarrot
BeatmapID:735434
BeatmapSetID:332133

[Difficulty]
HPDrainRate:4
CircleSize:3.5
OverallDifficulty:4
ApproachRate:5
SliderMultiplier:1.4
SliderTickRate:1

[Events]
//Background and Video events
Video,-220,"Nadia OP.avi"
0,0,"Nadia BG.jpg",0,0
//Break Periods
//Storyboard Layer 0 (Background)
//Storyboard Layer 1 (Fail)
//Storyboard Layer 2 (Pass)
//Storyboard Layer 3 (Foreground)
//Storyboard Sound Samples

[TimingPoints]
1764,445.764444444445,4,2,1,40,1,0
1764,-125,4,2,1,40,0,0
1875,-125,4,2,1,5,0,0
2989,-125,4,2,1,40,0,0
5441,-125,4,2,1,5,0,0
6555,-125,4,2,1,40,0,0
9007,-125,4,2,1,5,0,0
10122,-125,4,2,1,20,0,0
10679,-125,4,2,1,30,0,0
10790,-125,4,2,1,5,0,0
11905,-125,4,2,1,20,0,0
12462,-125,4,2,1,50,0,0
14022,-111.111111111111,4,2,1,60,0,0
16028,-100,4,2,1,60,0,0
51689,-90.9090909090909,4,2,1,60,0,1
80218,-90.9090909090909,4,2,1,50,0,0
81332,-90.9090909090909,4,2,1,45,0,0
81555,-90.9090909090909,4,2,1,40,0,0
81778,-90.9090909090909,4,2,1,35,0,0
82001,-90.9090909090909,4,2,1,30,0,0
82224,-90.9090909090909,4,2,1,25,0,0
82447,-90.9090909090909,4,2,1,20,0,0
82670,-90.9090909090909,4,2,1,15,0,0
82893,-90.9090909090909,4,2,1,10,0,0
83116,-90.9090909090909,4,2,1,5,0,0

[Colours]
Combo1 : 0,128,138
Combo2 : 128,185,255
Combo3 : 0,187,202
Combo4 : 21,138,255

[HitObjects]
92,328,1764,6,0,B|68:276|92:220|92:220|8:212|-32:124|4:52,1,336
104,108,3547,1,0,0:0:0:0:
204,164,3992,1,0,0:0:0:0:
304,220,4438,2,0,P|292:276|304:328,1,112
420,328,5330,6,0,B|444:276|420:220|420:220|504:212|544:124|508:52,1,336
408,108,7113,1,0,0:0:0:0:
308,164,7558,1,0,0:0:0:0:
208,220,8004,2,0,P|220:276|208:328,1,112
108,276,8896,6,0,B|48:224|56:144|112:80|192:92|192:92|228:144,1,336
284,240,10679,2,0,B|320:292|320:292|400:304|456:240|464:160|404:108,1,336
307,55,12462,5,0,0:0:0:0:
307,55,12685,2,0,P|256:35|205:55,2,112
380,156,14022,2,0,L|452:260,1,125.999996154785,4|0,0:0|0:0,0:0:0:0:
400,316,14691,2,0,L|256:109,1,251.999992309571,0|8,0:0|0:0,0:0:0:0:
140,188,16028,6,0,L|24:268,2,140,4|8|0,1:2|0:0|0:0,0:0:0:0:
256,108,17365,1,8,0:0:0:0:
372,188,17811,2,0,P|436:188|492:140,1,140,0|8,1:0|0:0,0:0:0:0:
384,48,18703,1,2,0:0:0:0:
256,108,19148,1,10,0:0:0:0:
372,188,19594,6,0,L|488:268,2,140,0|8|0,1:0|0:0|0:0,0:0:0:0:
256,108,20931,1,8,0:0:0:0:
140,188,21377,2,0,P|76:188|20:140,1,140,0|8,1:0|0:0,0:0:0:0:
128,48,22269,1,4,0:0:0:0:
256,108,22714,1,12,0:0:0:0:
140,188,23160,5,4,1:2:0:0:
184,324,23606,1,8,0:0:0:0:
184,324,23829,1,0,0:0:0:0:
328,324,24275,1,0,1:0:0:0:
328,324,24497,1,8,0:0:0:0:
372,188,24943,2,0,P|408:132|476:125,1,140,0|8,1:0|0:0,0:0:0:0:
450,198,25612,2,0,P|380:267|298:216,1,210,0|8,0:0|0:0,0:0:0:0:
256,84,26726,5,0,1:0:0:0:
120,128,27172,2,0,L|52:152,1,70,8|0,0:0|0:0,0:0:0:0:
56,292,27841,2,0,L|122:268,1,70,0|8,1:0|0:0,0:0:0:0:
256,224,28509,2,0,P|324:224|366:279,1,140,0|8,1:0|0:0,0:0:0:0:
290,294,29178,2,0,P|202:281|194:176,1,210,2|10,0:0|0:0,0:0:0:0:
256,52,30292,5,0,1:0:0:0:
396,52,30738,1,8,0:0:0:0:
396,52,30961,1,0,0:0:0:0:
332,176,31407,1,0,1:0:0:0:
332,176,31630,1,8,0:0:0:0:
192,176,32075,2,0,P|125:199|105:261,1,140,0|8,1:0|0:0,0:0:0:0:
182,253,32744,2,0,P|264:203|232:110,1,210,0|8,0:0|0:0,0:0:0:0:
124,20,33859,6,0,B|81:5|47:39|47:39|8:79,2,140,0|8|0,1:0|0:0|0:0,0:0:0:0:
104,93,34973,2,0,L|50:146,2,70,0|8|0,1:0|0:0|0:0,0:0:0:0:
177,73,35642,2,0,B|191:115|157:149|157:149|117:188,1,140,0|8,1:0|0:0,0:0:0:0:
64,243,36310,2,0,B|24:282|24:282|-9:316|4:358,1,140,2|2,0:0|1:2,0:0:0:0:
78,338,36979,1,8,0:0:0:0:
176,240,37425,6,0,B|224:192|224:192|296:192,1,140,2|8,1:3|0:0,0:0:0:0:
356,240,38093,2,0,P|396:268|476:240,1,140,2|0,1:3|1:0,0:0:0:0:
416,192,38762,1,8,0:0:0:0:
356,144,38985,2,0,P|328:104|356:24,1,140,2|2,1:3|1:2,0:0:0:0:
404,84,39653,2,0,B|476:84|476:84|524:36,2,140,10|2|10,0:0|0:0|0:0,0:0:0:0:
264,84,40991,6,0,P|200:104|180:168,1,140,2|8,1:3|0:0,0:0:0:0:
236,224,41659,2,0,L|336:324,1,140,2|0,1:3|1:0,0:0:0:0:
412,312,42328,1,8,0:0:0:0:
420,236,42551,2,0,L|320:136,1,140,2|2,1:2|1:2,0:0:0:0:
264,84,43220,2,0,P|200:104|180:168,2,140,10|2|10,0:0|0:0|0:0,0:0:0:0:
320,136,44334,1,2,0:0:0:0:
320,212,44557,6,0,B|320:264|320:264|294:296|294:296|294:343,1,140,2|8,1:3|0:0,0:0:0:0:
218,343,45226,2,0,B|218:296|218:296|192:264|192:264|192:212,1,140,2|0,1:3|1:0,0:0:0:0:
192,136,45894,1,8,0:0:0:0:
116,128,46117,2,0,P|148:72|220:64,1,140,2|0,1:3|1:0,0:0:0:0:
294,63,46786,2,0,P|364:72|396:128,2,140,8|0|8,0:0|0:0|0:0,0:0:0:0:
140,192,48123,6,0,L|-12:192,2,140,4|8|0,1:2|0:0|0:0,0:0:0:0:
140,268,49237,2,0,L|140:340,2,70,0|8|0,1:0|0:0|0:0,0:0:0:0:
140,116,50129,2,0,L|140:44,2,70,4|8|0,0:0|0:0|0:0,0:0:0:0:
140,192,50798,1,4,0:0:0:0:
256,292,51243,1,12,0:0:0:0:
372,192,51689,6,0,B|432:140|432:140|468:156|504:140,2,154.000004699707,4|8|0,1:2|0:0|0:0,0:0:0:0:
256,292,53026,1,8,0:0:0:0:
140,192,53472,1,0,1:0:0:0:
256,92,53918,1,8,0:0:0:0:
372,192,54364,1,0,0:0:0:0:
256,292,54809,2,0,L|196:240,1,77.0000023498536,8|0,0:0|0:0,0:0:0:0:
140,192,55255,6,0,B|80:140|80:140|44:156|8:140,2,154.000004699707,0|8|0,1:0|0:0|0:0,0:0:0:0:
256,292,56593,1,8,0:0:0:0:
372,192,57038,1,0,1:0:0:0:
256,92,57484,1,8,0:0:0:0:
140,192,57930,1,0,0:0:0:0:
256,292,58376,1,8,0:0:0:0:
320,332,58598,6,0,P|256:368|192:332,1,154.000004699707
188,256,59267,2,0,B|120:220|120:220|84:200|80:156,2,154.000004699707,8|0|8,0:0|0:0|0:0,0:0:0:0:
256,292,60382,1,0,0:0:0:0:
324,256,60604,2,0,B|392:220|392:220|428:200|432:156,1,154.000004699707,0|8,1:0|0:0,0:0:0:0:
356,152,61273,2,0,B|340:120|300:112|300:112|212:112|212:112|172:120|156:152,1,231.000007049561,0|8,0:0|0:0,0:0:0:0:
96,200,62165,5,0,0:0:0:0:
96,200,62387,2,0,B|136:240|136:240|176:240|176:240|216:280,1,154.000004699707,0|8,1:0|0:0,0:0:0:0:
296,280,63056,2,0,B|336:240|336:240|376:240|376:240|416:200,1,154.000004699707,0|0,0:0|1:0,0:0:0:0:
416,120,63725,1,8,0:0:0:0:
416,120,63947,2,0,B|376:80|376:80|336:80|336:80|296:40,1,154.000004699707
216,40,64616,2,0,B|176:80|176:80|136:80|136:80|96:120,2,154.000004699707,8|0|8,0:0|0:0|0:0,0:0:0:0:
256,192,65954,6,0,L|256:348,2,154.000004699707,4|8|0,1:2|0:0|0:0,0:0:0:0:
332,60,67291,1,8,0:0:0:0:
412,192,67737,1,0,1:0:0:0:
332,324,68182,1,8,0:0:0:0:
180,324,68628,1,0,0:0:0:0:
100,192,69074,2,0,L|144:120,1,77.0000023498536,8|0,0:0|0:0,0:0:0:0:
180,60,69520,6,0,B|256:48|256:48|332:60,2,154.000004699707,0|8|0,1:0|0:0|0:0,0:0:0:0:
100,192,70857,1,8,0:0:0:0:
180,324,71303,1,0,1:0:0:0:
332,324,71749,1,8,0:0:0:0:
412,192,72194,1,0,0:0:0:0:
332,60,72640,1,8,0:0:0:0:
256,60,72863,6,0,B|180:60|180:60|136:124,1,154.000004699707
172,192,73532,2,0,B|248:192|248:192|292:128,2,154.000004699707,8|2|10,0:0|0:0|0:0,0:0:0:0:
20,192,74869,2,0,L|20:32,2,154.000004699707,2|8|0,1:2|0:0|0:0,0:0:0:0:
100,324,76206,1,8,0:0:0:0:
256,324,76652,6,0,L|336:324,2,77.0000023498536,4|0|8,1:2|0:0|0:0,0:0:0:0:
180,324,77321,2,0,P|129:312|84:228,1,154.000004699707,4|0,1:2|1:0,0:0:0:0:
84,152,77989,1,8,0:0:0:0:
160,152,78212,2,0,P|212:164|256:248,1,154.000004699707,4|0,1:2|1:0,0:0:0:0:
256,324,78881,2,0,P|412:280|428:152,1,308.000009399414,8|8,0:0|0:0,0:0:0:0:
256,192,80218,12,0,83116,0:0:0:0:
