osu file format v14

[General]
AudioFilename: Morikawa Miho - Blue Water.mp3
AudioLeadIn: 0
PreviewTime: 51578
Countdown: 0
SampleSet: Soft
StackLeniency: 0.4
Mode: 0
LetterboxInBreaks: 0
WidescreenStoryboard: 0

[Editor]
Bookmarks: 1764,16028,23160,37425,51689,65954,80218
DistanceSpacing: 1.5
BeatDivisor: 4
GridSize: 4
TimelineZoom: 1.8

[Metadata]
Title:Blue Water (TV Size)
TitleUnicode:ブルーウォーター (TVサイズ)
Artist:Miho Morikawa
ArtistUnicode:森川美穂
Creator:Sure
Version:Insane
Source:ふしぎの海のナディア
Tags:Fushigi no Umi Nadia The Secret of ykcarrot
BeatmapID:735433
BeatmapSetID:332133

[Difficulty]
HPDrainRate:7
CircleSize:4.5
OverallDifficulty:7
ApproachRate:8
SliderMultiplier:2
SliderTickRate:1

[Events]
//Background and Video events
Video,-220,"Nadia OP.avi"
0,0,"Nadia BG.jpg",0,0
//Break Periods
//Storyboard Layer 0 (Background)
//Storyboard Layer 1 (Fail)
//Storyboard Layer 2 (Pass)
//Storyboard Layer 3 (Foreground)
//Storyboard Sound Samples

[TimingPoints]
1764,445.764444444445,4,2,1,40,1,0
1764,-125,4,2,1,40,0,0
1875,-125,4,2,1,5,0,0
2989,-125,4,2,1,40,0,0
5441,-125,4,2,1,5,0,0
6555,-125,4,2,1,40,0,0
9007,-125,4,2,1,5,0,0
10122,-125,4,2,1,20,0,0
10679,-125,4,2,1,30,0,0
10790,-125,4,2,1,5,0,0
11905,-125,4,2,1,20,0,0
12462,-125,4,2,1,50,0,0
14022,-111.111111111111,4,2,1,60,0,0
15025,-111.111111111111,4,2,1,5,0,0
15248,-111.111111111111,4,2,1,60,0,0
16028,-100,4,2,1,60,0,0
51689,-90.9090909090909,4,2,1,60,0,1
80218,-90.9090909090909,4,2,1,50,0,0
81332,-90.9090909090909,4,2,1,45,0,0
81555,-90.9090909090909,4,2,1,40,0,0
81778,-90.9090909090909,4,2,1,35,0,0
82001,-90.9090909090909,4,2,1,30,0,0
82224,-90.9090909090909,4,2,1,25,0,0
82447,-90.9090909090909,4,2,1,20,0,0
82670,-90.9090909090909,4,2,1,15,0,0
82893,-90.9090909090909,4,2,1,10,0,0
83116,-90.9090909090909,4,2,1,5,0,0

[Colours]
Combo1 : 0,128,138
Combo2 : 128,185,255
Combo3 : 0,187,202
Combo4 : 21,138,255

[HitObjects]
0,332,1764,6,0,B|0:272|56:240|108:256|108:256|172:236|216:168|208:88|152:36|76:32,1,480
76,146,3547,1,0,0:0:0:0:
156,224,3992,1,0,0:0:0:0:
252,288,4438,1,0,0:0:0:0:
356,332,4884,2,0,P|392:344|432:332,1,80
512,332,5330,6,0,B|512:272|456:240|404:256|404:256|340:236|296:168|304:88|360:36|436:32,1,480
436,146,7113,1,0,0:0:0:0:
356,224,7558,1,0,0:0:0:0:
260,288,8004,1,0,0:0:0:0:
156,332,8450,2,0,P|120:344|80:332,1,80
16,288,8896,6,0,P|52:100|256:192,1,480
256,192,10679,2,0,P|460:284|496:96,1,480
388,172,12462,5,0,0:0:0:0:
388,172,12685,2,0,L|356:96,1,80
404,32,13130,2,0,P|324:24|276:84,1,160
96,300,14022,2,0,P|184:300|236:232,1,179.999994506836,4|0,0:0|0:0,0:0:0:0:
256,156,14691,2,0,P|328:52|460:60,1,269.999991760254
388,172,15582,1,8,0:0:0:0:
316,284,15805,5,0,0:0:0:0:
316,284,15917,1,0,0:0:0:0:
316,284,16028,2,0,P|212:292|140:236,1,200,4|8,1:2|0:0,0:0:0:0:
88,96,16697,1,0,0:0:0:0:
88,96,16808,1,0,1:0:0:0:
88,96,16919,2,0,L|36:120,1,50,2|0,0:0|0:0,0:0:0:0:
44,192,17142,2,0,L|-8:216,2,50,0|2|8,1:0|0:0|0:0,0:0:0:0:
224,104,17588,6,0,L|276:80,1,50
384,80,17811,2,0,L|332:104,1,50,0|0,1:0|0:0,0:0:0:0:
260,184,18034,2,0,L|312:160,1,50
465,138,18257,2,0,L|373:182,1,100,8|0,0:0|0:0,0:0:0:0:
340,244,18591,2,0,L|288:268,1,50,0|2,1:0|0:0,0:0:0:0:
116,336,18925,1,0,1:0:0:0:
148,140,19148,2,0,L|244:96,1,100,10|0,0:0|0:0,0:0:0:0:
424,16,19594,5,0,1:0:0:0:
424,16,19706,1,0,0:0:0:0:
424,16,19817,1,0,0:0:0:0:
424,16,19928,1,0,0:0:0:0:
424,16,20040,2,0,L|468:108,1,100,8|0,0:0|0:0,0:0:0:0:
416,160,20374,1,0,1:0:0:0:
416,160,20486,2,0,L|440:212,1,50,2|0,0:0|0:0,0:0:0:0:
384,256,20708,2,0,L|408:308,2,50,0|2|8,1:0|0:0|0:0,0:0:0:0:
300,72,21154,6,0,L|276:20,1,50
264,148,21377,2,0,L|288:200,1,50,0|0,1:0|0:0,0:0:0:0:
184,128,21600,2,0,L|160:76,1,50
148,204,21823,2,0,L|192:300,1,100,8|0,0:0|0:0,0:0:0:0:
196,308,22157,1,0,1:0:0:0:
202,321,22269,2,0,P|158:345|110:345,1,100,4|0,0:0|1:0,0:0:0:0:
310,63,22714,2,0,P|354:39|402:39,1,100,12|8,0:0|0:0,0:0:0:0:
418,43,23049,1,8,0:0:0:0:
432,48,23160,5,4,1:2:0:0:
512,176,23383,1,0,0:0:0:0:
384,256,23606,1,8,0:0:0:0:
304,128,23829,2,0,L|248:116,2,50,0|0|0,0:0|1:0|0:0,0:0:0:0:
384,256,24275,1,0,1:0:0:0:
512,176,24497,1,8,0:0:0:0:
432,48,24720,1,0,0:0:0:0:
304,128,24943,5,0,1:0:0:0:
384,256,25166,2,0,L|360:372,1,100,0|8,0:0|0:0,0:0:0:0:
304,128,25612,2,0,L|315:72,2,50,0|0|0,0:0|1:0|0:0,0:0:0:0:
256,336,26058,1,0,1:0:0:0:
304,128,26281,1,8,0:0:0:0:
304,128,26726,5,0,1:0:0:0:
176,208,26949,1,0,0:0:0:0:
256,336,27172,1,8,0:0:0:0:
384,256,27395,2,0,L|440:267,2,50,0|0|0,0:0|1:0|0:0,0:0:0:0:
256,336,27841,1,0,1:0:0:0:
176,208,28064,1,8,0:0:0:0:
304,128,28286,1,0,0:0:0:0:
384,256,28509,5,0,1:0:0:0:
256,336,28732,2,0,L|140:312,1,100,0|8,0:0|0:0,0:0:0:0:
384,256,29178,2,0,L|500:280,1,100,2|0,0:0|0:0,0:0:0:0:
256,336,29624,1,2,1:2:0:0:
176,208,29847,1,10,0:0:0:0:
176,208,29958,2,0,L|200:92,1,100,2|0,0:0|0:0,0:0:0:0:
196,110,30292,5,0,1:0:0:0:
324,28,30515,1,0,0:0:0:0:
404,156,30738,1,8,0:0:0:0:
276,236,30961,2,0,L|265:292,2,50,0|0|0,0:0|1:0|0:0,0:0:0:0:
404,156,31407,1,0,1:0:0:0:
324,28,31630,1,8,0:0:0:0:
196,110,31853,1,0,0:0:0:0:
276,236,32075,5,0,1:0:0:0:
404,156,32298,2,0,L|520:180,1,100,0|8,0:0|0:0,0:0:0:0:
276,236,32744,2,0,L|220:225,2,50,0|0|0,0:0|1:0|0:0,0:0:0:0:
484,284,33190,1,0,1:0:0:0:
276,236,33413,1,8,0:0:0:0:
276,236,33859,6,0,L|160:212,1,100,0|0,1:0|0:0,0:0:0:0:
32,188,34304,1,8,0:0:0:0:
178,216,34527,2,0,L|167:272,2,50,0|0|0,0:0|1:0|0:0,0:0:0:0:
204,68,34973,2,0,L|320:92,1,100,0|8,1:0|0:0,0:0:0:0:
448,116,35418,1,0,0:0:0:0:
348,232,35642,5,0,1:0:0:0:
204,68,35864,1,8,0:0:0:0:
132,276,36087,1,8,0:0:0:0:
348,232,36310,2,0,L|448:212,1,100,2|0,0:0|0:0,0:0:0:0:
240,256,36756,1,2,1:2:0:0:
312,48,36979,1,10,0:0:0:0:
448,212,37202,5,8,0:0:0:0:
448,212,37313,1,8,0:0:0:0:
448,212,37425,2,0,P|416:308|328:332,1,200,2|8,1:3|0:0,0:0:0:0:
164,232,38093,2,0,P|240:200|348:232,1,200,2|0,1:3|1:0,0:0:0:0:
348,232,38762,1,8,0:0:0:0:
184,332,38985,2,0,P|96:308|64:212,1,200,2|2,1:3|1:2,0:0:0:0:
140,36,39653,5,10,0:0:0:0:
256,192,39876,1,2,0:0:0:0:
64,212,40099,1,2,0:0:0:0:
140,36,40322,2,0,L|212:28,1,50,2|0,1:2|0:0,0:0:0:0:
256,68,40545,2,0,L|364:56,1,100,10|2,0:0|0:0,0:0:0:0:
455,171,40991,6,0,L|231:195,1,200,2|8,1:3|0:0,0:0:0:0:
57,337,41659,2,0,L|281:313,1,200,2|0,1:3|1:0,0:0:0:0:
256,316,42328,1,8,0:0:0:0:
256,68,42551,2,0,L|32:92,1,200,2|2,1:2|1:2,0:0:0:0:
68,312,43220,5,10,0:0:0:0:
256,192,43442,1,2,0:0:0:0:
57,89,43665,1,2,0:0:0:0:
68,312,43888,2,0,L|132:344,1,50,2|0,1:2|0:0,0:0:0:0:
188,320,44111,2,0,L|284:368,1,100,10|2,0:0|0:0,0:0:0:0:
408,292,44557,6,0,P|354:214|256:192,1,200,2|8,1:3|0:0,0:0:0:0:
93,273,45226,2,0,P|187:266|256:192,1,200,2|0,1:3|1:0,0:0:0:0:
256,192,45894,1,8,0:0:0:0:
266,10,46117,2,0,P|226:96|256:192,1,200,2|0,1:3|1:0,0:0:0:0:
332,324,46786,5,8,0:0:0:0:
256,192,47009,1,0,0:0:0:0:
180,324,47231,1,0,0:0:0:0:
256,192,47454,1,0,1:0:0:0:
332,324,47677,2,0,L|436:324,1,100,8|0,0:0|0:0,0:0:0:0:
256,192,48123,6,0,B|212:96|300:96|256:0,2,200,4|8|0,1:2|0:0|0:0,0:0:0:0:
332,324,49237,1,0,1:0:0:0:
256,192,49460,1,8,0:0:0:0:
180,324,49683,2,0,L|76:324,1,100,0|0,0:0|1:0,0:0:0:0:
132,120,50129,5,4,0:0:0:0:
256,336,50352,1,8,0:0:0:0:
380,120,50575,1,0,0:0:0:0:
132,264,50798,1,4,0:0:0:0:
256,48,51021,1,0,1:0:0:0:
380,264,51244,1,12,0:0:0:0:
256,192,51466,5,8,0:0:0:0:
256,192,51578,1,8,0:0:0:0:
256,192,51689,2,0,B|204:160|152:192|152:192|100:224|48:192,1,220.000006713867,4|8,0:0|0:0,0:0:0:0:
204,268,52358,1,0,0:0:0:0:
204,268,52469,1,0,1:0:0:0:
204,268,52581,2,0,L|204:380,1,110.000003356934,0|0,0:0|1:0,0:0:0:0:
100,116,53026,2,0,L|100:0,1,110.000003356934,8|0,0:0|0:0,0:0:0:0:
412,5,53472,6,0,L|412:116,1,110.000003356934,0|0,1:0|0:0,0:0:0:0:
308,378,53918,2,0,L|308:268,1,110.000003356934,8|0,0:0|0:0,0:0:0:0:
256,224,54252,1,0,1:0:0:0:
204,268,54364,2,0,L|204:380,1,110.000003356934,0|0,0:0|1:0,0:0:0:0:
100,116,54809,2,0,L|100:0,1,110.000003356934,8|0,0:0|0:0,0:0:0:0:
256,192,55255,6,0,B|308:224|360:192|360:192|412:160|464:192,1,220.000006713867,0|8,1:0|0:0,0:0:0:0:
308,116,55924,1,0,0:0:0:0:
308,116,56035,1,0,1:0:0:0:
308,116,56147,2,0,L|308:4,1,110.000003356934,0|0,0:0|1:0,0:0:0:0:
412,268,56592,2,0,L|412:384,1,110.000003356934,8|0,0:0|0:0,0:0:0:0:
100,378,57038,6,0,L|100:268,1,110.000003356934,0|0,1:0|0:0,0:0:0:0:
204,6,57484,2,0,L|204:116,1,110.000003356934,8|0,0:0|0:0,0:0:0:0:
256,160,57819,1,0,1:0:0:0:
308,116,57931,2,0,L|308:4,1,110.000003356934,0|0,0:0|1:0,0:0:0:0:
412,268,58376,1,8,0:0:0:0:
308,116,58598,6,0,P|256:100|204:116,1,110.000003356934,0|0,0:0|1:0,0:0:0:0:
56,192,59044,1,0,0:0:0:0:
204,268,59267,2,0,P|256:284|308:268,1,110.000003356934,8|0,0:0|0:0,0:0:0:0:
365,230,59601,1,0,1:0:0:0:
308,192,59713,2,0,P|256:176|204:192,1,110.000003356934,0|0,0:0|1:0,0:0:0:0:
56,268,60159,1,8,0:0:0:0:
204,344,60382,5,0,0:0:0:0:
204,344,60604,2,0,L|204:116,1,220.000006713867,0|8,1:0|0:0,0:0:0:0:
84,8,61273,2,0,L|148:8,1,55.0000016784668,0|0,0:0|1:0,0:0:0:0:
204,32,61496,2,0,B|256:50|256:50|308:32,1,110.000003356934,0|0,0:0|1:0,0:0:0:0:
372,8,61830,2,0,L|427:8,1,55.0000016784668,0|8,0:0|0:0,0:0:0:0:
308,124,62165,5,0,0:0:0:0:
308,124,62387,2,0,L|308:344,1,220.000006713867,0|8,1:0|0:0,0:0:0:0:
136,344,63056,2,0,L|136:224,1,110.000003356934
376,234,63502,2,0,L|376:346,1,110.000003356934,0|8,1:0|0:0,0:0:0:0:
256,134,63948,6,0,L|256:14,1,110.000003356934,0|0,0:0|1:0,0:0:0:0:
468,192,64393,1,0,0:0:0:0:
256,360,64616,1,8,0:0:0:0:
44,192,64839,2,0,L|-24:192,2,55.0000016784668,0|0|0,0:0|1:0|0:0,0:0:0:0:
256,360,65285,1,0,1:0:0:0:
468,192,65508,1,8,0:0:0:0:
256,24,65731,5,8,0:0:0:0:
256,24,65842,1,8,0:0:0:0:
256,24,65954,2,0,B|196:24|164:72|164:72|60:32,1,220.000006713867,4|8,1:2|0:0,0:0:0:0:
256,136,66622,1,0,0:0:0:0:
256,136,66734,1,0,1:0:0:0:
256,136,66846,2,0,L|360:176,1,110.000003356934,0|0,0:0|1:0,0:0:0:0:
256,360,67291,2,0,L|152:320,1,110.000003356934,8|0,0:0|0:0,0:0:0:0:
372,304,67737,6,0,L|476:344,1,110.000003356934,0|0,1:0|0:0,0:0:0:0:
256,248,68182,2,0,L|152:208,1,110.000003356934,8|0,0:0|0:0,0:0:0:0:
88,184,68517,1,0,1:0:0:0:
112,120,68628,2,0,L|152:16,1,110.000003356934,0|0,0:0|1:0,0:0:0:0:
64,248,69074,2,0,L|24:352,1,110.000003356934,8|0,0:0|0:0,0:0:0:0:
256,360,69520,6,0,B|316:360|348:312|348:312|452:352,1,220.000006713867,0|8,1:0|0:0,0:0:0:0:
256,248,70188,1,0,0:0:0:0:
256,248,70300,1,0,1:0:0:0:
256,248,70412,2,0,L|152:208,1,110.000003356934,0|0,0:0|1:0,0:0:0:0:
256,24,70857,2,0,L|360:64,1,110.000003356934,8|0,0:0|0:0,0:0:0:0:
140,80,71303,6,0,L|36:40,1,110.000003356934,0|0,1:0|0:0,0:0:0:0:
256,136,71748,2,0,L|360:176,1,110.000003356934,8|0,0:0|0:0,0:0:0:0:
424,200,72083,1,0,1:0:0:0:
400,264,72194,2,0,L|360:368,1,110.000003356934,0|0,0:0|1:0,0:0:0:0:
448,136,72640,1,8,0:0:0:0:
308,40,72863,6,0,B|256:22|256:22|204:40,1,110.000003356934,0|0,0:0|1:0,0:0:0:0:
64,136,73309,1,0,0:0:0:0:
204,232,73532,2,0,B|256:250|256:250|308:232,1,110.000003356934,8|0,0:0|0:0,0:0:0:0:
208,60,73977,2,0,B|168:96|168:96|156:152,1,110.000003356934,2|0,0:0|1:0,0:0:0:0:
356,152,74423,2,0,B|344:96|344:96|304:60,1,110.000003356934,10|0,0:0|0:0,0:0:0:0:
164,232,74869,6,0,P|256:284|348:232,1,220.000006713867,2|8,1:2|0:0,0:0:0:0:
408,80,75538,2,0,L|336:80,1,55.0000016784668,0|0,0:0|1:0,0:0:0:0:
308,28,75760,2,0,B|256:11|256:11|204:28,1,110.000003356934,0|0,0:0|1:0,0:0:0:0:
160,80,76095,2,0,L|104:80,1,55.0000016784668,0|8,0:0|0:0,0:0:0:0:
360,228,76652,5,4,1:2:0:0:
360,228,76875,2,0,L|256:192,1,110.000003356934,0|8,0:0|0:0,0:0:0:0:
48,8,77321,2,0,L|256:80,1,220.000006713867,4|0,1:2|1:0,0:0:0:0:
256,192,77989,1,8,0:0:0:0:
464,376,78212,2,0,L|256:304,1,220.000006713867,4|0,1:2|1:0,0:0:0:0:
152,268,78881,2,0,P|128:172|196:80,1,220.000006713867,8|0,0:0|0:0,0:0:0:0:
256,192,79549,1,0,1:0:0:0:
256,192,79661,1,0,1:0:0:0:
256,192,79772,2,0,L|360:228,2,110.000003356934,8|0|4,0:0|0:0|1:2,0:0:0:0:
256,192,80329,12,0,83116,0:0:0:0:
