osu file format v14

[General]
AudioFilename: Morikawa Miho - Blue Water.mp3
AudioLeadIn: 0
PreviewTime: 51578
Countdown: 0
SampleSet: Soft
StackLeniency: 0.4
Mode: 0
LetterboxInBreaks: 0
WidescreenStoryboard: 0

[Editor]
Bookmarks: 1764,16028,23160,37425,51689,65954,80218
DistanceSpacing: 1
BeatDivisor: 4
GridSize: 4
TimelineZoom: 0.8

[Metadata]
Title:Blue Water (TV Size)
TitleUnicode:ブルーウォーター (TVサイズ)
Artist:Miho Morikawa
ArtistUnicode:森川美穂
Creator:Sure
Version:Hard
Source:ふしぎの海のナディア
Tags:Fushigi no Umi Nadia The Secret of ykcarrot
BeatmapID:735432
BeatmapSetID:332133

[Difficulty]
HPDrainRate:6
CircleSize:4
OverallDifficulty:6
ApproachRate:7
SliderMultiplier:1.8
SliderTickRate:1

[Events]
//Background and Video events
Video,-220,"Nadia OP.avi"
0,0,"Nadia BG.jpg",0,0
//Break Periods
//Storyboard Layer 0 (Background)
//Storyboard Layer 1 (Fail)
//Storyboard Layer 2 (Pass)
//Storyboard Layer 3 (Foreground)
//Storyboard Sound Samples

[TimingPoints]
1764,445.764444444445,4,2,1,40,1,0
1764,-125,4,2,1,40,0,0
1875,-125,4,2,1,5,0,0
2989,-125,4,2,1,40,0,0
5441,-125,4,2,1,5,0,0
6555,-125,4,2,1,40,0,0
9007,-125,4,2,1,5,0,0
10122,-125,4,2,1,20,0,0
10679,-125,4,2,1,30,0,0
10790,-125,4,2,1,5,0,0
11905,-125,4,2,1,20,0,0
12462,-125,4,2,1,50,0,0
14022,-111.111111111111,4,2,1,60,0,0
15025,-111.111111111111,4,2,1,5,0,0
15248,-111.111111111111,4,2,1,60,0,0
16028,-100,4,2,1,60,0,0
51689,-90.9090909090909,4,2,1,60,0,1
80218,-90.9090909090909,4,2,1,50,0,0
81332,-90.9090909090909,4,2,1,45,0,0
81555,-90.9090909090909,4,2,1,40,0,0
81778,-90.9090909090909,4,2,1,35,0,0
82001,-90.9090909090909,4,2,1,30,0,0
82224,-90.9090909090909,4,2,1,25,0,0
82447,-90.9090909090909,4,2,1,20,0,0
82670,-90.9090909090909,4,2,1,15,0,0
82893,-90.9090909090909,4,2,1,10,0,0
83116,-90.9090909090909,4,2,1,5,0,0

[Colours]
Combo1 : 0,128,138
Combo2 : 128,185,255
Combo3 : 0,187,202
Combo4 : 21,138,255

[HitObjects]
44,304,1764,6,0,B|44:260|76:224|124:224|124:224|172:188|196:136|184:68|140:32|84:20|36:40,1,432
76,132,3547,1,0,0:0:0:0:
144,204,3992,1,0,0:0:0:0:
228,260,4438,1,0,0:0:0:0:
320,304,4884,2,0,P|368:312|388:304,1,72
468,304,5330,6,0,B|468:260|436:224|388:224|388:224|340:188|316:136|328:68|372:32|428:20|476:40,1,432
436,132,7113,1,0,0:0:0:0:
368,204,7558,1,0,0:0:0:0:
284,260,8004,1,0,0:0:0:0:
192,304,8450,2,0,P|144:312|124:304,1,72
56,260,8896,6,0,P|88:92|256:192,1,432
256,192,10679,2,0,P|424:292|456:124,1,432
368,192,12462,5,0,0:0:0:0:
368,192,12685,2,0,L|344:120,1,72
392,52,13130,2,0,P|318:43|268:88,1,144
56,288,14022,2,0,P|132:296|196:244,1,161.999995056153,4|0,0:0|0:0,0:0:0:0:
236,168,14691,2,0,P|332:104|428:168,1,242.999992584229
408,256,15582,1,8,0:0:0:0:
332,208,15805,5,0,0:0:0:0:
332,208,15917,1,0,0:0:0:0:
332,208,16028,2,0,L|180:112,2,180,4|8|0,1:2|0:0|0:0,0:0:0:0:
408,256,17142,1,0,1:0:0:0:
332,304,17365,2,0,P|284:312|248:296,1,90,8|0,0:0|0:0,0:0:0:0:
172,248,17811,2,0,L|20:152,2,180,0|8|2,1:0|0:0|0:0,0:0:0:0:
248,200,18925,1,0,1:0:0:0:
324,248,19148,2,0,P|388:260|404:248,1,90,10|0,0:0|0:0,0:0:0:0:
476,192,19594,6,0,L|476:8,2,180,0|8|0,1:0|0:0|0:0,0:0:0:0:
404,248,20708,1,0,1:0:0:0:
332,192,20931,2,0,P|300:168|252:168,1,90,8|0,0:0|0:0,0:0:0:0:
164,192,21377,2,0,L|164:384,1,180,0|8,1:0|0:0,0:0:0:0:
72,372,22046,1,0,0:0:0:0:
72,280,22269,2,0,P|64:236|72:192,1,90,4|0,0:0|1:0,0:0:0:0:
256,192,22714,2,0,P|264:236|256:280,1,90,12|8,0:0|0:0,0:0:0:0:
256,280,23049,1,8,0:0:0:0:
256,280,23160,6,0,L|352:280,2,90,4|0|8,1:2|0:0|0:0,0:0:0:0:
164,280,23829,2,0,P|124:216|164:128,1,180,0|0,0:0|1:0,0:0:0:0:
256,128,24497,1,8,0:0:0:0:
304,204,24720,1,0,0:0:0:0:
396,204,24943,1,0,1:0:0:0:
444,128,25166,2,0,L|396:52,1,90,0|8,0:0|0:0,0:0:0:0:
304,52,25612,2,0,P|264:116|304:204,1,180,0|0,0:0|1:0,0:0:0:0:
396,204,26281,1,8,0:0:0:0:
396,204,26726,6,0,L|488:204,2,90,0|0|8,1:0|0:0|0:0,0:0:0:0:
304,204,27395,2,0,P|264:268|304:356,1,180,0|0,0:0|1:0,0:0:0:0:
396,356,28064,1,8,0:0:0:0:
444,280,28286,1,0,0:0:0:0:
396,204,28509,1,0,1:0:0:0:
304,204,28732,2,0,L|204:204,1,90,0|8,0:0|0:0,0:0:0:0:
124,204,29178,2,0,P|84:140|124:52,1,180,2|2,0:0|1:2,0:0:0:0:
216,52,29847,1,10,0:0:0:0:
216,52,30292,6,0,L|312:52,2,90,0|0|8,1:0|0:0|0:0,0:0:0:0:
124,52,30961,2,0,P|84:116|124:204,1,180,0|0,0:0|1:0,0:0:0:0:
216,204,31630,1,8,0:0:0:0:
264,280,31853,1,0,0:0:0:0:
216,356,32075,1,0,1:0:0:0:
124,356,32298,2,0,L|76:280,1,90,0|8,0:0|0:0,0:0:0:0:
124,204,32744,2,0,L|308:204,1,180,0|0,0:0|1:0,0:0:0:0:
396,204,33413,1,8,0:0:0:0:
396,204,33859,6,0,L|464:136,1,90,0|0,1:0|0:0,0:0:0:0:
396,52,34304,2,0,L|328:120,1,90,8|0,0:0|0:0,0:0:0:0:
256,192,34750,1,0,0:0:0:0:
179,115,34973,2,0,L|112:48,1,90,0|8,1:0|0:0,0:0:0:0:
52,140,35419,2,0,L|116:204,1,90,0|0,0:0|1:0,0:0:0:0:
200,276,35864,1,8,0:0:0:0:
312,276,36087,1,8,0:0:0:0:
336,168,36310,2,0,P|256:132|176:168,1,180,2|2,0:0|1:2,0:0:0:0:
200,276,36979,1,10,0:0:0:0:
312,276,37202,5,8,0:0:0:0:
312,276,37313,1,8,0:0:0:0:
312,276,37425,2,0,P|396:264|444:188,1,180,2|8,1:3|0:0,0:0:0:0:
336,168,38093,2,0,P|256:132|176:168,1,180,2|0,1:3|1:0,0:0:0:0:
176,168,38762,1,8,0:0:0:0:
200,276,38985,2,0,P|116:264|68:188,1,180,2|2,1:3|1:2,0:0:0:0:
108,88,39653,6,0,P|160:72|188:88,1,90,10|2,0:0|0:0,0:0:0:0:
296,196,40099,2,0,P|244:212|216:196,1,90,2|2,0:0|1:2,0:0:0:0:
324,88,40545,2,0,P|376:72|404:88,1,90,10|2,0:0|0:0,0:0:0:0:
484,168,40991,6,0,P|436:232|448:328,1,180,2|8,1:3|0:0,0:0:0:0:
336,348,41659,2,0,P|256:312|176:348,1,180,2|0,1:3|1:0,0:0:0:0:
176,348,42328,1,8,0:0:0:0:
64,328,42551,2,0,P|76:232|28:168,1,180,2|2,1:2|1:2,0:0:0:0:
68,64,43220,6,0,P|104:31|144:24,1,90,10|2,0:0|0:0,0:0:0:0:
256,24,43665,1,2,0:0:0:0:
444,64,43888,2,0,P|408:31|368:24,1,90,2|10,1:2|0:0,0:0:0:0:
256,24,44334,1,2,0:0:0:0:
168,96,44557,6,0,L|168:288,1,180,2|8,1:3|0:0,0:0:0:0:
256,348,45226,2,0,L|256:168,1,180,2|0,1:3|1:0,0:0:0:0:
256,168,45894,1,8,0:0:0:0:
344,96,46117,2,0,L|344:284,1,180,2|0,0:3|1:0,0:0:0:0:
256,348,46786,6,0,L|256:248,1,90,8|0,0:0|0:0,0:0:0:0:
140,144,47231,2,0,L|216:192,1,90,0|0,0:0|1:0,0:0:0:0:
372,144,47677,2,0,L|296:192,1,90,8|0,0:0|0:0,0:0:0:0:
128,264,48123,6,0,P|52:232|20:144,2,180,4|8|0,1:2|0:0|0:0,0:0:0:0:
216,192,49237,2,0,P|244:176|296:192,1,90,0|8,1:0|0:0,0:0:0:0:
384,264,49683,2,0,P|460:232|492:144,1,180,0|4,0:0|0:0,0:0:0:0:
380,68,50352,5,8,0:0:0:0:
256,12,50575,1,0,0:0:0:0:
132,68,50798,2,0,P|140:116|168:144,1,90,4|0,0:0|1:0,0:0:0:0:
344,144,51243,2,0,P|372:116|380:68,1,90,12|8,0:0|0:0,0:0:0:0:
380,68,51578,1,8,0:0:0:0:
380,68,51689,6,0,P|476:68|528:148,2,198.000006042481,4|8|0,1:2|0:0|0:0,0:0:0:0:
288,108,52804,1,0,1:0:0:0:
428,160,53026,2,0,L|336:200,1,99.0000030212403,8|0,0:0|0:0,0:0:0:0:
244,240,53472,2,0,P|148:240|96:160,2,198.000006042481,0|8|0,1:0|0:0|0:0,0:0:0:0:
336,200,54587,1,0,1:0:0:0:
196,148,54809,2,0,L|288:108,1,99.0000030212403,8|0,0:0|0:0,0:0:0:0:
336,200,55255,6,0,B|408:168|408:168|432:128|432:128|500:100,2,198.000006042481,0|8|0,1:0|0:0|0:0,0:0:0:0:
244,240,56370,1,0,1:0:0:0:
376,292,56593,2,0,L|284:332,1,99.0000030212403,8|0,0:0|0:0,0:0:0:0:
192,368,57038,2,0,B|160:296|160:296|120:272|120:272|92:204,2,198.000006042481,0|8|0,1:0|0:0|0:0,0:0:0:0:
284,332,58153,2,0,L|244:240,1,99.0000030212403,0|8,1:0|0:0,0:0:0:0:
304,164,58598,6,0,P|244:240|152:228,1,198.000006042481
56,208,59267,2,0,P|116:132|208:144,1,198.000006042481,8|0,0:0|0:0,0:0:0:0:
304,164,59936,2,0,P|349:140|370:98,1,99.0000030212403,0|8,1:0|0:0,0:0:0:0:
276,72,60382,1,0,0:0:0:0:
208,144,60604,2,0,P|232:232|328:260,1,198.000006042481,0|8,1:0|0:0,0:0:0:0:
423,280,61273,2,0,P|399:192|303:164,1,198.000006042481,0|0,0:0|1:0,0:0:0:0:
236,236,61942,1,8,0:0:0:0:
168,308,62165,5,0,0:0:0:0:
168,308,62387,2,0,P|52:308|0:252,1,198.000006042481,0|8,1:0|0:0,0:0:0:0:
84,192,63056,2,0,B|168:144|168:144|140:96|168:48,1,198.000006042481,0|0,0:0|1:0,0:0:0:0:
256,96,63725,1,8,0:0:0:0:
428,192,63948,2,0,B|344:144|344:144|372:96|344:48,1,198.000006042481
168,48,64616,1,8,0:0:0:0:
188,224,64839,1,0,0:0:0:0:
344,308,65062,2,0,P|460:308|512:252,1,198.000006042481,0|8,0:0|0:0,0:0:0:0:
400,192,65731,5,8,0:0:0:0:
400,192,65842,1,8,0:0:0:0:
400,192,65954,2,0,B|380:124|380:124|332:88|332:88|312:20,2,198.000006042481,4|8|0,1:2|0:0|0:0,0:0:0:0:
428,288,67068,1,0,1:0:0:0:
496,164,67291,2,0,L|400:192,1,99.0000030212403,8|0,0:0|0:0,0:0:0:0:
304,220,67737,2,0,B|236:240|236:240|200:288|200:288|132:308,2,198.000006042481,0|8|0,1:0|0:0|0:0,0:0:0:0:
400,192,68851,1,0,1:0:0:0:
332,316,69074,2,0,L|304:220,1,99.0000030212403,8|0,0:0|0:0,0:0:0:0:
276,124,69520,6,0,P|216:56|116:72,2,198.000006042481,0|8|0,1:0|0:0|0:0,0:0:0:0:
304,220,70634,1,0,1:0:0:0:
180,152,70857,2,0,L|208:248,1,99.0000030212403,8|0,0:0|0:0,0:0:0:0:
236,344,71303,2,0,P|148:328|112:224,2,198.000006042481,0|8|0,1:0|0:0|0:0,0:0:0:0:
208,248,72417,2,0,L|304:220,1,99.0000030212403,0|8,1:0|0:0,0:0:0:0:
400,192,72863,6,0,B|496:164|496:164|528:72,1,198.000006042481
456,4,73532,2,0,B|360:32|360:32|328:124,1,198.000006042481,8|2,0:0|0:0,0:0:0:0:
304,220,74200,1,0,1:0:0:0:
208,192,74423,2,0,L|112:168,1,99.0000030212403,10|0,0:0|0:0,0:0:0:0:
16,144,74869,2,0,P|44:240|132:264,2,198.000006042481,2|8|0,1:2|0:0|0:0,0:0:0:0:
40,48,75983,1,0,1:0:0:0:
136,72,76206,2,0,L|232:96,1,99.0000030212403,8|0,0:0|0:0,0:0:0:0:
352,216,76652,5,4,1:2:0:0:
352,216,76875,2,0,L|256:192,1,99.0000030212403,0|8,0:0|0:0,0:0:0:0:
40,48,77321,2,0,L|232:96,1,198.000006042481,4|0,1:2|1:0,0:0:0:0:
256,192,77989,1,8,0:0:0:0:
472,336,78212,2,0,L|280:288,1,198.000006042481,4|0,1:2|1:0,0:0:0:0:
184,264,78881,2,0,P|160:164|220:100,1,198.000006042481,8|0,0:0|0:0,0:0:0:0:
256,192,79549,1,0,1:0:0:0:
256,192,79661,1,0,1:0:0:0:
256,192,79772,2,0,L|352:216,2,99.0000030212403,8|0|4,0:0|0:0|1:2,0:0:0:0:
256,192,80329,12,0,83116,0:0:0:0:
