osu file format v14

[General]
AudioFilename: Morikawa Miho - Blue Water.mp3
AudioLeadIn: 0
PreviewTime: 51578
Countdown: 0
SampleSet: Soft
StackLeniency: 0.4
Mode: 0
LetterboxInBreaks: 0
WidescreenStoryboard: 0

[Editor]
Bookmarks: 1764,16028,23160,37425,51689,65954,80218
DistanceSpacing: 1.5
BeatDivisor: 4
GridSize: 4
TimelineZoom: 1

[Metadata]
Title:Blue Water (TV Size)
TitleUnicode:ブルーウォーター (TVサイズ)
Artist:Miho Morikawa
ArtistUnicode:森川美穂
Creator:Sure
Version:Easy
Source:ふしぎの海のナディア
Tags:Fushigi no Umi Nadia The Secret of ykcarrot
BeatmapID:735431
BeatmapSetID:332133

[Difficulty]
HPDrainRate:2
CircleSize:3
OverallDifficulty:2
ApproachRate:3
SliderMultiplier:1
SliderTickRate:1

[Events]
//Background and Video events
Video,-220,"Nadia OP.avi"
0,0,"Nadia BG.jpg",0,0
//Break Periods
//Storyboard Layer 0 (Background)
//Storyboard Layer 1 (Fail)
//Storyboard Layer 2 (Pass)
//Storyboard Layer 3 (Foreground)
//Storyboard Sound Samples

[TimingPoints]
1764,445.764444444445,4,2,1,40,1,0
1875,-100,4,2,1,5,0,0
2989,-100,4,2,1,40,0,0
5441,-100,4,2,1,5,0,0
6555,-100,4,2,1,40,0,0
9007,-100,4,2,1,5,0,0
10122,-100,4,2,1,20,0,0
10679,-100,4,2,1,30,0,0
10790,-100,4,2,1,5,0,0
11905,-100,4,2,1,20,0,0
12462,-100,4,2,1,50,0,0
12796,-100,4,2,1,5,0,0
13019,-100,4,2,1,50,0,0
14022,-100,4,2,1,60,0,0
15025,-100,4,2,1,5,0,0
15248,-100,4,2,1,60,0,0
37759,-100,4,2,2,60,0,0
37982,-100,4,2,1,60,0,0
41325,-100,4,2,2,60,0,0
41548,-100,4,2,1,60,0,0
44891,-100,4,2,2,60,0,0
45114,-100,4,2,1,60,0,0
48457,-100,4,2,2,60,0,0
48680,-100,4,2,1,60,0,0
51689,-100,4,2,1,60,0,1
52023,-100,4,2,2,60,0,1
52246,-100,4,2,1,60,0,1
55590,-100,4,2,2,60,0,1
55812,-100,4,2,1,60,0,1
59156,-100,4,2,2,60,0,1
59379,-100,4,2,1,60,0,1
60939,-100,4,2,2,60,0,1
61162,-100,4,2,1,60,0,1
62722,-100,4,2,2,60,0,1
62945,-100,4,2,1,60,0,1
64505,-100,4,2,2,60,0,1
64728,-100,4,2,1,60,0,1
66288,-100,4,2,2,60,0,1
66511,-100,4,2,1,60,0,1
69854,-100,4,2,2,60,0,1
70077,-100,4,2,1,60,0,1
73420,-100,4,2,2,60,0,1
73643,-100,4,2,1,60,0,1
75203,-100,4,2,2,60,0,1
75426,-100,4,2,1,60,0,1
76986,-100,4,2,2,60,0,1
77209,-100,4,2,1,60,0,1
80218,-100,4,2,1,50,0,0
81332,-100,4,2,1,45,0,0
81555,-100,4,2,1,40,0,0
81778,-100,4,2,1,35,0,0
82001,-100,4,2,1,30,0,0
82224,-100,4,2,1,25,0,0
82447,-100,4,2,1,20,0,0
82670,-100,4,2,1,15,0,0
82893,-100,4,2,1,10,0,0
83116,-100,4,2,1,5,0,0

[Colours]
Combo1 : 0,128,138
Combo2 : 128,185,255
Combo3 : 0,187,202
Combo4 : 21,138,255

[HitObjects]
120,100,1764,6,0,P|224:48|392:100,1,300
476,144,3547,2,0,P|488:96|472:48,2,100
476,240,4884,1,0,0:0:0:0:
392,284,5330,6,0,P|288:336|120:284,1,300
36,240,7113,2,0,P|24:288|40:336,2,100
36,144,8450,1,0,0:0:0:0:
120,100,8896,6,0,B|200:28|304:52|304:52|272:148,1,300
240,236,10679,2,0,B|208:332|208:332|312:356|392:284,1,300
476,240,12462,6,0,P|420:192|348:200,1,150
256,228,13576,1,0,0:0:0:0:
164,256,14022,2,0,P|112:264|68:244,1,100,4|0,0:0|0:0,0:0:0:0:
28,220,14691,2,0,L|116:40,1,200,0|8,0:0|0:0,0:0:0:0:
216,56,16028,6,0,L|172:148,1,100,4|8,1:2|0:0,0:0:0:0:
272,164,16919,2,0,L|316:72,1,100,0|8,0:0|0:0,0:0:0:0:
416,88,17811,2,0,L|372:180,1,100,0|8,1:0|0:0,0:0:0:0:
328,268,18703,1,2,0:0:0:0:
428,284,19148,1,10,0:0:0:0:
476,196,19594,6,0,L|520:104,1,100,0|8,1:0|0:0,0:0:0:0:
416,88,20486,2,0,L|372:180,1,100,0|8,0:0|0:0,0:0:0:0:
272,164,21377,2,0,L|316:72,1,100,0|8,1:0|0:0,0:0:0:0:
216,56,22269,1,4,0:0:0:0:
116,40,22714,1,12,0:0:0:0:
28,88,23160,6,0,P|12:136|28:180,2,100,4|8|0,1:2|0:0|0:0,0:0:0:0:
116,136,24497,1,8,0:0:0:0:
204,184,24943,2,0,L|292:232,1,100,0|8,1:0|0:0,0:0:0:0:
348,316,25835,2,0,P|384:280|392:232,1,100,0|8,0:0|0:0,0:0:0:0:
392,132,26726,6,0,L|392:24,2,100,0|8|0,1:0|0:0|0:0,0:0:0:0:
308,184,28064,1,8,0:0:0:0:
216,220,28509,2,0,P|168:236|124:220,1,100,0|8,1:0|0:0,0:0:0:0:
32,184,29401,2,0,L|32:80,1,100,0|10,0:0|0:0,0:0:0:0:
124,48,30292,6,0,P|172:32|216:48,2,100,0|8|0,1:0|0:0|0:0,0:0:0:0:
124,148,31630,1,8,0:0:0:0:
124,248,32075,2,0,B|160:284|160:284|208:300,1,100,0|8,1:0|0:0,0:0:0:0:
306,299,32967,2,0,B|352:284|352:284|388:248,1,100,0|8,0:0|0:0,0:0:0:0:
356,152,33859,6,0,P|408:148|452:172,2,100,0|8|0,1:0|0:0|0:0,0:0:0:0:
256,168,35196,1,8,0:0:0:0:
156,152,35642,2,0,P|104:148|60:172,2,100,0|8|0,1:0|0:0|0:0,0:0:0:0:
256,168,36979,1,10,0:0:0:0:
256,68,37425,6,0,P|324:92|356:160,2,150,2|2|8,1:3|1:3|0:0,0:0:0:0:
208,68,38985,2,0,P|184:136|116:168,1,150,2|10,1:3|0:0,0:0:0:0:
16,168,40099,2,0,P|28:220|64:252,1,100,2|10,0:0|0:0,0:0:0:0:
160,260,40991,6,0,P|120:332|56:352,2,150,2|2|8,1:3|1:3|0:0,0:0:0:0:
172,212,42551,2,0,P|212:140|276:120,1,150,2|10,1:2|0:0,0:0:0:0:
336,196,43665,2,0,P|368:160|372:108,1,100,2|10,0:0|0:0,0:0:0:0:
312,28,44557,6,0,P|392:12|452:48,2,150,2|2|8,1:3|1:3|0:0,0:0:0:0:
272,56,46117,2,0,P|192:72|132:36,1,150,2|8,1:3|0:0,0:0:0:0:
40,12,47231,2,0,P|36:56|60:104,1,100,0|8,0:0|0:0,0:0:0:0:
110,192,48123,6,0,L|206:368,1,200,4|0,1:2|0:0,0:0:0:0:
306,368,49460,1,8,0:0:0:0:
354,280,49906,2,0,L|306:192,1,100,0|8,1:0|0:0,0:0:0:0:
206,192,50798,1,4,0:0:0:0:
158,280,51243,1,12,0:0:0:0:
206,367,51689,6,0,P|306:367|428:225,1,300,4|8,1:2|0:0,0:0:0:0:
512,165,53472,1,0,1:0:0:0:
480,69,53918,1,8,0:0:0:0:
380,69,54364,1,0,0:0:0:0:
348,165,54809,1,8,0:0:0:0:
429,224,55255,6,0,P|392:308|304:368,1,200,0|0,1:0|0:0,0:0:0:0:
208,368,56593,2,0,P|160:380|108:368,2,100,8|0|8,0:0|1:0|0:0,0:0:0:0:
304,368,57930,2,0,P|352:380|404:368,1,100,0|8,0:0|0:0,0:0:0:0:
356,280,58821,6,0,B|348:232|300:200|300:200|352:172|364:112|352:64|304:36,1,300,0|8,1:0|0:0,0:0:0:0:
208,36,60604,2,0,B|160:64|148:112|160:172|212:200|212:200|164:232|156:280,1,300,0|8,1:0|0:0,0:0:0:0:
256,292,62387,6,0,P|324:320|392:292,2,150,0|0|8,1:0|0:0|0:0,0:0:0:0:
324,220,64171,2,0,P|352:152|324:84,2,150,0|0|8,1:0|0:0|0:0,0:0:0:0:
252,152,65954,6,0,P|123:99|36:209,1,300,4|8,1:2|0:0,0:0:0:0:
38,308,67737,1,0,1:0:0:0:
134,336,68182,1,8,0:0:0:0:
231,311,68628,1,0,0:0:0:0:
301,238,69074,1,8,0:0:0:0:
300,136,69520,6,0,P|404:88|460:136,1,200,0|0,1:0|0:0,0:0:0:0:
460,236,70857,2,0,P|485:282|524:308,2,100,8|0|8,0:0|1:0|0:0,0:0:0:0:
460,136,72194,2,0,P|435:90|396:64,1,100,0|8,0:0|0:0,0:0:0:0:
296,64,73086,6,0,B|196:64|196:64|124:132,1,200,0|2,1:0|0:0,0:0:0:0:
56,208,74423,1,10,0:0:0:0:
156,208,74869,2,0,B|256:208|256:208|328:140,1,200,2|0,1:2|0:0,0:0:0:0:
396,64,76206,1,8,0:0:0:0:
464,136,76652,6,0,P|448:208|396:260,1,150,4|4,1:2|1:2,0:0:0:0:
308,308,77766,1,0,1:0:0:0:
216,272,78212,2,0,P|168:256|120:264,1,100,4|0,1:2|1:0,0:0:0:0:
72,280,78881,2,0,L|116:84,1,200,8|8,0:0|0:0,0:0:0:0:
256,192,80218,12,0,83116,0:0:0:0:
