osu file format v14

[General]
AudioFilename: audio.mp3
AudioLeadIn: 0
PreviewTime: 40658
Countdown: 0
SampleSet: Normal
StackLeniency: 0.7
Mode: 0
LetterboxInBreaks: 0
WidescreenStoryboard: 1

[Editor]
Bookmarks: 77072
DistanceSpacing: 0.6
BeatDivisor: 8
GridSize: 32
TimelineZoom: 2.7

[Metadata]
Title:Kodokushi
TitleUnicode:孤独死
Artist:Mihka! X The End
ArtistUnicode:Mihka! X The End
Creator:fusionnqn
Version:you and me
Source:csgordie compilation 1
Tags:future, bass
BeatmapID:1813865
BeatmapSetID:865149

[Difficulty]
HPDrainRate:6
CircleSize:3.5
OverallDifficulty:8
ApproachRate:9
SliderMultiplier:2.1
SliderTickRate:1

[Events]
//Background and Video events
0,0,"fondosu.png",0,0
//Break Periods
//Storyboard Layer 0 (Background)
//Storyboard Layer 1 (Fail)
//Storyboard Layer 2 (Pass)
//Storyboard Layer 3 (Foreground)
//Storyboard Layer 4 (Overlay)
//Storyboard Sound Samples

[TimingPoints]
2590,413.793103448276,4,1,0,60,1,0
39417,-90.9090909090909,4,1,0,60,0,0
39831,-83.3333333333333,4,1,0,60,0,0
40245,-76.9230769230769,4,1,0,60,0,0
40658,-71.4285714285714,4,1,0,60,0,0
41900,-200,4,1,0,60,0,0
42314,-100,4,1,0,60,0,0
44383,-50,4,1,0,60,0,0
46452,-100,4,1,0,60,0,0
46865,-50,4,1,0,60,0,0
48107,-133.333333333333,4,1,0,60,0,0
48934,-100,4,1,0,60,0,0
56796,-80,4,1,0,60,0,0
57210,-100,4,1,0,60,0,0
57624,-80,4,1,0,60,0,0
57934,-100,4,1,0,60,0,0
58245,-66.6666666666667,4,1,0,60,0,0
58865,-80,4,1,0,60,0,0
61762,-133.333333333333,4,1,0,60,0,0
62176,-100,4,1,0,60,0,0
67141,-133.333333333333,4,1,0,60,0,0
67969,-71.4285714285714,4,1,0,60,0,0
70038,-100,4,1,0,60,0,0
70452,-100,4,1,0,60,0,0
74590,-100,4,1,0,5,0,0
75417,-100,4,1,0,60,0,0
82038,-80,4,1,0,60,0,0
87417,-66.6666666666667,4,1,0,60,0,0
87831,-80,4,1,0,60,0,0
88658,-66.6666666666667,4,1,0,60,0,0
91969,-80,4,1,0,60,0,0
93624,-71.4285714285714,4,1,0,60,0,0

[Colours]
Combo1 : 238,30,35
Combo2 : 189,97,228
Combo3 : 55,55,255
Combo4 : 134,234,234

[HitObjects]
374,100,2590,5,0,0:0:0:0:
381,109,3831,21,0,0:0:0:0:
272,187,4039,2,0,P|295:201|333:213,1,52.5
437,222,4245,1,0,0:0:0:0:
437,222,5072,6,0,L|400:279,1,52.5
381,109,5383,1,0,0:0:0:0:
381,109,5486,1,0,0:0:0:0:
272,187,5693,1,0,0:0:0:0:
375,104,5900,2,0,P|435:98|498:111,1,105
271,31,6314,1,0,0:0:0:0:
268,30,7038,6,0,L|268:108,1,52.5
242,220,7348,1,0,0:0:0:0:
299,218,7452,1,0,0:0:0:0:
349,207,7555,6,0,P|404:161|457:150,1,105
188,202,7968,2,0,P|169:172|83:136,1,105
346,265,8383,6,0,P|386:308|440:336,1,105
187,268,8796,2,0,P|147:312|83:339,1,105
268,30,9210,21,0,0:0:0:0:
268,30,10452,21,0,0:0:0:0:
358,214,10660,2,0,L|390:273,1,52.5
312,125,10866,1,0,0:0:0:0:
312,125,11693,5,0,0:0:0:0:
383,260,12003,1,0,0:0:0:0:
383,260,12107,1,0,0:0:0:0:
256,29,12314,1,0,0:0:0:0:
266,214,12521,2,0,P|221:247|163:256,1,105
141,258,13348,21,0,0:0:0:0:
392,114,13658,1,0,0:0:0:0:
141,258,13969,1,0,0:0:0:0:
141,258,14072,1,0,0:0:0:0:
141,258,14176,6,0,P|177:299|234:318,1,105
392,114,14590,2,0,P|358:74|309:55,1,105
335,322,15003,6,0,P|380:281|402:217,1,105
184,62,15417,2,0,P|143:95|122:143,1,105
159,329,15830,21,0,0:0:0:0:
159,329,17072,5,0,0:0:0:0:
346,232,17279,1,0,0:0:0:0:
128,57,17486,1,0,0:0:0:0:
316,336,18727,21,0,0:0:0:0:
168,245,18934,1,0,0:0:0:0:
357,63,19141,1,0,0:0:0:0:
471,312,19555,5,0,0:0:0:0:
353,46,20796,1,0,0:0:0:0:
104,162,21624,1,0,0:0:0:0:
253,340,22452,1,0,0:0:0:0:
220,116,23072,22,0,L|198:7,2,105
253,340,23693,1,0,0:0:0:0:
91,260,23900,1,0,0:0:0:0:
385,157,24107,1,0,0:0:0:0:
166,307,25348,21,0,0:0:0:0:
297,343,25555,1,0,0:0:0:0:
232,54,25762,1,0,0:0:0:0:
420,56,26590,21,0,0:0:0:0:
80,272,27417,1,0,0:0:0:0:
426,338,28245,1,0,0:0:0:0:
332,155,29072,22,0,P|291:186|238:196,1,105
84,125,29486,1,0,0:0:0:0:
133,290,29693,2,0,P|169:327|215:352,1,105
436,332,30107,2,0,P|393:301|343:288,1,105
239,196,30521,1,0,0:0:0:0:
71,249,30727,22,0,P|66:301|28:370,1,105
239,196,31141,2,0,P|262:245|267:310,1,105
433,52,31555,2,0,P|451:81|481:174,1,105
304,57,31969,1,0,0:0:0:0:
239,196,32176,1,0,0:0:0:0:
179,214,32279,1,0,0:0:0:0:
122,211,32383,2,0,P|59:191|23:153,1,105
216,296,32796,22,0,P|233:254|229:153,1,105
121,87,33210,2,0,L|63:52,2,52.5
257,24,33624,1,0,0:0:0:0:
130,184,33831,1,0,0:0:0:0:
337,102,34038,2,0,P|387:97|453:66,1,105
470,64,34348,1,0,0:0:0:0:
497,106,34452,2,0,P|492:156|461:222,1,105
324,329,34865,22,0,P|292:310|263:273,1,52.5
193,139,35072,1,0,0:0:0:0:
62,326,35279,22,0,P|80:316|110:292,1,52.5
193,139,35486,1,0,0:0:0:0:
324,329,35693,1,0,0:0:0:0:
284,185,35900,1,0,0:0:0:0:
175,333,36107,1,0,0:0:0:0:
193,139,36314,1,0,0:0:0:0:
60,135,36521,6,0,P|33:88|27:28,1,105
127,58,36831,1,0,0:0:0:0:
127,58,36934,1,0,0:0:0:0:
248,52,37141,2,0,P|285:44|310:30,1,52.5
406,0,37348,1,0,0:0:0:0:
465,223,37555,1,0,0:0:0:0:
248,52,37762,1,0,0:0:0:0:
295,215,37969,1,0,0:0:0:0:
468,75,38176,5,0,0:0:0:0:
364,283,38383,1,0,0:0:0:0:
331,303,38486,1,0,0:0:0:0:
297,307,38590,1,0,0:0:0:0:
248,52,38796,1,0,0:0:0:0:
194,252,39003,21,0,0:0:0:0:
182,266,39106,1,0,0:0:0:0:
172,278,39210,2,0,P|144:305|109:322,1,52.5
324,129,39417,21,0,0:0:0:0:
324,129,39521,1,0,0:0:0:0:
324,129,39624,2,0,P|356:102|396:83,1,57.7500017623902
192,133,39831,21,0,0:0:0:0:
180,119,39934,1,0,0:0:0:0:
170,107,40038,2,0,P|139:77|107:63,1,62.9999980773926
313,251,40245,21,0,0:0:0:0:
313,251,40348,1,0,0:0:0:0:
313,251,40452,2,0,P|334:273|381:291,1,68.2499968757631
192,133,40658,38,0,P|142:139|46:190,2,146.999995513916
312,248,41279,22,0,P|396:231|464:176,2,146.999995513916
239,196,41900,6,0,P|258:195|232:188,1,78.75
424,47,42314,5,4,0:0:0:0:
424,47,42417,2,0,B|374:69|348:137|348:137|286:46|134:50|128:196|158:246,1,420
421,247,43348,1,0,0:0:0:0:
457,279,43452,1,0,0:0:0:0:
479,316,43555,2,4,B|391:383|278:348|278:348|286:314|332:246,1,315
415,102,44383,21,0,0:0:0:0:
325,257,44487,2,0,P|232:271|141:192,1,210
247,153,44796,1,0,0:0:0:0:
313,78,45003,2,0,P|345:42|443:82,1,140
176,78,45314,2,0,P|146:44|47:87,1,140
247,153,45624,22,0,B|46:235|-25:131|10:34|103:-34|284:8|124:260,1,630
44,348,46452,2,0,L|0:390,3,52.5
126,255,46865,22,0,B|284:8|103:-34|10:34|-25:131|46:235|247:153,1,630
463,273,47693,1,0,0:0:0:0:
463,273,47796,2,0,B|428:307|375:328|375:328|327:308|285:274,1,210
385,27,48107,22,8,B|376:13|376:13|321:81|420:108|366:237,1,236.250009012223
245,78,48934,6,0,P|206:52|129:47,1,105,4|0,0:0|0:0,0:0:0:0:
86,62,49245,1,0,0:0:0:0:
15,133,49348,2,0,L|19:186,1,52.5,4|0,0:0|0:0,0:0:0:0:
108,249,49555,2,0,L|105:302,1,52.5
215,343,49762,2,0,P|229:268|205:203,1,105,4|0,0:0|0:0,0:0:0:0:
170,157,50072,1,4,0:0:0:0:
245,78,50175,2,0,P|220:62|189:50,1,52.5
329,19,50383,21,4,0:0:0:0:
408,157,50590,21,4,0:0:0:0:
451,313,50796,2,0,L|478:382,1,52.5
492,231,51003,21,4,0:0:0:0:
439,232,51107,1,0,0:0:0:0:
392,246,51210,2,0,P|364:255|330:273,1,52.5
174,350,51418,2,0,B|223:361|223:361|273:337,1,105,4|0,0:0|0:0,0:0:0:0:
201,148,51727,21,4,0:0:0:0:
201,148,51831,2,0,L|184:78,1,52.5
209,255,52038,21,4,0:0:0:0:
108,273,52245,6,0,P|163:272|225:247,1,105,4|0,0:0|0:0,0:0:0:0:
358,120,52555,1,0,0:0:0:0:
358,120,52658,2,0,P|322:136|281:145,1,52.5,4|0,0:0|0:0,0:0:0:0:
341,303,52865,2,0,P|321:256|303:225,1,52.5
189,145,53073,2,0,P|138:135|86:138,1,105,4|0,0:0|0:0,0:0:0:0:
263,51,53383,1,4,0:0:0:0:
263,51,53486,2,0,L|253:-10,1,52.5
358,120,53693,21,4,0:0:0:0:
249,336,53900,21,4,0:0:0:0:
103,156,54107,2,0,L|120:79,1,52.5
36,248,54314,21,4,0:0:0:0:
79,258,54418,1,0,0:0:0:0:
122,256,54521,2,0,P|152:251|185:241,1,52.5
194,17,54727,21,0,0:0:0:0:
220,221,54934,5,0,0:0:0:0:
265,193,55038,1,0,0:0:0:0:
297,151,55141,1,0,0:0:0:0:
317,102,55245,1,4,0:0:0:0:
319,52,55348,1,4,0:0:0:0:
358,339,55555,22,0,P|442:326|545:352,1,157.5
380,214,55969,2,0,P|284:171|197:184,1,157.5
163,372,56383,2,0,P|218:345|275:237,1,157.5
407,348,56796,6,0,B|434:380|434:380|284:341,1,196.875
380,214,57210,2,0,P|417:148|509:104,1,157.5
460,302,57624,6,0,B|492:329|492:329|453:179,1,196.875
382,48,58038,22,0,P|351:74|325:108,1,52.5
223,205,58245,1,0,0:0:0:0:
210,198,58313,2,0,B|137:165|27:177,1,157.500006008148,2|0,0:0|0:0,0:0:0:0:
167,106,58590,2,0,P|199:92|283:-25,1,157.500006008148,2|0,0:0|0:0,0:0:0:0:
284,133,58865,22,0,B|339:169|385:223|385:223|362:166,1,196.875
441,94,59279,2,0,B|386:58|340:4|340:4|362:60,1,196.875
362,166,59693,1,8,0:0:0:0:
472,214,59900,1,0,0:0:0:0:
413,307,60107,6,0,P|317:333|223:302,1,196.875
157,375,60521,2,0,P|113:308|111:181,1,196.875
16,120,60935,2,0,P|83:76|210:74,1,196.875
280,0,61348,2,0,P|324:67|326:194,1,196.875
221,160,61762,6,0,L|222:234,2,52.5000020027161
96,37,62176,21,4,0:0:0:0:
96,37,62590,21,0,0:0:0:0:
188,104,62796,1,0,0:0:0:0:
100,324,63003,1,8,0:0:0:0:
183,260,63210,21,0,0:0:0:0:
270,25,63417,1,4,0:0:0:0:
275,327,63624,1,0,0:0:0:0:
370,266,63831,2,0,P|433:259|503:279,1,105
279,107,64245,21,4,0:0:0:0:
351,49,64452,1,0,0:0:0:0:
172,106,64658,21,8,0:0:0:0:
176,137,64762,1,0,0:0:0:0:
192,163,64865,1,4,0:0:0:0:
214,185,64969,1,0,0:0:0:0:
241,206,65072,2,0,P|273:210|304:207,1,52.5
369,124,65279,2,0,L|369:71,1,52.5
184,21,65486,22,0,P|121:35|73:100,1,105,4|0,0:0|0:0,0:0:0:0:
87,219,65900,2,0,L|88:165,1,52.5
91,61,66107,1,0,0:0:0:0:
213,317,66313,21,8,0:0:0:0:
328,73,66624,21,0,0:0:0:0:
328,73,66727,1,4,0:0:0:0:
370,296,66934,1,0,0:0:0:0:
387,286,67038,1,0,0:0:0:0:
397,278,67141,2,0,P|422:226|419:186,1,78.7500030040742
187,150,67555,2,0,P|168:186|161:229,1,78.7500030040742
19,232,67969,22,0,B|89:223|103:268|103:268|70:351|164:393|219:385|281:291|210:210|161:222|161:222|164:176|196:135,1,514.499984298707
86,148,68796,22,0,L|40:104,4,36.749998878479
192,159,69107,1,0,0:0:0:0:
192,159,69210,2,0,P|203:127|208:76,1,73.4999977569581
262,214,69418,2,0,P|302:193|361:99,1,146.999995513916,0|8,0:0|0:0,0:0:0:0:
169,246,69831,1,0,0:0:0:0:
212,85,70038,6,0,P|290:75|366:118,1,157.5,4|0,0:0|0:0,0:0:0:0:
497,248,70452,6,0,L|460:367,1,105
406,209,70865,1,4,0:0:0:0:
512,65,71072,2,0,L|479:172,1,105,0|8,0:0|0:0,0:0:0:0:
402,113,71486,1,4,0:0:0:0:
406,209,71693,22,0,P|364:201|277:212,1,105
209,315,72107,5,4,0:0:0:0:
302,204,72314,1,0,0:0:0:0:
209,315,72521,2,0,P|172:293|153:247,1,85
106,83,72934,1,8,0:0:0:0:
63,192,73141,2,0,L|32:221,1,42.5
104,125,73348,2,4,L|106:83,1,42.5
150,193,73555,2,0,L|182:222,1,42.5
292,365,73762,6,0,P|346:337|380:250,1,141.666666666667
383,243,74176,1,4,0:0:0:0:
427,122,74383,2,0,P|381:112|342:117,1,85
0,71,75417,6,0,L|42:71,2,42.5,4|0|0,0:0|0:0|0:0,0:0:0:0:
68,134,75831,22,0,P|111:153|150:153,1,85
204,80,76141,1,0,0:0:0:0:
136,16,76245,2,0,P|94:24|68:37,1,42.5,8|0,0:0|0:0,0:0:0:0:
68,134,76452,22,0,P|111:150|151:142,1,85,4|0,0:0|0:0,0:0:0:0:
204,80,76762,1,0,0:0:0:0:
136,16,76866,2,0,P|94:24|68:37,1,42.5,4|4,0:0|0:0,0:0:0:0:
68,134,77072,22,0,P|114:152|151:142,1,85,4|0,0:0|0:0,0:0:0:0:
204,80,77383,1,0,0:0:0:0:
136,16,77487,2,0,P|94:24|68:37,1,42.5
68,134,77693,2,0,P|111:152|149:145,2,85,4|8|4,0:0|0:0|0:0,0:0:0:0:
196,273,78314,22,0,P|141:255|111:222,1,85
68,134,78727,1,4,0:0:0:0:
58,324,78934,1,0,0:0:0:0:
186,202,79141,22,0,P|205:159|197:117,1,85
132,66,79451,1,0,0:0:0:0:
68,134,79555,2,0,P|76:176|89:202,1,42.5,8|0,0:0|0:0,0:0:0:0:
186,202,79762,22,0,P|205:159|197:117,1,85,0|4,0:0|0:0,0:0:0:0:
132,66,80072,1,0,0:0:0:0:
68,134,80176,2,0,P|76:176|89:202,1,42.5,12|0,0:0|0:0,0:0:0:0:
186,202,80383,22,0,P|205:159|198:119,1,85
132,66,80693,1,0,0:0:0:0:
68,134,80797,2,0,P|76:176|89:202,1,42.5,12|4,0:0|0:0,0:0:0:0:
1,290,81003,2,0,P|23:269|58:251,1,42.5
121,254,81211,21,4,0:0:0:0:
157,275,81314,1,0,0:0:0:0:
199,277,81417,1,0,0:0:0:0:
238,262,81521,1,0,0:0:0:0:
272,240,81624,37,4,0:0:0:0:
283,281,81728,1,0,0:0:0:0:
298,321,81831,1,0,0:0:0:0:
317,359,81935,1,0,0:0:0:0:
420,353,82038,22,0,P|394:310|402:197,2,159.375,4|0|0,0:0|0:0|0:0,0:0:0:0:
480,112,82865,2,0,P|401:84|320:109,1,159.375,12|0,0:0|0:0,0:0:0:0:
299,141,83279,22,0,L|318:16,1,106.25
389,287,83693,2,0,P|402:236|395:184,1,106.25,0|8,0:0|0:0,0:0:0:0:
431,16,84107,2,0,P|378:10|327:20,1,106.25,4|0,0:0|0:0,0:0:0:0:
327,19,84521,21,12,0:0:0:0:
471,161,84727,1,4,0:0:0:0:
312,227,84934,2,0,L|325:335,1,106.25
431,16,85348,2,4,B|383:29|331:23|331:23|383:56|436:117,1,212.5,0|0,0:0|0:0,0:0:0:0:
481,240,85969,1,0,0:0:0:0:
424,330,86176,22,0,P|352:318|298:240,1,159.375,12|0,0:0|0:0,0:0:0:0:
397,231,86590,2,0,P|430:215|476:137,2,106.25,4|0|0,0:0|0:0|0:0,0:0:0:0:
365,95,87210,1,0,0:0:0:0:
437,282,87417,2,0,B|443:330|417:377|417:377|384:338|366:272,1,191.250007295609,4|0,0:0|0:0,0:0:0:0:
330,213,87831,22,0,L|296:271,3,53.125,12|0|12|0,0:0|0:0|0:0|0:0,0:0:0:0:
372,132,88245,2,0,L|364:79,1,53.125
447,191,88452,2,0,L|500:215,1,53.125
456,104,88658,22,0,P|410:1|371:-6,1,127.500004863739,4|0,0:0|0:0,0:0:0:0:
299,25,88969,2,0,P|274:57|291:165,1,127.500004863739
364,79,89279,1,0,0:0:0:0:
303,258,89486,21,12,0:0:0:0:
496,228,89693,2,0,P|507:159|492:90,1,127.500004863739
379,312,90107,1,4,2:0:0:0:
379,312,90210,1,4,2:0:0:0:
379,312,90314,2,0,P|326:211|378:143,1,191.250007295609,4|4,0:0|0:0,0:0:0:0:
387,135,90727,1,8,0:0:0:0:
493,248,90934,2,0,L|403:233,1,63.7500024318696
399,233,91141,21,0,0:0:0:0:
298,99,91348,2,0,P|352:36|398:21,1,127.500004863739
399,233,91762,1,0,0:0:0:0:
64,57,91969,6,0,P|61:99|101:163,1,106.25
120,176,92279,1,0,0:0:0:0:
153,180,92383,2,0,P|188:177|210:169,1,53.125
190,60,92590,2,0,L|146:114,1,53.125
41,239,92796,22,0,P|66:293|170:316,1,159.375
211,312,93211,1,0,0:0:0:0:
57,380,93417,1,0,0:0:0:0:
140,217,93625,22,2,B|157:184|162:161|162:161|117:156|77:172|77:172|105:114|96:85|96:85|148:46|224:68|218:151|228:175|259:188|293:182|315:165|335:136|320:97|281:44,1,594.999981842042,6|2,2:0|2:0,2:0:0:0:
377,166,94814,2,2,P|332:223|261:238,1,148.74999546051,2|2,2:0|2:0,2:0:0:0:
138,215,95278,1,4,2:0:0:0:
