osu file format v14

[General]
AudioFilename: audio.mp3
AudioLeadIn: 0
PreviewTime: 2256
Countdown: 1
SampleSet: Normal
StackLeniency: 0.7
Mode: 0
LetterboxInBreaks: 0
SkinPreference:Xazariorus-2
WidescreenStoryboard: 0

[Editor]
DistanceSpacing: 1
BeatDivisor: 4
GridSize: 4
TimelineZoom: 1

[Metadata]
Title:What is autumn? (cover)
TitleUnicode:What is autumn? (cover)
Artist:Mighty Heap feat. Hatsune Miku
ArtistUnicode:Mighty Heap feat. Hatsune Miku
Creator:Xazariorus
Version:Hard
Source:
Tags:ДДТ, Hatsune Miku, rus creator
BeatmapID:1093497
BeatmapSetID:514870

[Difficulty]
HPDrainRate:5
CircleSize:2
OverallDifficulty:5
ApproachRate:8
SliderMultiplier:1.99999990463257
SliderTickRate:4

[Events]
//Background and Video events
0,0,"Mighty Heap feat. Hatsune Miku - What is autumn (cover).jpeg",0,0
Video,0,"Mighty Heap feat. Hatsune Miku - What is autumn (cover).avi"
//Break Periods
2,110693,131912
//Storyboard Layer 0 (Background)
//Storyboard Layer 1 (Fail)
//Storyboard Layer 2 (Pass)
//Storyboard Layer 3 (Foreground)
//Storyboard Sound Samples

[TimingPoints]
2256,652.032166920235,4,1,0,50,1,0
15133,-50,4,1,0,50,0,0
15785,-100,4,1,0,50,0,0
38769,-66.6666666666667,4,1,0,70,0,1
58330,-100,4,1,0,50,0,0
90932,-66.6666666666667,4,1,0,70,0,1
110493,-100,4,1,0,50,0,0
163959,-66.6666666666667,4,1,0,70,0,1
183520,-100,4,1,0,50,0,0
184825,-66.6666666666667,4,1,0,70,0,1
190041,-133.333333333333,4,1,0,70,0,1
192649,-66.6666666666667,4,1,0,70,0,1
204385,-100,4,1,0,50,0,0

[Colours]
Combo1 : 252,196,3
Combo2 : 202,121,0
Combo3 : 250,114,22
Combo4 : 255,175,11

[HitObjects]
140,156,7472,5,0,0:0:0:0:
400,52,7798,2,0,L|440:104,1,50
496,108,8287,1,0,0:0:0:0:
464,140,8613,2,0,P|440:180|300:208,1,199.999990463257
72,128,9428,1,0,0:0:0:0:
400,52,9754,2,0,L|440:104,1,50
452,220,10243,2,0,L|432:184,2,24.9999988079071
72,128,12688,5,0,0:0:0:0:
400,52,13014,2,0,L|440:104,1,49.9999976158143
512,208,13340,2,0,L|420:204,1,49.9999976158143
312,216,13666,1,0,0:0:0:0:
444,288,13829,1,0,0:0:0:0:
312,356,13992,2,0,L|244:356,1,49.9999976158143
312,236,14318,2,0,P|248:256|204:256,1,99.9999952316285
40,352,14970,1,0,0:0:0:0:
48,328,15133,2,0,P|76:188|136:92,2,199.999990463257
72,256,17904,5,0,0:0:0:0:
400,332,18230,2,0,L|440:280,1,50
408,228,18556,2,0,L|348:240,1,49.9999976158143
236,268,18882,1,0,0:0:0:0:
228,268,19045,1,0,0:0:0:0:
468,240,19534,1,0,0:0:0:0:
464,116,19697,2,0,P|420:88|324:104,1,149.999992847443
80,252,20512,5,0,0:0:0:0:
256,72,20838,2,0,P|260:136|296:168,2,99.9999952316285
272,220,21653,1,0,0:0:0:0:
36,80,21979,2,0,P|88:128|104:228,1,149.999992847443
464,196,23121,5,0,0:0:0:0:
236,16,23447,2,0,L|216:80,3,49.9999976158143
172,200,24099,1,0,0:0:0:0:
344,36,24262,2,0,L|336:96,1,49.9999976158143
104,272,24751,6,0,L|136:228,1,49.9999976158143
44,360,25077,1,0,0:0:0:0:
292,192,25403,2,0,L|340:128,2,49.9999976158143
404,56,26055,1,0,0:0:0:0:
480,72,28337,5,0,0:0:0:0:
180,80,28663,1,0,0:0:0:0:
460,192,28989,1,0,0:0:0:0:
160,192,29315,1,0,0:0:0:0:
12,192,29478,2,0,P|124:152|136:152,1,99.9999952316285
252,192,29967,1,0,0:0:0:0:
368,288,30130,2,0,B|256:272|256:272|288:216|336:216,1,199.999990463257
184,280,30945,5,0,0:0:0:0:
372,44,31271,2,0,B|308:136|308:136|308:136,1,99.9999952316285
408,96,31923,1,0,0:0:0:0:
448,76,32086,1,0,0:0:0:0:
216,68,32575,2,0,P|148:92|96:192,1,149.999992847443
72,256,33553,5,0,0:0:0:0:
360,344,33879,2,0,L|404:288,2,49.9999976158143
472,236,34531,1,0,0:0:0:0:
420,96,34694,2,0,L|456:180,1,49.9999976158143
252,356,35183,2,0,L|304:300,1,49.9999976158143
288,168,35509,1,0,0:0:0:0:
8,64,35835,1,0,0:0:0:0:
156,96,35998,2,0,B|144:160|144:160|224:132,1,149.999992847443
88,260,38769,6,0,P|144:168|196:144,1,149.999998569489
384,244,39258,2,0,P|348:172|276:144,2,149.999998569489
176,332,40073,2,0,L|288:156,1,149.999998569489
436,72,40562,2,0,P|360:56|272:104,2,149.999998569489
484,292,41377,6,0,L|304:228,1,149.999998569489
132,160,41866,2,0,L|172:320,1,149.999998569489
132,160,42355,1,0,0:0:0:0:
200,120,42518,1,0,0:0:0:0:
412,52,42681,2,0,B|384:168|240:276|240:276|296:108,1,449.999995708466
16,336,43986,6,0,P|112:336|188:296,1,149.999998569489
128,248,44475,2,0,B|220:220|296:252|296:252|220:124,1,299.999997138977
28,44,45290,2,0,P|84:148|240:216,2,224.999997854233
296,368,46594,2,0,L|192:260,1,149.999998569489
168,36,47083,2,0,B|248:124|248:124|324:56,1,149.999998569489
488,72,47572,1,0,0:0:0:0:
488,344,47898,5,0,0:0:0:0:
439,286,48061,1,0,0:0:0:0:
382,248,48224,1,0,0:0:0:0:
319,220,48387,1,0,0:0:0:0:
264,168,48550,1,0,0:0:0:0:
210,116,48713,1,0,0:0:0:0:
156,64,48876,1,0,0:0:0:0:
256,28,49202,6,0,P|232:112|184:152,1,149.999998569489
24,160,49691,2,0,P|112:248|288:272,1,299.999997138977
216,148,50506,2,0,P|220:232|136:320,1,149.999998569489
304,96,50995,2,0,P|324:216|472:312,1,299.999997138977
72,256,51810,5,0,0:0:0:0:
488,40,52299,1,0,0:0:0:0:
408,352,52788,1,0,0:0:0:0:
88,36,53114,1,0,0:0:0:0:
52,108,53277,1,0,0:0:0:0:
40,184,53440,1,0,0:0:0:0:
80,272,53603,1,0,0:0:0:0:
176,296,53766,1,0,0:0:0:0:
256,244,53929,1,0,0:0:0:0:
300,160,54092,1,0,0:0:0:0:
464,56,54418,5,0,0:0:0:0:
0,344,54907,1,0,0:0:0:0:
128,40,55722,1,0,0:0:0:0:
128,40,56211,1,0,0:0:0:0:
128,40,56374,1,0,0:0:0:0:
256,364,56700,1,0,0:0:0:0:
508,72,57026,5,0,0:0:0:0:
455,125,57189,1,0,0:0:0:0:
402,178,57352,1,0,0:0:0:0:
350,232,57515,1,0,0:0:0:0:
297,285,57678,1,0,0:0:0:0:
224,292,57841,1,0,0:0:0:0:
176,236,58004,1,0,0:0:0:0:
152,168,58167,1,0,0:0:0:0:
128,104,58330,1,0,0:0:0:0:
432,192,59634,5,0,0:0:0:0:
148,96,59960,1,0,0:0:0:0:
288,152,60123,1,0,0:0:0:0:
152,212,60286,1,0,0:0:0:0:
292,268,60449,1,0,0:0:0:0:
4,352,60775,5,0,0:0:0:0:
288,252,61101,1,0,0:0:0:0:
72,128,61590,5,0,0:0:0:0:
400,52,61916,2,0,L|440:104,1,50
452,220,62405,2,0,L|432:184,2,24.9999988079071
464,304,64851,5,0,0:0:0:0:
184,196,65177,1,0,0:0:0:0:
184,196,65340,1,0,0:0:0:0:
68,96,65666,1,0,0:0:0:0:
68,96,65829,1,0,0:0:0:0:
100,244,65992,2,0,B|136:204|136:204|152:232|152:232|124:168|168:208|168:208|196:180|196:180|152:172,1,199.999990463257
284,104,66970,5,0,0:0:0:0:
284,104,67133,1,0,0:0:0:0:
284,104,67296,1,0,0:0:0:0:
432,72,67459,2,0,B|412:176|412:176|216:284,1,299.999985694885
80,288,70067,5,0,0:0:0:0:
120,68,70393,1,0,0:0:0:0:
216,352,70719,1,0,0:0:0:0:
240,52,71045,1,0,0:0:0:0:
384,96,71208,2,0,P|356:184|316:208,1,99.9999952316285
220,116,71697,2,0,P|184:192|196:236,1,99.9999952316285
256,304,72349,1,0,0:0:0:0:
256,4,72675,2,0,L|256:96,1,49.9999976158143
256,204,73001,5,0,0:0:0:0:
156,328,73327,1,0,0:0:0:0:
28,56,73653,2,0,L|72:120,2,49.9999976158143
212,296,74305,2,0,P|292:272|360:176,1,199.999990463257
92,316,75283,5,0,0:0:0:0:
296,96,75609,1,0,0:0:0:0:
12,196,75935,1,0,0:0:0:0:
312,212,76261,1,0,0:0:0:0:
212,100,76424,2,0,B|216:184|164:252|164:252|152:236,1,149.999992847443
60,56,77239,6,0,P|64:116|92:152,1,99.9999952316285
216,72,77728,2,0,P|196:152|144:180,1,99.9999952316285
80,256,78217,2,0,B|132:280|184:304|184:304|128:200,1,199.999990463257
68,72,80499,5,0,0:0:0:0:
368,44,80825,1,0,0:0:0:0:
108,192,81151,1,0,0:0:0:0:
404,140,81477,2,0,L|312:160,1,49.9999976158143
120,296,82129,5,0,0:0:0:0:
120,296,82292,2,0,P|240:296|228:296,1,99.9999952316285
220,296,82781,1,0,0:0:0:0:
384,44,83107,1,0,0:0:0:0:
320,336,83434,1,0,0:0:0:0:
268,40,83760,1,0,0:0:0:0:
184,344,84086,1,0,0:0:0:0:
176,196,84249,2,0,P|284:152|360:200,2,199.999990463257
64,296,85716,5,0,0:0:0:0:
344,192,86042,1,0,0:0:0:0:
52,116,86368,1,0,0:0:0:0:
300,284,86694,1,0,0:0:0:0:
168,212,86857,2,0,B|232:208|288:132|268:132,1,99.9999952316285
400,140,87346,2,0,P|396:196|384:224,1,49.9999976158143
356,332,87672,2,0,L|272:288,1,49.9999976158143
160,316,87998,2,0,P|156:244|92:200,1,149.999992847443
256,192,88650,12,0,89302,0:0:0:0:
424,124,90932,6,0,P|368:216|316:240,1,149.999998569489
128,140,91421,2,0,P|164:212|236:240,2,149.999998569489
336,52,92236,2,0,L|224:228,1,149.999998569489
76,312,92725,2,0,P|152:328|240:280,2,149.999998569489
28,92,93540,6,0,L|208:156,1,149.999998569489
380,224,94029,2,0,L|340:64,1,149.999998569489
380,224,94518,1,0,0:0:0:0:
312,264,94681,1,0,0:0:0:0:
100,332,94844,2,0,B|128:216|272:108|272:108|216:276,1,449.999995708466
496,48,96149,6,0,P|400:48|324:88,1,149.999998569489
384,136,96638,2,0,B|292:164|216:132|216:132|292:260,1,299.999997138977
484,340,97453,2,0,P|428:236|272:168,2,224.999997854233
216,16,98757,2,0,L|320:124,1,149.999998569489
344,348,99246,2,0,B|264:260|264:260|188:328,1,149.999998569489
24,312,99735,1,0,0:0:0:0:
24,40,100061,5,0,0:0:0:0:
64,232,100224,1,0,0:0:0:0:
144,56,100387,1,0,0:0:0:0:
168,248,100550,1,0,0:0:0:0:
252,72,100713,1,0,0:0:0:0:
276,264,100876,1,0,0:0:0:0:
380,100,101039,1,0,0:0:0:0:
256,356,101365,6,0,P|280:272|328:232,1,149.999998569489
488,224,101854,2,0,P|400:136|224:112,1,299.999997138977
296,236,102669,2,0,P|292:152|376:64,1,149.999998569489
208,288,103158,2,0,P|188:168|40:72,1,299.999997138977
440,128,103973,5,0,0:0:0:0:
24,344,104462,1,0,0:0:0:0:
104,32,104951,1,0,0:0:0:0:
332,348,105277,5,0,0:0:0:0:
420,176,105440,1,0,0:0:0:0:
332,348,105603,1,0,0:0:0:0:
236,180,105766,1,0,0:0:0:0:
332,348,105929,1,0,0:0:0:0:
328,152,106092,1,0,0:0:0:0:
328,348,106255,1,0,0:0:0:0:
72,300,106581,5,0,0:0:0:0:
512,40,107070,1,0,0:0:0:0:
384,344,107885,1,0,0:0:0:0:
384,344,108374,1,0,0:0:0:0:
384,344,108537,5,0,0:0:0:0:
256,20,108863,1,0,0:0:0:0:
256,192,109189,12,0,110493,0:0:0:0:
72,256,132662,5,0,0:0:0:0:
360,344,132988,2,0,L|404:288,1,49.9999976158143
468,240,133477,1,0,0:0:0:0:
216,76,133803,1,0,0:0:0:0:
412,300,134129,2,0,P|328:284|308:280,1,99.9999952316285
168,252,134618,1,0,0:0:0:0:
376,36,134944,1,0,0:0:0:0:
344,184,135107,2,0,P|312:236|244:272,1,99.9999952316285
136,296,135596,1,0,0:0:0:0:
136,296,135759,1,0,0:0:0:0:
80,180,137878,6,0,L|104:136,1,49.9999976158143
108,120,138204,1,0,0:0:0:0:
400,60,138530,2,0,P|404:112|396:116,1,49.9999976158143
408,120,138856,2,0,P|412:172|404:176,1,49.9999976158143
416,196,139182,2,0,P|420:248|412:252,1,49.9999976158143
424,268,139508,2,0,P|428:320|420:324,1,49.9999976158143
412,340,139834,1,0,0:0:0:0:
380,356,139997,2,0,P|300:344|248:320,1,99.9999952316285
144,280,140486,6,0,P|228:272|264:248,1,99.9999952316285
332,144,140975,2,0,P|284:176|232:184,1,99.9999952316285
64,148,143094,5,0,0:0:0:0:
152,88,143257,2,0,P|124:140|124:148,1,49.9999976158143
136,236,143583,2,0,P|184:152|224:140,1,99.9999952316285
260,80,144236,2,0,B|324:104|396:108|396:108|392:108,1,99.9999952316285
508,100,144725,1,0,0:0:0:0:
508,100,144888,1,0,0:0:0:0:
280,296,145214,2,0,P|268:272|292:216,1,49.9999976158143
316,208,145540,2,0,P|280:160|168:168,1,149.999992847443
168,164,146192,5,0,0:0:0:0:
36,344,146681,1,0,0:0:0:0:
104,328,146844,2,0,L|224:284,1,99.9999952316285
392,112,148311,6,0,L|352:160,1,49.9999976158143
264,264,148637,1,0,0:0:0:0:
264,264,148800,2,0,B|200:252|196:252|196:252|232:200,1,99.9999952316285
300,104,149289,2,0,L|264:152,1,49.9999976158143
264,152,149615,1,0,0:0:0:0:
28,336,149941,2,0,L|120:208,1,149.999992847443
204,92,150593,1,0,0:0:0:0:
500,132,150919,2,0,P|352:116|272:184,1,249.999988079071
116,284,153527,5,0,0:0:0:0:
336,80,153853,1,0,0:0:0:0:
188,80,154016,1,0,0:0:0:0:
424,268,154342,5,0,0:0:0:0:
140,284,154668,2,0,B|140:200|260:292|264:164,1,149.999992847443
344,92,155320,2,0,L|304:132,1,49.9999976158143
296,136,155646,1,0,0:0:0:0:
476,56,155972,5,0,0:0:0:0:
476,204,156298,1,0,0:0:0:0:
196,308,156624,2,0,B|288:304|288:304|248:240,1,149.999992847443
148,40,157276,1,0,0:0:0:0:
392,160,157439,2,0,L|444:204,2,49.9999976158143
32,104,158091,1,0,0:0:0:0:
20,360,158743,5,0,0:0:0:0:
308,292,159069,2,0,L|380:292,2,49.9999976158143
0,44,159721,5,0,0:0:0:0:
308,112,160047,2,0,L|452:112,1,99.9999952316285
260,112,160536,1,0,0:0:0:0:
192,112,160699,1,0,0:0:0:0:
16,192,161025,5,0,0:0:0:0:
480,284,161351,2,0,P|460:224|384:152,2,149.999992847443
80,80,163959,5,0,0:0:0:0:
196,228,164122,1,0,0:0:0:0:
304,76,164285,1,0,0:0:0:0:
464,176,164449,2,0,B|404:232|492:272|404:336,2,149.999998569489
296,264,165264,5,0,0:0:0:0:
120,328,165427,1,0,0:0:0:0:
36,160,165590,1,0,0:0:0:0:
192,56,165753,2,0,B|234:119|274:31|330:91,2,149.999998569489
320,56,166568,5,0,0:0:0:0:
360,96,166731,1,0,0:0:0:0:
320,140,166894,1,0,0:0:0:0:
360,180,167057,1,0,0:0:0:0:
320,224,167220,1,0,0:0:0:0:
368,264,167383,1,0,0:0:0:0:
324,304,167546,1,0,0:0:0:0:
364,344,167709,1,0,0:0:0:0:
272,328,167872,2,0,B|60:176|60:176|272:208,1,449.999995708466
496,48,169176,6,0,P|400:48|324:88,1,149.999998569489
384,136,169665,2,0,B|292:164|216:132|216:132|292:260,1,299.999997138977
484,340,170480,2,0,P|428:236|272:168,2,224.999997854233
216,16,171784,2,0,L|320:124,1,149.999998569489
344,348,172273,2,0,B|264:260|264:260|188:328,1,149.999998569489
24,312,172762,1,0,0:0:0:0:
16,72,173088,5,0,0:0:0:0:
68,252,173251,1,0,0:0:0:0:
128,72,173414,1,0,0:0:0:0:
192,248,173577,1,0,0:0:0:0:
244,68,173740,1,0,0:0:0:0:
308,244,173903,1,0,0:0:0:0:
376,68,174066,1,0,0:0:0:0:
256,356,174392,6,0,P|280:272|328:232,1,149.999998569489
488,224,174881,2,0,P|400:136|224:112,1,299.999997138977
296,236,175696,2,0,P|292:152|376:64,1,149.999998569489
208,288,176185,2,0,P|188:168|40:72,1,299.999997138977
504,52,177000,5,0,0:0:0:0:
504,52,177163,1,0,0:0:0:0:
24,344,177489,1,0,0:0:0:0:
24,344,177652,1,0,0:0:0:0:
496,324,177978,1,0,0:0:0:0:
156,72,178304,5,0,0:0:0:0:
332,72,178467,1,0,0:0:0:0:
176,176,178630,1,0,0:0:0:0:
364,176,178793,1,0,0:0:0:0:
200,268,178956,1,0,0:0:0:0:
388,268,179119,1,0,0:0:0:0:
220,352,179282,1,0,0:0:0:0:
88,140,179608,5,0,0:0:0:0:
512,40,180097,1,0,0:0:0:0:
384,344,180912,1,0,0:0:0:0:
384,344,181401,1,0,0:0:0:0:
384,344,181564,5,0,0:0:0:0:
256,20,181890,1,0,0:0:0:0:
256,192,182216,12,0,183520,0:0:0:0:
64,132,184825,6,0,B|112:200|112:200|128:180|164:76,1,149.999998569489
308,236,185314,1,0,0:0:0:0:
201,129,185477,1,0,0:0:0:0:
308,23,185640,1,0,0:0:0:0:
414,129,185803,1,0,0:0:0:0:
460,320,185966,1,0,0:0:0:0:
324,320,186129,2,0,P|256:244|152:252,1,149.999998569489
256,298,186781,5,0,0:0:0:0:
149,191,186944,1,0,0:0:0:0:
256,85,187107,1,0,0:0:0:0:
362,192,187270,1,0,0:0:0:0:
204,308,187433,2,0,L|32:248,1,149.999998569489
132,76,187922,1,0,0:0:0:0:
328,72,188085,1,0,0:0:0:0:
488,180,188248,1,0,0:0:0:0:
460,304,188411,6,0,L|392:248,2,74.9999992847443
256,192,188900,12,0,189878,0:0:0:0:
32,60,190041,6,0,L|32:180,1,112.499998927116
80,328,190693,2,0,L|80:200,1,112.499998927116
132,68,191345,6,0,L|132:188,1,112.499998927116
184,324,191997,2,0,L|184:196,1,112.499998927116
336,92,192649,2,0,L|488:220,2,149.999998569489
456,328,193627,5,0,0:0:0:0:
392,288,193790,1,0,0:0:0:0:
384,212,193953,1,0,0:0:0:0:
424,148,194116,1,0,0:0:0:0:
392,80,194279,1,0,0:0:0:0:
320,64,194442,1,0,0:0:0:0:
244,68,194605,1,0,0:0:0:0:
224,140,194768,1,0,0:0:0:0:
240,212,194931,1,0,0:0:0:0:
264,360,195257,6,0,P|128:328|64:288,1,149.999998569489
60,280,195746,1,0,0:0:0:0:
20,212,195909,1,0,0:0:0:0:
124,136,196072,2,0,L|208:136,2,74.9999992847443
248,24,196561,6,0,P|384:56|448:96,1,149.999998569489
448,112,197050,1,0,0:0:0:0:
492,172,197213,1,0,0:0:0:0:
388,248,197376,2,0,L|304:248,2,74.9999992847443
512,252,197865,5,0,0:0:0:0:
0,132,198354,5,0,0:0:0:0:
304,32,198843,1,0,0:0:0:0:
168,200,199169,2,0,L|212:348,2,149.999998569489
436,68,200473,5,0,0:0:0:0:
372,204,200962,2,0,P|248:256|64:248,1,299.999997138977
296,40,201777,5,0,0:0:0:0:
200,340,202266,1,0,0:0:0:0:
60,164,202755,1,0,0:0:0:0:
272,236,203081,2,0,P|441:145|519:40,2,299.999997138977
256,192,205690,12,0,210906,0:0:0:0:
