osu file format v14

[General]
AudioFilename: Mig - Ta Malutka Blondynka 2016 [www.nowosci-mp3.eu].mp3
AudioLeadIn: 0
PreviewTime: 23972
Countdown: 0
SampleSet: Soft
StackLeniency: 0.7
Mode: 0
LetterboxInBreaks: 0
WidescreenStoryboard: 0

[Editor]
Bookmarks: 68958,143076
DistanceSpacing: 1.3
BeatDivisor: 4
GridSize: 8
TimelineZoom: 2.700005

[Metadata]
Title:Ta Malutka Blondynka
TitleUnicode:Ta Malutka Blondynka
Artist:Mig
ArtistUnicode:Mig
Creator:deadpon3
Version:Wiejska Inba
Source:
Tags:disco polo polish dance eletronic
BeatmapID:1069601
BeatmapSetID:502592

[Difficulty]
HPDrainRate:6.5
CircleSize:4
OverallDifficulty:8
ApproachRate:9
SliderMultiplier:1.3
SliderTickRate:1

[Events]
//Background and Video events
0,0,"readme.jpg",0,0
Video,0,"cycki.avi"
//Break Periods
2,83290,88349
2,157408,162466
//Storyboard Layer 0 (Background)
//Storyboard Layer 1 (Fail)
//Storyboard Layer 2 (Pass)
//Storyboard Layer 3 (Foreground)
//Storyboard Sound Samples

[TimingPoints]
1914,441.176470588235,4,2,1,69,1,0
16031,-66.6666666666667,4,2,1,69,0,0
23090,-200,4,2,1,69,0,0
23531,-200,4,2,1,5,0,0
23752,-100,4,2,1,69,0,0
24855,-66.6666666666667,4,2,1,69,0,1
53090,-200,4,2,1,69,0,0
53531,-200,4,2,1,5,0,0
53752,-100,4,2,1,69,0,0
54855,-66.6666666666667,4,2,1,69,0,0
97208,-200,4,2,1,69,0,0
97649,-200,4,2,1,5,0,0
97869,-100,4,2,1,69,0,0
98972,-66.6666666666667,4,2,1,69,0,1
127208,-200,4,2,1,69,0,0
127649,-200,4,2,1,5,0,0
127869,-100,4,2,1,69,0,0
128972,-66.6666666666667,4,2,1,69,0,0
172649,-66.6666666666667,4,2,1,5,0,0
173090,-66.6666666666667,4,2,1,69,0,0
173752,-100,4,2,1,69,0,0
180149,-66.6666666666667,4,2,1,69,0,0
185443,-200,4,2,1,69,0,0
185884,-200,4,2,1,5,0,0
186105,-100,4,2,1,69,0,0
187208,-66.6666666666667,4,2,1,69,0,1
215443,-76.9230769230769,4,2,1,69,0,0

[Colours]
Combo1 : 216,0,221
Combo2 : 128,0,255
Combo3 : 0,255,255
Combo4 : 64,0,128

[HitObjects]
79,96,1914,5,0,0:0:0:0:
40,208,2134,1,0,0:0:0:0:
160,256,2355,2,0,P|193:262|242:246,1,65,2|0,0:0|0:0,0:0:0:0:
343,208,2796,1,0,0:0:0:0:
444,249,3016,1,0,0:0:0:0:
430,139,3237,1,2,0:0:0:0:
290,157,3458,6,0,P|213:146|171:82,1,130,0|0,0:0|0:0,0:0:0:0:
129,14,4119,1,2,0:0:0:0:
27,68,4340,1,0,0:0:0:0:
80,166,4561,1,2,0:0:0:0:
180,109,4781,1,0,0:0:0:0:
289,156,5002,2,0,P|303:186|301:218,1,65,2|0,0:0|0:0,0:0:0:0:
245,287,5443,6,0,P|316:306|385:249,1,130,2|0,0:0|0:0,0:0:0:0:
422,194,6105,1,2,0:0:0:0:
252,89,6546,1,2,0:0:0:0:
245,287,6987,1,0,0:0:0:0:
156,320,7208,6,0,P|115:297|87:248,1,65,2|0,0:0|0:0,0:0:0:0:
50,217,7649,1,2,0:0:0:0:
58,118,7869,1,0,0:0:0:0:
137,174,8090,1,2,0:0:0:0:
231,190,8311,2,0,B|295:206|295:206|383:190,1,130,0|0,0:0|0:0,0:0:0:0:
432,224,8972,6,0,P|437:182|414:135,1,65,2|0,0:0|0:0,0:0:0:0:
398,63,9413,1,2,0:0:0:0:
398,63,9634,1,0,0:0:0:0:
306,112,9855,2,0,P|273:113|243:103,1,65,2|0,0:0|0:0,0:0:0:0:
166,33,10296,1,0,0:0:0:0:
19,158,10737,6,0,P|30:190|55:212,1,65,2|0,0:0|0:0,0:0:0:0:
135,265,11178,1,2,0:0:0:0:
249,228,11399,1,0,0:0:0:0:
210,106,11620,1,2,0:0:0:0:
96,143,11840,1,0,0:0:0:0:
135,265,12061,2,0,P|146:291|191:331,1,65,2|0,0:0|0:0,0:0:0:0:
249,228,12502,6,0,P|276:215|316:218,1,65,2|0,0:0|0:0,0:0:0:0:
416,287,12943,1,0,0:0:0:0:
299,336,13163,2,0,P|229:353|176:322,1,130,2|0,0:0|0:0,0:0:0:0:
80,250,13825,1,2,0:0:0:0:
36,133,14046,1,0,0:0:0:0:
91,23,14266,1,2,0:0:0:0:
113,231,14708,5,0,0:0:0:0:
113,231,14928,2,0,P|143:247|252:188,1,130,0|0,0:0|0:0,0:0:0:0:
296,169,15590,2,0,P|326:188|380:192,1,65,2|0,0:0|0:0,0:0:0:0:
434,149,16031,5,4,0:0:0:0:
298,93,16252,1,4,0:0:0:0:
231,223,16472,2,0,B|242:273|242:273|296:295,1,97.50000371933,8|0,0:0|0:0,0:0:0:0:
422,339,16913,1,4,0:0:0:0:
484,206,17134,1,4,0:0:0:0:
366,119,17355,2,0,B|328:96|328:96|273:96,1,97.50000371933,8|0,0:0|0:0,0:0:0:0:
140,131,17796,5,4,0:0:0:0:
90,253,18016,1,4,0:0:0:0:
251,162,18237,1,8,0:0:0:0:
41,95,18458,1,0,0:0:0:0:
199,227,18678,2,0,P|195:291|159:342,1,97.50000371933,4|0,0:0|0:0,0:0:0:0:
90,253,19119,2,0,P|54:177|67:136,1,97.50000371933,8|0,0:0|0:0,0:0:0:0:
144,80,19561,6,0,P|227:86|256:118,1,97.50000371933,8|0,0:0|0:0,0:0:0:0:
256,294,20002,1,8,0:0:0:0:
331,147,20222,1,0,0:0:0:0:
149,296,20443,1,4,0:0:0:0:
345,236,20663,1,0,0:0:0:0:
150,174,20884,2,0,P|102:162|54:166,1,97.50000371933,8|0,0:0|0:0,0:0:0:0:
54,303,21325,6,0,P|102:307|150:296,1,97.50000371933,4|0,0:0|0:0,0:0:0:0:
260,232,21766,1,8,0:0:0:0:
150,174,21987,1,0,0:0:0:0:
150,296,22208,6,0,P|180:336|262:340,1,97.50000371933,4|0,0:0|0:0,0:0:0:0:
260,232,22649,2,0,P|284:144|308:132,1,97.50000371933,8|0,0:0|0:0,0:0:0:0:
447,167,23090,6,0,P|452:192|450:231,1,65,0|0,0:0|0:0,0:0:0:0:
384,324,23752,6,0,L|384:352,2,16.25,0|0|0,0:0|0:0|0:0,0:0:0:0:
384,340,23972,6,0,P|379:315|381:276,1,65,0|0,0:0|0:0,0:0:0:0:
272,320,24413,5,0,0:0:0:0:
238,346,24524,1,0,0:0:0:0:
190,346,24634,1,0,0:0:0:0:
158,314,24744,1,0,0:0:0:0:
128,272,24855,6,0,B|96:272|96:272|64:288|64:288|16:288,2,97.50000371933,4|0|8,0:0|0:0|0:0,0:0:0:0:
256,280,25516,1,2,0:0:0:0:
197,100,25737,1,0,0:0:0:0:
162,210,25957,1,2,0:0:0:0:
350,210,26178,1,8,0:0:0:0:
314,100,26399,1,2,0:0:0:0:
162,210,26619,6,0,B|144:256|144:256|168:312,1,97.50000371933,4|2,0:0|0:0,0:0:0:0:
350,210,27061,2,0,B|368:164|368:164|344:108,1,97.50000371933,8|2,0:0|0:0,0:0:0:0:
197,100,27502,1,4,0:0:0:0:
72,128,27722,1,2,0:0:0:0:
72,253,27943,1,8,0:0:0:0:
195,289,28163,1,2,0:0:0:0:
335,234,28384,6,0,P|389:245|449:216,1,97.50000371933,0|0,0:0|0:0,0:0:0:0:
483,140,28825,2,0,P|428:124|366:140,1,97.50000371933,8|2,0:0|0:0,0:0:0:0:
335,234,29266,1,4,0:0:0:0:
368,352,29487,1,2,0:0:0:0:
177,234,29708,1,8,0:0:0:0:
144,352,29929,1,2,0:0:0:0:
177,234,30149,6,0,P|123:245|63:216,1,97.50000371933,4|2,0:0|0:0,0:0:0:0:
29,140,30590,2,0,P|84:124|146:140,1,97.50000371933,8|2,0:0|0:0,0:0:0:0:
304,158,31031,1,4,0:0:0:0:
128,57,31252,1,2,0:0:0:0:
208,158,31472,1,8,0:0:0:0:
384,57,31693,1,2,0:0:0:0:
473,177,31913,6,0,L|489:305,1,97.50000371933,4|0,0:0|0:0,0:0:0:0:
335,339,32355,2,0,L|319:211,1,97.50000371933,8|2,0:0|0:0,0:0:0:0:
64,176,32796,2,0,L|48:304,1,97.50000371933,4|2,0:0|0:0,0:0:0:0:
202,338,33238,2,0,L|218:210,1,97.50000371933,8|2,0:0|0:0,0:0:0:0:
256,32,33678,5,4,0:0:0:0:
325,242,33899,1,2,0:0:0:0:
188,242,34119,1,8,0:0:0:0:
367,113,34340,1,2,0:0:0:0:
146,113,34561,1,4,0:0:0:0:
256,352,34781,1,2,0:0:0:0:
324,149,35002,1,8,0:0:0:0:
146,271,35222,1,2,0:0:0:0:
322,312,35443,6,0,P|351:284|315:143,1,195.00000743866,4|8,0:0|0:0,0:0:0:0:
176,136,36105,1,2,0:0:0:0:
64,224,36325,2,0,P|50:272|82:337,1,97.50000371933,4|2,0:0|0:0,0:0:0:0:
157,365,36766,2,0,P|170:319|141:246,1,97.50000371933,8|2,0:0|0:0,0:0:0:0:
271,129,37208,6,0,P|257:177|289:242,1,97.50000371933,4|2,0:0|0:0,0:0:0:0:
364,270,37649,2,0,P|377:224|348:151,1,97.50000371933,8|2,0:0|0:0,0:0:0:0:
209,72,38090,1,4,0:0:0:0:
121,282,38311,1,2,0:0:0:0:
270,221,38531,1,8,0:0:0:0:
60,132,38752,1,2,0:0:0:0:
288,232,38972,6,0,P|334:245|406:221,1,97.50000371933,4|0,0:0|0:0,0:0:0:0:
466,91,39413,1,8,0:0:0:0:
338,151,39634,1,2,0:0:0:0:
256,32,39855,1,4,0:0:0:0:
256,192,40075,1,2,0:0:0:0:
46,91,40296,1,8,0:0:0:0:
174,151,40517,1,2,0:0:0:0:
122,313,40737,6,0,P|106:264|142:203,1,97.50000371933,4|2,0:0|0:0,0:0:0:0:
276,129,41178,1,8,0:0:0:0:
415,219,41399,1,2,0:0:0:0:
324,358,41619,1,4,0:0:0:0:
185,268,41840,1,2,0:0:0:0:
276,129,42061,2,0,P|267:81|208:41,1,97.50000371933,8|2,0:0|0:0,0:0:0:0:
76,42,42502,6,0,P|51:130|145:232,1,195.00000743866,4|8,0:0|0:0,0:0:0:0:
296,253,43163,1,2,0:0:0:0:
168,116,43384,1,4,0:0:0:0:
114,294,43605,1,2,0:0:0:0:
264,335,43825,2,0,P|323:337|365:308,1,97.50000371933,8|2,0:0|0:0,0:0:0:0:
460,224,44266,6,8,P|462:128|396:60,1,195.00000743866,4|8,0:0|0:0,0:0:0:0:
265,25,44928,1,2,0:0:0:0:
153,104,45149,2,0,P|115:146|113:193,1,97.50000371933,4|2,0:0|0:0,0:0:0:0:
293,248,45590,2,0,P|294:199|277:154,1,97.50000371933,8|2,0:0|0:0,0:0:0:0:
120,31,46031,6,0,P|51:97|34:201,1,195.00000743866,4|8,0:0|0:0,0:0:0:0:
55,326,46693,1,2,0:0:0:0:
189,303,46913,2,0,P|217:300|290:336,1,97.50000371933,4|2,0:0|0:0,0:0:0:0:
419,338,47355,2,0,P|437:310|446:231,1,97.50000371933,8|2,0:0|0:0,0:0:0:0:
256,48,47796,5,4,0:0:0:0:
325,258,48017,1,2,0:0:0:0:
146,129,48237,1,8,0:0:0:0:
367,129,48458,1,2,0:0:0:0:
192,256,48678,2,0,P|140:272|100:259,1,97.50000371933,4|2,0:0|0:0,0:0:0:0:
54,132,49119,2,0,P|106:116|146:129,1,97.50000371933,8|2,0:0|0:0,0:0:0:0:
100,259,49561,6,0,P|123:348|233:323,1,195.00000743866,4|8,0:0|0:0,0:0:0:0:
322,290,50222,1,2,0:0:0:0:
173,128,50443,1,4,0:0:0:0:
354,219,50663,1,2,0:0:0:0:
156,230,50884,1,8,0:0:0:0:
330,144,51105,1,2,0:0:0:0:
184,297,51325,5,4,0:0:0:0:
270,94,51546,1,2,0:0:0:0:
257,310,51766,1,8,0:0:0:0:
202,131,51987,1,2,0:0:0:0:
329,247,52208,1,4,0:0:0:0:
170,226,52428,1,2,0:0:0:0:
315,170,52649,1,8,0:0:0:0:
292,325,52869,1,2,0:0:0:0:
175,311,53090,6,0,P|143:301|102:304,1,65,0|0,0:0|0:0,0:0:0:0:
270,267,53752,6,0,L|285:277,2,16.25,0|0|0,0:0|0:0|0:0,0:0:0:0:
283,277,53972,6,0,P|315:277|346:267,1,65,0|0,0:0|0:0,0:0:0:0:
392,156,54413,5,0,0:0:0:0:
365,121,54524,1,0,0:0:0:0:
319,109,54634,1,0,0:0:0:0:
279,132,54744,1,0,0:0:0:0:
255,175,54855,6,0,P|251:223|291:287,1,97.50000371933,4|2,0:0|0:0,0:0:0:0:
389,335,55296,1,8,0:0:0:0:
389,335,55516,1,2,0:0:0:0:
452,215,55737,2,0,P|471:170|467:122,1,97.50000371933,4|2,0:0|0:0,0:0:0:0:
354,45,56178,1,8,0:0:0:0:
354,45,56399,1,2,0:0:0:0:
233,114,56619,6,0,P|164:110|124:85,1,97.50000371933,4|2,0:0|0:0,0:0:0:0:
2,104,57061,2,0,P|33:165|31:212,1,97.50000371933,8|2,0:0|0:0,0:0:0:0:
109,309,57502,2,0,P|146:251|188:229,1,97.50000371933,4|2,0:0|0:0,0:0:0:0:
340,195,57943,1,8,0:0:0:0:
270,355,58163,1,2,0:0:0:0:
345,181,58384,6,0,P|357:114|340:70,1,97.50000371933,4|2,0:0|0:0,0:0:0:0:
223,32,58825,1,8,0:0:0:0:
223,32,59046,1,2,0:0:0:0:
98,86,59266,2,0,P|58:141|55:188,1,97.50000371933,4|2,0:0|0:0,0:0:0:0:
100,299,59708,1,8,0:0:0:0:
100,299,59928,1,2,0:0:0:0:
230,259,60149,6,0,P|296:259|356:297,1,97.50000371933,4|2,0:0|0:0,0:0:0:0:
464,334,60590,2,0,P|431:276|433:205,1,97.50000371933,8|2,0:0|0:0,0:0:0:0:
412,94,61031,2,0,P|378:151|316:184,1,97.50000371933,4|2,0:0|0:0,0:0:0:0:
195,216,61472,1,8,0:0:0:0:
317,328,61693,1,2,0:0:0:0:
173,196,61913,6,0,P|147:164|136:95,1,97.50000371933,4|2,0:0|0:0,0:0:0:0:
256,16,62355,1,8,0:0:0:0:
256,16,62575,1,2,0:0:0:0:
377,110,62796,2,0,P|368:157|339:196,1,97.50000371933,4|2,0:0|0:0,0:0:0:0:
211,286,63237,1,8,0:0:0:0:
331,348,63458,1,2,0:0:0:0:
188,197,63678,6,0,P|140:204|97:227,1,97.50000371933,4|2,0:0|0:0,0:0:0:0:
0,126,64119,2,0,P|48:131|95:120,1,97.50000371933,8|2,0:0|0:0,0:0:0:0:
223,29,64561,1,4,0:0:0:0:
357,107,64781,1,2,0:0:0:0:
273,238,65002,2,0,P|225:224|186:195,1,97.50000371933,8|2,0:0|0:0,0:0:0:0:
35,150,65443,6,0,P|40:198|28:244,1,97.50000371933,4|2,0:0|0:0,0:0:0:0:
123,314,65884,1,8,0:0:0:0:
235,346,66104,1,2,0:0:0:0:
338,291,66325,2,0,P|385:242|383:195,1,97.50000371933,4|2,0:0|0:0,0:0:0:0:
305,112,66766,1,8,0:0:0:0:
417,46,66987,1,2,0:0:0:0:
316,221,67208,6,0,P|252:237|204:205,1,97.50000371933,4|2,0:0|0:0,0:0:0:0:
62,82,67649,1,8,0:0:0:0:
146,268,67869,1,2,0:0:0:0:
217,129,68090,1,4,0:0:0:0:
32,224,68311,1,2,0:0:0:0:
127,125,68531,2,0,P|191:141|239:109,1,97.50000371933,8|2,0:0|0:0,0:0:0:0:
329,216,68972,6,0,P|229:209|247:99,1,195.00000743866,4|8,0:0|0:0,0:0:0:0:
340,83,69634,1,2,0:0:0:0:
340,83,69744,1,2,0:0:0:0:
340,83,69855,2,0,L|264:188,1,97.50000371933,4|2,0:0|0:0,0:0:0:0:
197,308,70296,2,0,P|160:238|174:188,1,97.50000371933,8|2,0:0|0:0,0:0:0:0:
205,143,70737,5,4,0:0:0:0:
329,277,70958,1,2,0:0:0:0:
375,100,71178,1,8,0:0:0:0:
329,277,71399,2,0,P|416:255|436:150,1,195.00000743866,2|2,0:0|0:0,0:0:0:0:
416,32,72061,1,8,0:0:0:0:
416,32,72281,1,2,0:0:0:0:
304,111,72502,6,0,B|260:122|260:122|181:103,1,97.50000371933,4|2,0:0|0:0,0:0:0:0:
102,40,72943,1,8,0:0:0:0:
65,158,73163,6,0,P|66:200|83:234,1,48.750001859665,2|2,0:0|0:0,0:0:0:0:
117,262,73384,1,4,0:0:0:0:
333,172,73605,1,2,0:0:0:0:
234,314,73825,1,8,0:0:0:0:
200,90,74046,1,2,0:0:0:0:
312,352,74266,6,0,P|319:316|283:241,1,97.50000371933,4|2,0:0|0:0,0:0:0:0:
172,215,74708,1,8,0:0:0:0:
61,304,74928,2,0,P|28:213|61:124,1,195.00000743866,2|2,0:0|0:0,0:0:0:0:
192,80,75590,1,8,0:0:0:0:
272,224,75811,1,2,0:0:0:0:
112,256,76031,6,0,P|98:210|125:158,1,97.50000371933,6|0,0:0|0:0,0:0:0:0:
281,120,76472,1,8,0:0:0:0:
367,263,76693,1,2,0:0:0:0:
367,263,76803,1,2,0:0:0:0:
367,263,76913,1,6,0:0:0:0:
382,100,77134,1,2,0:0:0:0:
272,224,77355,1,8,0:0:0:0:
434,187,77575,1,2,0:0:0:0:
281,120,77796,6,0,P|233:123|195:153,1,97.50000371933,4|2,0:0|0:0,0:0:0:0:
72,282,78237,2,0,P|119:278|157:248,1,97.50000371933,8|2,0:0|0:0,0:0:0:0:
93,96,78678,2,0,P|95:143|125:181,1,97.50000371933,4|2,0:0|0:0,0:0:0:0:
258,305,79119,2,0,P|254:257|224:219,1,97.50000371933,8|2,0:0|0:0,0:0:0:0:
197,348,79561,6,0,P|225:371|318:352,1,97.50000371933,4|2,0:0|0:0,0:0:0:0:
417,289,80002,1,8,0:0:0:0:
328,173,80222,2,0,P|321:143|327:110,1,48.750001859665,2|2,0:0|0:0,0:0:0:0:
360,62,80443,1,4,0:0:0:0:
506,48,80663,1,2,0:0:0:0:
448,183,80883,1,8,0:0:0:0:
448,183,81105,1,2,0:0:0:0:
256,192,81325,12,4,83090,0:0:0:0:
104,240,90149,6,0,P|69:194|3:171,1,97.50000371933,0|0,0:0|0:0,0:0:0:0:
89,113,90590,2,0,P|145:105|198:59,1,97.50000371933,2|0,0:0|0:0,0:0:0:0:
205,163,91031,2,0,P|182:215|196:284,1,97.50000371933,0|0,0:0|0:0,0:0:0:0:
256,320,91472,1,2,0:0:0:0:
256,320,91693,1,0,0:0:0:0:
327,255,91913,6,0,P|327:206|307:163,1,97.50000371933,0|0,0:0|0:0,0:0:0:0:
333,84,92354,2,0,P|374:108|423:113,1,97.50000371933,2|0,0:0|0:0,0:0:0:0:
477,176,92796,2,0,P|435:200|408:240,1,97.50000371933,0|0,0:0|0:0,0:0:0:0:
364,311,93237,1,2,0:0:0:0:
364,311,93458,1,0,0:0:0:0:
297,263,93678,6,0,P|248:270|201:258,1,97.50000371933,0|0,0:0|0:0,0:0:0:0:
160,336,94119,2,0,P|125:302|114:255,1,97.50000371933,2|0,0:0|0:0,0:0:0:0:
35,281,94561,2,0,P|36:232|61:192,1,97.50000371933,0|0,0:0|0:0,0:0:0:0:
0,129,95002,2,0,P|52:104|95:110,1,97.50000371933,2|0,0:0|0:0,0:0:0:0:
169,216,95443,5,0,0:0:0:0:
265,312,95663,1,0,0:0:0:0:
243,235,95884,1,2,0:0:0:0:
185,296,96105,1,0,0:0:0:0:
343,168,96325,5,0,0:0:0:0:
247,72,96545,1,0,0:0:0:0:
269,149,96766,1,2,0:0:0:0:
327,88,96987,1,0,0:0:0:0:
158,239,97208,6,0,P|118:241|77:209,1,65,0|0,0:0|0:0,0:0:0:0:
114,101,97869,6,0,L|98:77,2,16.25,0|0|0,0:0|0:0|0:0,0:0:0:0:
105,88,98090,6,0,P|134:76|166:80,1,65,0|0,0:0|0:0,0:0:0:0:
288,128,98531,5,0,0:0:0:0:
314,162,98642,1,0,0:0:0:0:
314,210,98752,1,0,0:0:0:0:
282,242,98862,1,0,0:0:0:0:
234,240,98972,6,0,P|186:221|125:242,2,97.50000371933,4|0|8,0:0|0:0|0:0,0:0:0:0:
397,363,99634,1,2,0:0:0:0:
274,154,99855,1,0,0:0:0:0:
272,334,100075,1,2,0:0:0:0:
397,110,100296,1,8,0:0:0:0:
187,179,100516,1,2,0:0:0:0:
355,248,100737,6,0,P|407:261|473:229,1,97.50000371933,4|2,0:0|0:0,0:0:0:0:
397,110,101178,2,0,P|345:97|279:129,1,97.50000371933,8|2,0:0|0:0,0:0:0:0:
157,248,101619,2,0,P|105:261|39:229,1,97.50000371933,4|2,0:0|0:0,0:0:0:0:
115,110,102060,2,0,P|167:97|233:129,1,97.50000371933,8|2,0:0|0:0,0:0:0:0:
279,235,102502,6,0,P|283:293|176:354,1,195.00000743866,4|8,0:0|0:0,0:0:0:0:
46,322,103163,1,2,0:0:0:0:
41,185,103384,2,0,B|50:137|50:137|113:61,1,97.50000371933,4|2,0:0|0:0,0:0:0:0:
276,121,103825,2,0,B|228:133|228:133|182:120,1,97.50000371933,8|2,0:0|0:0,0:0:0:0:
384,128,104266,6,0,P|432:192|336:272,1,195.00000743866,4|8,0:0|0:0,0:0:0:0:
235,308,104928,1,2,0:0:0:0:
153,194,105149,2,0,L|127:62,1,97.50000371933,4|2,0:0|0:0,0:0:0:0:
13,167,105590,2,0,L|38:299,1,97.50000371933,8|2,0:0|0:0,0:0:0:0:
150,333,106031,6,0,P|255:353|355:323,1,195.00000743866,4|8,0:0|0:0,0:0:0:0:
432,224,106693,1,2,0:0:0:0:
464,112,106913,1,4,0:0:0:0:
256,192,107134,1,2,0:0:0:0:
256,80,107354,1,8,0:0:0:0:
80,224,107575,1,2,0:0:0:0:
52,96,107795,5,4,0:0:0:0:
205,136,108016,1,2,0:0:0:0:
360,157,108237,2,0,L|490:164,1,97.50000371933,8|2,0:0|0:0,0:0:0:0:
412,304,108678,2,0,L|282:297,1,97.50000371933,4|2,0:0|0:0,0:0:0:0:
185,162,109119,1,8,0:0:0:0:
89,249,109340,1,2,0:0:0:0:
180,341,109561,6,0,P|216:235|178:155,1,195.00000743866,4|8,0:0|0:0,0:0:0:0:
67,163,110222,1,2,0:0:0:0:
99,318,110443,1,4,0:0:0:0:
223,108,110663,1,2,0:0:0:0:
53,245,110884,1,8,0:0:0:0:
229,218,111105,1,2,0:0:0:0:
123,77,111325,5,4,0:0:0:0:
196,290,111546,1,2,0:0:0:0:
307,164,111766,1,8,0:0:0:0:
141,199,111987,1,2,0:0:0:0:
343,256,112208,1,4,0:0:0:0:
223,108,112428,1,2,0:0:0:0:
341,347,112649,2,0,P|328:289|368:234,1,97.50000371933,8|2,0:0|0:0,0:0:0:0:
487,194,113090,6,0,L|453:58,1,97.50000371933,4|0,0:0|0:0,0:0:0:0:
348,55,113531,1,8,0:0:0:0:
221,107,113752,1,2,0:0:0:0:
275,233,113972,1,4,0:0:0:0:
401,179,114193,1,2,0:0:0:0:
336,295,114413,2,0,P|310:336|302:383,1,97.50000371933,8|2,0:0|0:0,0:0:0:0:
200,260,114855,6,0,P|189:212|158:176,1,97.50000371933,4|2,0:0|0:0,0:0:0:0:
32,128,115296,1,8,0:0:0:0:
88,336,115516,1,2,0:0:0:0:
4,247,115737,1,4,0:0:0:0:
174,81,115958,1,2,0:0:0:0:
356,163,116178,1,8,0:0:0:0:
252,319,116399,1,2,0:0:0:0:
106,245,116619,6,0,P|104:160|189:76,1,195.00000743866,4|8,0:0|0:0,0:0:0:0:
317,49,117281,1,2,0:0:0:0:
448,112,117502,2,0,L|468:245,1,97.50000371933,4|2,0:0|0:0,0:0:0:0:
352,308,117943,2,0,L|337:208,1,97.50000371933,8|2,0:0|0:0,0:0:0:0:
64,112,118384,6,0,L|44:245,1,97.50000371933,4|2,0:0|0:0,0:0:0:0:
159,308,118825,2,0,L|173:208,1,97.50000371933,8|2,0:0|0:0,0:0:0:0:
218,114,119266,2,0,P|290:97|352:158,1,97.50000371933,4|2,0:0|0:0,0:0:0:0:
411,141,119708,2,0,P|457:152|504:141,1,97.50000371933,8|2,0:0|0:0,0:0:0:0:
310,105,120149,6,0,P|278:220|324:290,1,195.00000743866,4|8,0:0|0:0,0:0:0:0:
449,299,120811,1,2,0:0:0:0:
397,136,121031,2,0,P|348:106|265:124,1,97.50000371933,4|2,0:0|0:0,0:0:0:0:
188,142,121472,2,0,P|158:191|176:274,1,97.50000371933,8|2,0:0|0:0,0:0:0:0:
256,352,121913,5,4,0:0:0:0:
325,142,122134,1,2,0:0:0:0:
146,271,122354,1,8,0:0:0:0:
367,271,122575,1,2,0:0:0:0:
188,142,122796,1,4,0:0:0:0:
256,352,123016,1,2,0:0:0:0:
325,142,123237,2,0,L|316:24,1,97.50000371933,8|2,0:0|0:0,0:0:0:0:
396,94,123678,6,0,B|411:251|411:251|449:179,1,195.00000743866,4|8,0:0|0:0,0:0:0:0:
485,122,124340,1,2,0:0:0:0:
226,182,124561,1,4,0:0:0:0:
396,94,124781,1,2,0:0:0:0:
276,260,125002,1,8,0:0:0:0:
320,74,125222,1,2,0:0:0:0:
385,269,125443,5,4,0:0:0:0:
243,94,125663,1,2,0:0:0:0:
433,189,125884,1,8,0:0:0:0:
240,168,126105,1,2,0:0:0:0:
386,125,126325,1,4,0:0:0:0:
287,242,126546,1,2,0:0:0:0:
314,129,126766,1,8,0:0:0:0:
368,208,126987,1,2,0:0:0:0:
240,168,127208,6,0,P|217:164|165:181,1,65,0|0,0:0|0:0,0:0:0:0:
156,297,127869,6,0,L|160:325,2,16.25,0|0|0,0:0|0:0|0:0,0:0:0:0:
158,312,128090,6,0,P|179:313|232:297,1,65,0|0,0:0|0:0,0:0:0:0:
376,224,128531,5,0,0:0:0:0:
402,190,128642,1,0,0:0:0:0:
402,142,128752,1,0,0:0:0:0:
370,110,128862,1,0,0:0:0:0:
328,104,128972,6,0,P|268:114|210:90,1,97.50000371933,4|2,0:0|0:0,0:0:0:0:
113,20,129413,1,8,0:0:0:0:
113,20,129634,1,2,0:0:0:0:
39,146,129855,2,0,P|31:210|51:253,1,97.50000371933,4|2,0:0|0:0,0:0:0:0:
149,339,130296,1,8,0:0:0:0:
149,339,130516,1,2,0:0:0:0:
260,274,130737,6,0,P|327:285|364:315,1,97.50000371933,4|2,0:0|0:0,0:0:0:0:
488,312,131179,2,0,P|464:246|472:199,1,97.50000371933,8|2,0:0|0:0,0:0:0:0:
405,95,131620,2,0,P|360:146|316:163,1,97.50000371933,4|2,0:0|0:0,0:0:0:0:
203,223,132061,1,8,0:0:0:0:
324,304,132281,1,2,0:0:0:0:
189,205,132502,6,0,P|136:169|72:174,1,97.50000371933,4|2,0:0|0:0,0:0:0:0:
0,269,132943,1,8,0:0:0:0:
99,376,133164,1,2,0:0:0:0:
230,315,133384,2,0,P|272:287|299:241,1,97.50000371933,4|2,0:0|0:0,0:0:0:0:
247,109,133825,1,8,0:0:0:0:
101,94,134046,1,2,0:0:0:0:
2,201,134267,6,0,P|-5:247|15:299,1,97.50000371933,4|2,0:0|0:0,0:0:0:0:
154,326,134708,2,0,P|197:309|232:265,1,97.50000371933,8|2,0:0|0:0,0:0:0:0:
186,132,135149,2,0,P|149:102|94:94,1,97.50000371933,4|2,0:0|0:0,0:0:0:0:
0,199,135590,1,8,0:0:0:0:
42,339,135811,1,2,0:0:0:0:
177,284,136031,6,0,P|236:267|291:286,1,97.50000371933,4|2,0:0|0:0,0:0:0:0:
395,349,136472,1,8,0:0:0:0:
395,349,136693,1,2,0:0:0:0:
506,254,136913,2,0,P|516:199|502:153,1,97.50000371933,4|2,0:0|0:0,0:0:0:0:
391,67,137354,1,8,0:0:0:0:
365,211,137575,1,2,0:0:0:0:
243,130,137796,6,0,P|198:115|153:131,1,97.50000371933,4|2,0:0|0:0,0:0:0:0:
104,241,138237,1,8,0:0:0:0:
104,241,138458,1,2,0:0:0:0:
13,288,138678,2,0,P|-2:242|9:196,1,97.50000371933,4|2,0:0|0:0,0:0:0:0:
198,190,139119,2,0,P|211:237|200:284,1,97.50000371933,8|2,0:0|0:0,0:0:0:0:
71,151,139561,6,0,P|72:108|102:64,1,97.50000371933,4|2,0:0|0:0,0:0:0:0:
228,42,140002,1,8,0:0:0:0:
350,78,140222,1,2,0:0:0:0:
424,181,140443,2,0,P|422:223|389:269,1,97.50000371933,4|2,0:0|0:0,0:0:0:0:
265,268,140884,1,8,0:0:0:0:
183,171,141105,1,2,0:0:0:0:
59,189,141325,6,0,P|32:254|82:352,1,97.50000371933,4|2,0:0|0:0,0:0:0:0:
147,337,141766,2,0,P|226:336|262:356,1,97.50000371933,8|2,0:0|0:0,0:0:0:0:
368,323,142208,2,0,B|423:342|423:342|489:342,1,97.50000371933,4|2,0:0|0:0,0:0:0:0:
512,224,142649,2,0,B|458:204|458:204|419:204,1,97.50000371933,8|2,0:0|0:0,0:0:0:0:
382,128,143090,6,0,B|312:180|353:255|353:255|352:256|310:228,1,195.00000743866,4|8,0:0|0:0,0:0:0:0:
297,74,143752,1,2,0:0:0:0:
297,74,143862,1,2,0:0:0:0:
297,74,143972,2,0,P|234:48|178:76,1,97.50000371933,4|2,0:0|0:0,0:0:0:0:
119,150,144413,2,0,P|156:206|136:268,1,97.50000371933,8|2,0:0|0:0,0:0:0:0:
121,352,144855,5,4,0:0:0:0:
8,318,145075,1,2,0:0:0:0:
40,202,145296,1,8,0:0:0:0:
155,233,145516,2,0,P|234:215|174:112,1,195.00000743866,2|2,0:0|0:0,0:0:0:0:
112,48,146178,1,8,0:0:0:0:
112,48,146399,1,2,0:0:0:0:
55,158,146619,6,0,B|39:206|39:206|55:270,1,97.50000371933,4|2,0:0|0:0,0:0:0:0:
134,358,147061,1,8,0:0:0:0:
267,305,147281,2,0,P|273:283|271:253,1,48.750001859665,2|2,0:0|0:0,0:0:0:0:
234,190,147502,1,4,0:0:0:0:
272,33,147722,1,2,0:0:0:0:
428,76,147943,2,0,P|460:188|444:220,1,97.50000371933,8|2,0:0|0:0,0:0:0:0:
398,252,148384,5,4,0:0:0:0:
304,96,148605,1,2,0:0:0:0:
465,162,148825,1,8,0:0:0:0:
449,308,149046,2,0,P|346:306|333:213,1,195.00000743866,2|2,0:0|0:0,0:0:0:0:
391,65,149708,1,8,0:0:0:0:
272,172,149928,1,2,0:0:0:0:
190,51,150149,5,4,0:0:0:0:
136,239,150369,1,0,0:0:0:0:
290,89,150590,1,8,0:0:0:0:
88,123,150811,1,2,0:0:0:0:
88,123,150921,1,2,0:0:0:0:
88,123,151031,1,4,0:0:0:0:
136,239,151252,1,2,0:0:0:0:
217,132,151472,2,0,B|249:132|249:132|281:116|281:116|317:115,1,97.50000371933,8|2,0:0|0:0,0:0:0:0:
458,170,151913,5,4,0:0:0:0:
336,272,152134,1,2,0:0:0:0:
401,100,152355,1,8,0:0:0:0:
428,255,152575,1,2,0:0:0:0:
310,116,152796,1,4,0:0:0:0:
458,170,153016,1,2,0:0:0:0:
336,272,153237,2,0,P|262:274|231:227,1,97.50000371933,8|2,0:0|0:0,0:0:0:0:
109,206,153678,6,0,P|186:171|241:198,1,97.50000371933,4|2,0:0|0:0,0:0:0:0:
336,272,154119,1,8,0:0:0:0:
200,373,154340,2,8,P|180:346|167:311,1,48.750001859665,2|2,0:0|0:0,0:0:0:0:
179,259,154561,1,4,0:0:0:0:
256,96,154781,1,2,0:0:0:0:
334,259,155002,1,8,0:0:0:0:
334,259,155222,1,2,0:0:0:0:
256,192,155443,12,4,157208,0:0:0:0:
408,144,164266,6,0,P|442:189|508:212,1,97.50000371933,0|0,0:0|0:0,0:0:0:0:
423,271,164707,2,0,P|366:278|313:324,1,97.50000371933,2|0,0:0|0:0,0:0:0:0:
307,221,165148,2,0,P|329:168|315:99,1,97.50000371933,0|0,0:0|0:0,0:0:0:0:
256,64,165589,1,2,0:0:0:0:
256,64,165810,1,0,0:0:0:0:
184,128,166031,6,0,P|184:177|205:221,1,97.50000371933,0|0,0:0|0:0,0:0:0:0:
178,299,166472,2,0,P|137:275|89:271,1,97.50000371933,2|0,0:0|0:0,0:0:0:0:
34,207,166913,2,0,P|76:183|104:144,1,97.50000371933,0|0,0:0|0:0,0:0:0:0:
148,73,167354,1,2,0:0:0:0:
148,73,167575,1,0,0:0:0:0:
214,120,167795,6,0,P|263:113|310:125,1,97.50000371933,0|0,0:0|0:0,0:0:0:0:
351,47,168237,2,0,P|386:81|397:128,1,97.50000371933,2|0,0:0|0:0,0:0:0:0:
476,102,168678,2,0,P|475:151|450:191,1,97.50000371933,0|0,0:0|0:0,0:0:0:0:
512,255,169119,2,0,P|460:280|417:274,1,97.50000371933,2|0,0:0|0:0,0:0:0:0:
320,232,169561,5,0,0:0:0:0:
343,315,169781,1,0,0:0:0:0:
171,315,170002,1,2,0:0:0:0:
192,232,170222,1,0,0:0:0:0:
320,152,170443,5,0,0:0:0:0:
343,69,170663,1,0,0:0:0:0:
171,69,170884,1,2,0:0:0:0:
192,152,171104,1,0,0:0:0:0:
256,192,171325,12,0,172649,0:0:0:0:
256,304,173090,5,4,0:0:0:0:
256,304,173752,5,2,0:0:0:0:
336,240,173972,1,8,0:0:0:0:
144,192,174634,1,2,0:0:0:0:
144,192,174855,6,0,P|176:240|176:272,1,65,4|2,0:0|0:0,0:0:0:0:
256,304,175296,2,0,L|256:240,1,65,2|0,0:0|0:0,0:0:0:0:
336,240,175737,2,0,P|346:210|369:187,1,65,8|0,0:0|0:0,0:0:0:0:
432,144,176178,1,0,0:0:0:0:
496,192,176399,1,0,0:0:0:0:
497,268,176619,5,4,0:0:0:0:
335,245,177281,1,2,0:0:0:0:
335,245,177502,2,0,P|285:237|246:249,1,65,8|0,0:0|0:0,0:0:0:0:
203,280,177943,2,0,P|162:263|140:240,1,65,0|0,0:0|0:0,0:0:0:0:
115,177,178384,5,0,0:0:0:0:
398,60,179046,1,2,0:0:0:0:
341,156,179266,1,8,0:0:0:0:
289,57,179487,1,2,0:0:0:0:
457,144,179708,2,0,P|473:192|465:242,1,65,0|0,0:0|0:0,0:0:0:0:
454,301,180149,5,4,0:0:0:0:
362,333,180369,1,2,0:0:0:0:
282,276,180590,1,8,0:0:0:0:
281,178,180811,1,2,0:0:0:0:
219,102,181031,2,0,P|157:66|105:79,1,97.50000371933,4|2,0:0|0:0,0:0:0:0:
60,132,181472,2,0,P|48:178|64:223,1,97.50000371933,8|2,0:0|0:0,0:0:0:0:
128,288,181913,5,4,0:0:0:0:
224,336,182134,1,2,0:0:0:0:
304,288,182355,1,8,0:0:0:0:
320,192,182575,1,2,0:0:0:0:
288,96,182796,1,4,0:0:0:0:
199,56,183016,1,2,0:0:0:0:
192,153,183237,2,0,B|192:205|192:205|224:237,1,97.50000371933,8|2,0:0|0:0,0:0:0:0:
320,128,183678,6,0,B|320:75|320:75|288:43,1,97.50000371933,4|2,0:0|0:0,0:0:0:0:
192,32,184119,1,8,0:0:0:0:
112,96,184340,1,2,0:0:0:0:
112,192,184561,1,4,0:0:0:0:
192,256,184781,1,2,0:0:0:0:
288,208,185002,1,8,0:0:0:0:
368,272,185222,1,2,0:0:0:0:
464,224,185443,6,0,B|480:192|480:192|480:160,1,65,0|0,0:0|0:0,0:0:0:0:
463,27,186105,6,0,L|447:3,3,21.6666666666667,0|0|0|0,0:0|0:0|0:0|0:0,0:0:0:0:
314,56,186546,1,0,0:0:0:0:
438,142,186766,5,0,0:0:0:0:
464,176,186877,1,0,0:0:0:0:
464,224,186987,1,0,0:0:0:0:
432,256,187097,1,0,0:0:0:0:
386,262,187208,6,0,P|353:302|377:387,2,97.50000371933,4|0|8,0:0|0:0|0:0,0:0:0:0:
464,176,187869,1,2,0:0:0:0:
339,150,188090,2,0,P|286:144|236:112,1,97.50000371933,4|2,0:0|0:0,0:0:0:0:
121,116,188531,2,0,P|81:184|86:243,1,97.50000371933,8|2,0:0|0:0,0:0:0:0:
175,286,188972,6,0,P|223:283|261:253,1,97.50000371933,4|2,0:0|0:0,0:0:0:0:
384,124,189413,2,0,P|337:128|299:158,1,97.50000371933,8|2,0:0|0:0,0:0:0:0:
197,101,189855,2,0,P|200:148|230:186,1,97.50000371933,4|2,0:0|0:0,0:0:0:0:
362,310,190296,2,0,P|359:262|329:224,1,97.50000371933,8|2,0:0|0:0,0:0:0:0:
198,101,190737,6,0,P|133:214|168:305,1,195.00000743866,4|8,0:0|0:0,0:0:0:0:
256,352,191399,5,2,0:0:0:0:
325,142,191620,1,4,0:0:0:0:
146,271,191840,1,2,0:0:0:0:
367,271,192061,1,8,0:0:0:0:
188,142,192282,1,2,0:0:0:0:
367,271,192502,6,0,L|484:258,1,97.50000371933,4|2,0:0|0:0,0:0:0:0:
497,157,192943,2,0,L|380:170,1,97.50000371933,8|2,0:0|0:0,0:0:0:0:
145,271,193384,2,0,L|28:258,1,97.50000371933,4|2,0:0|0:0,0:0:0:0:
15,157,193825,2,0,L|132:170,1,97.50000371933,8|2,0:0|0:0,0:0:0:0:
256,304,194266,6,0,P|230:349|180:380,1,97.50000371933,4|0,0:0|0:0,0:0:0:0:
256,80,194708,2,0,P|282:35|332:4,1,97.50000371933,8|2,0:0|0:0,0:0:0:0:
144,192,195149,2,0,P|99:166|68:116,1,97.50000371933,4|2,0:0|0:0,0:0:0:0:
368,192,195590,2,0,P|413:218|444:268,1,97.50000371933,8|2,0:0|0:0,0:0:0:0:
256,352,196031,5,4,0:0:0:0:
145,271,196252,1,2,0:0:0:0:
324,134,196472,1,8,0:0:0:0:
187,134,196693,1,2,0:0:0:0:
366,271,196913,1,4,0:0:0:0:
256,352,197134,1,2,0:0:0:0:
145,271,197355,2,0,P|117:203|152:148,1,97.50000371933,8|2,0:0|0:0,0:0:0:0:
312,133,197796,6,0,P|289:215|180:196,1,195.00000743866,4|8,0:0|0:0,0:0:0:0:
58,155,198458,1,2,0:0:0:0:
145,271,198678,2,0,P|203:311|229:368,1,97.50000371933,4|2,0:0|0:0,0:0:0:0:
340,363,199119,2,0,P|388:345|413:305,1,97.50000371933,8|2,0:0|0:0,0:0:0:0:
480,144,199561,6,0,L|496:256,1,97.50000371933,4|2,0:0|0:0,0:0:0:0:
365,192,200002,2,0,L|351:96,1,97.50000371933,8|2,0:0|0:0,0:0:0:0:
160,96,200443,2,0,L|146:192,1,97.50000371933,4|2,0:0|0:0,0:0:0:0:
18,240,200884,2,0,L|32:144,1,97.50000371933,8|2,0:0|0:0,0:0:0:0:
125,308,201325,6,0,P|226:322|285:192,1,195.00000743866,4|8,0:0|0:0,0:0:0:0:
172,116,201987,1,2,0:0:0:0:
285,261,202208,2,0,P|340:273|456:220,1,97.50000371933,4|2,0:0|0:0,0:0:0:0:
482,157,202649,2,0,P|433:152|386:164,1,97.50000371933,8|2,0:0|0:0,0:0:0:0:
194,212,203090,5,4,0:0:0:0:
307,46,203311,1,2,0:0:0:0:
345,324,203531,1,8,0:0:0:0:
190,111,203752,1,2,0:0:0:0:
386,206,203972,1,4,0:0:0:0:
277,343,204193,1,2,0:0:0:0:
103,325,204413,2,0,P|86:263|19:198,1,97.50000371933,8|2,0:0|0:0,0:0:0:0:
81,117,204855,6,0,P|228:117|308:23,1,195.00000743866,4|8,0:0|0:0,0:0:0:0:
480,128,205516,1,0,0:0:0:0:
349,189,205737,2,0,P|341:91|373:43,2,97.50000371933,4|2|8,0:0|0:0|0:0,0:0:0:0:
435,306,206399,1,2,0:0:0:0:
285,329,206619,6,0,L|126:334,1,97.50000371933,4|0,0:0|0:0,0:0:0:0:
76,246,207061,2,0,L|235:241,1,97.50000371933,8|0,0:0|0:0,0:0:0:0:
288,149,207502,2,0,L|129:154,1,97.50000371933,4|2,0:0|0:0,0:0:0:0:
79,66,207944,2,0,L|238:61,1,97.50000371933,8|2,0:0|0:0,0:0:0:0:
300,81,208384,6,0,P|325:206|246:203,1,195.00000743866,4|8,0:0|0:0,0:0:0:0:
180,199,209046,1,2,0:0:0:0:
86,280,209266,2,0,P|84:356|161:378,2,97.50000371933,4|2|8,0:0|0:0|0:0,0:0:0:0:
132,140,209928,1,2,0:0:0:0:
286,205,210149,5,4,0:0:0:0:
238,56,210369,1,2,0:0:0:0:
194,276,210590,1,8,0:0:0:0:
353,145,210811,1,2,0:0:0:0:
145,176,211031,1,4,0:0:0:0:
412,259,211252,1,2,0:0:0:0:
238,56,211472,1,8,0:0:0:0:
293,332,211693,1,2,0:0:0:0:
353,145,211913,6,0,P|415:150|376:267,1,195.00000743866,4|8,0:0|0:0,0:0:0:0:
293,332,212575,1,2,0:0:0:0:
144,320,212796,2,0,B|112:272|112:272|112:144,1,97.50000371933,4|2,0:0|0:0,0:0:0:0:
188,99,213237,2,0,B|220:147|220:147|220:275,1,97.50000371933,8|2,0:0|0:0,0:0:0:0:
245,302,213678,5,4,0:0:0:0:
324,99,213899,1,2,0:0:0:0:
145,228,214119,1,8,0:0:0:0:
366,228,214340,1,2,0:0:0:0:
188,99,214561,1,4,0:0:0:0:
292,220,214781,5,2,0:0:0:0:
220,220,215002,1,8,0:0:0:0:
255,153,215222,1,2,0:0:0:0:
256,192,215443,12,4,217208,0:0:0:0:
