osu file format v14

[General]
AudioFilename: Mig - Ta Malutka Blondynka 2016 [www.nowosci-mp3.eu].mp3
AudioLeadIn: 0
PreviewTime: 23972
Countdown: 0
SampleSet: Soft
StackLeniency: 0.7
Mode: 0
LetterboxInBreaks: 0
WidescreenStoryboard: 0

[Editor]
Bookmarks: 68958,143076
DistanceSpacing: 1
BeatDivisor: 4
GridSize: 8
TimelineZoom: 3.600004

[Metadata]
Title:Ta Malutka Blondynka
TitleUnicode:Ta Malutka Blondynka
Artist:Mig
ArtistUnicode:Mig
Creator:deadpon3
Version:Trudny
Source:
Tags:disco polo polish dance eletronic
BeatmapID:1072320
BeatmapSetID:502592

[Difficulty]
HPDrainRate:5
CircleSize:4
OverallDifficulty:6
ApproachRate:7
SliderMultiplier:1.3
SliderTickRate:1

[Events]
//Background and Video events
0,0,"readme.jpg",0,0
Video,0,"cycki.avi"
//Break Periods
2,83290,89249
2,157408,163366
//Storyboard Layer 0 (Background)
//Storyboard Layer 1 (Fail)
//Storyboard Layer 2 (Pass)
//Storyboard Layer 3 (Foreground)
//Storyboard Sound Samples

[TimingPoints]
1914,441.176470588235,4,2,1,69,1,0
8531,-100,4,2,1,5,0,0
8972,-100,4,2,1,69,0,0
16031,-66.6666666666667,4,2,1,69,0,0
23090,-133.333333333333,4,2,1,69,0,0
23531,-133.333333333333,4,2,1,5,0,0
23752,-100,4,2,1,69,0,0
24855,-66.6666666666667,4,2,1,69,0,1
53090,-133.333333333333,4,2,1,69,0,0
53531,-133.333333333333,4,2,1,5,0,0
53752,-100,4,2,1,69,0,0
54855,-66.6666666666667,4,2,1,69,0,0
97208,-133.333333333333,4,2,1,69,0,0
97649,-133.333333333333,4,2,1,5,0,0
97869,-100,4,2,1,69,0,0
98972,-66.6666666666667,4,2,1,69,0,1
127208,-133.333333333333,4,2,1,69,0,0
127649,-133.333333333333,4,2,1,5,0,0
127869,-100,4,2,1,69,0,0
128972,-66.6666666666667,4,2,1,69,0,0
173531,-100,4,2,1,69,0,0
180149,-66.6666666666667,4,2,1,69,0,0
185443,-133.333333333333,4,2,1,69,0,0
185884,-133.333333333333,4,2,1,5,0,0
186105,-100,4,2,1,69,0,0
187208,-66.6666666666667,4,2,1,69,0,1
215443,-66.6666666666667,4,2,1,69,0,0

[Colours]
Combo1 : 216,0,221
Combo2 : 128,0,255
Combo3 : 0,255,255
Combo4 : 64,0,128

[HitObjects]
400,272,1914,5,0,0:0:0:0:
400,272,2355,2,0,P|352:272|320:256,1,65,2|0,0:0|0:0,0:0:0:0:
276,230,2796,2,0,P|244:214|196:214,1,65
150,240,3237,1,2,0:0:0:0:
150,240,3458,2,0,P|123:182|140:120,1,130
150,240,4781,5,0,0:0:0:0:
108,298,5002,2,0,P|78:310|46:309,1,65,2|0,0:0|0:0,0:0:0:0:
66,239,5443,6,0,P|111:166|184:161,1,130,2|0,0:0|0:0,0:0:0:0:
201,205,6105,2,0,P|213:124|155:84,1,130,2|2,0:0|0:0,0:0:0:0:
256,192,6987,12,0,8531,0:0:0:0:
135,148,8972,5,2,0:0:0:0:
235,208,9413,2,0,P|217:248|195:273,1,65,2|0,0:0|0:0,0:0:0:0:
132,264,9855,2,0,P|100:268|51:177,1,130,2|0,0:0|0:0,0:0:0:0:
121,110,10737,6,0,P|153:107|183:116,1,65,2|0,0:0|0:0,0:0:0:0:
229,171,11178,2,0,P|232:204|223:234,1,65,2|0,0:0|0:0,0:0:0:0:
171,284,11619,1,2,0:0:0:0:
43,218,12061,1,2,0:0:0:0:
93,351,12502,6,0,P|123:362|155:365,1,65,2|0,0:0|0:0,0:0:0:0:
206,313,12943,1,0,0:0:0:0:
205,312,13163,2,0,P|229:254|290:239,1,130,2|0,0:0|0:0,0:0:0:0:
359,254,13825,1,2,0:0:0:0:
428,234,14046,1,0,0:0:0:0:
463,172,14266,6,0,P|468:109|420:69,1,130,2|0,0:0|0:0,0:0:0:0:
351,86,14928,1,0,0:0:0:0:
287,119,15149,2,0,P|259:129|217:124,1,65,2|0,0:0|0:0,0:0:0:0:
156,104,15590,1,2,0:0:0:0:
304,240,16031,5,4,0:0:0:0:
266,319,16252,1,4,0:0:0:0:
353,310,16472,2,0,P|389:248|367:177,1,97.50000371933,8|0,0:0|0:0,0:0:0:0:
354,143,16913,5,4,0:0:0:0:
272,112,17134,1,4,0:0:0:0:
280,200,17355,2,0,B|229:206|229:206|167:194,1,97.50000371933,8|0,0:0|0:0,0:0:0:0:
136,128,17796,5,4,0:0:0:0:
200,56,18016,1,4,0:0:0:0:
272,112,18237,2,0,P|320:120|368:112,1,97.50000371933,8|0,0:0|0:0,0:0:0:0:
448,56,18678,5,4,0:0:0:0:
448,56,18899,1,0,0:0:0:0:
448,143,19119,2,0,L|448:263,1,97.50000371933,8|0,0:0|0:0,0:0:0:0:
383,301,19561,6,0,P|433:329|474:326,2,97.50000371933,4|0|8,0:0|0:0|0:0,0:0:0:0:
352,222,20222,1,0,0:0:0:0:
352,222,20443,2,0,L|224:222,1,97.50000371933,4|0,0:0|0:0,0:0:0:0:
182,272,20884,2,0,P|169:212|208:144,1,97.50000371933,8|0,0:0|0:0,0:0:0:0:
201,93,21325,6,0,P|164:33|85:44,1,97.50000371933,4|0,0:0|0:0,0:0:0:0:
56,49,21766,1,8,0:0:0:0:
35,134,21987,1,0,0:0:0:0:
116,168,22208,2,0,L|230:175,1,97.50000371933,4|0,0:0|0:0,0:0:0:0:
244,256,22649,2,0,L|129:248,1,97.50000371933,8|0,0:0|0:0,0:0:0:0:
65,256,23090,6,0,P|15:206|18:148,1,97.50000371933
117,107,23752,6,0,L|117:62,2,32.5
225,157,24193,1,0,0:0:0:0:
280,274,24413,5,0,0:0:0:0:
280,274,24524,1,0,0:0:0:0:
280,274,24634,1,0,0:0:0:0:
280,274,24744,1,0,0:0:0:0:
280,274,24855,6,0,P|206:304|83:285,1,195.00000743866,4|8,0:0|0:0,0:0:0:0:
9,243,25516,1,2,0:0:0:0:
12,146,25737,1,0,0:0:0:0:
106,120,25958,1,2,0:0:0:0:
202,130,26178,2,0,P|178:184|138:211,1,97.50000371933,8|2,0:0|0:0,0:0:0:0:
54,233,26619,5,4,0:0:0:0:
26,326,26840,1,2,0:0:0:0:
116,362,27061,1,8,0:0:0:0:
192,301,27281,1,2,0:0:0:0:
284,332,27502,2,0,P|348:316|398:356,1,97.50000371933,4|2,0:0|0:0,0:0:0:0:
463,288,27943,2,0,P|479:224|439:174,1,97.50000371933,8|2,0:0|0:0,0:0:0:0:
397,130,28384,6,0,P|298:154|302:266,1,195.00000743866,0|8,0:0|0:0,0:0:0:0:
255,328,29046,1,2,0:0:0:0:
163,297,29266,2,0,B|121:267|121:267|109:222,1,97.50000371933,4|2,0:0|0:0,0:0:0:0:
138,128,29708,2,0,B|179:157|179:157|191:202,1,97.50000371933,8|2,0:0|0:0,0:0:0:0:
163,297,30149,5,4,0:0:0:0:
68,320,30369,1,2,0:0:0:0:
15,237,30590,1,8,0:0:0:0:
42,143,30811,1,2,0:0:0:0:
138,128,31031,2,0,P|238:132|270:178,1,97.50000371933,4|2,0:0|0:0,0:0:0:0:
302,61,31472,2,0,P|401:57|433:12,1,97.50000371933,8|2,0:0|0:0,0:0:0:0:
454,132,31913,6,0,P|461:179|339:263,1,195.00000743866,4|8,0:0|0:0,0:0:0:0:
276,219,32575,1,2,0:0:0:0:
200,280,32796,2,0,L|76:292,1,97.50000371933,4|2,0:0|0:0,0:0:0:0:
53,205,33237,2,0,L|177:193,1,97.50000371933,8|2,0:0|0:0,0:0:0:0:
247,203,33678,5,4,0:0:0:0:
311,129,33899,1,2,0:0:0:0:
265,43,34119,1,8,0:0:0:0:
167,54,34340,1,2,0:0:0:0:
154,151,34561,2,0,P|156:227|187:261,1,97.50000371933,4|2,0:0|0:0,0:0:0:0:
94,357,35002,2,0,P|98:281|70:244,1,97.50000371933,8|2,0:0|0:0,0:0:0:0:
23,192,35443,6,0,P|15:128|115:36,1,195.00000743866,4|8,0:0|0:0,0:0:0:0:
181,90,36105,1,2,0:0:0:0:
268,133,36325,1,4,0:0:0:0:
347,76,36546,1,2,0:0:0:0:
418,141,36766,1,8,0:0:0:0:
394,235,36987,1,2,0:0:0:0:
306,277,37208,6,0,P|258:289|205:275,1,97.50000371933,4|2,0:0|0:0,0:0:0:0:
123,320,37649,2,0,P|113:273|150:207,1,97.50000371933,8|2,0:0|0:0,0:0:0:0:
222,198,38090,1,4,0:0:0:0:
239,103,38311,1,2,0:0:0:0:
168,39,38531,1,8,0:0:0:0:
77,69,38752,1,2,0:0:0:0:
59,161,38972,6,0,P|39:233|133:208,1,195.00000743866,4|8,0:0|0:0,0:0:0:0:
185,146,39634,1,2,0:0:0:0:
281,166,39855,2,0,L|393:178,1,97.50000371933,4|2,0:0|0:0,0:0:0:0:
390,273,40296,2,0,L|278:261,1,97.50000371933,8|2,0:0|0:0,0:0:0:0:
196,274,40737,5,4,0:0:0:0:
127,343,40958,1,2,0:0:0:0:
64,268,41178,2,0,P|48:200|64:160,1,97.50000371933,8|2,0:0|0:0,0:0:0:0:
124,105,41619,2,0,P|171:112|216:96,1,97.50000371933,4|2,0:0|0:0,0:0:0:0:
314,80,42061,1,8,0:0:0:0:
334,175,42281,1,2,0:0:0:0:
254,231,42502,6,0,B|166:263|166:263|70:231,1,195.00000743866,4|8,0:0|0:0,0:0:0:0:
2,161,43163,1,2,0:0:0:0:
54,78,43384,2,0,P|97:35|172:43,1,97.50000371933,4|2,0:0|0:0,0:0:0:0:
209,89,43825,2,0,B|233:105|233:105|273:105|273:105|305:121,1,97.50000371933,8|2,0:0|0:0,0:0:0:0:
395,130,44266,6,0,P|364:193|314:214,1,97.50000371933,4|2,0:0|0:0,0:0:0:0:
245,222,44708,1,8,0:0:0:0:
155,184,44928,1,2,0:0:0:0:
98,263,45149,1,4,0:0:0:0:
158,339,45369,1,2,0:0:0:0:
252,361,45590,2,0,B|303:362|303:362|350:337,1,97.50000371933,8|2,0:0|0:0,0:0:0:0:
441,350,46031,6,0,P|489:296|427:192,1,195.00000743866,4|8,0:0|0:0,0:0:0:0:
359,144,46693,1,2,0:0:0:0:
313,230,46913,1,4,0:0:0:0:
221,263,47134,1,2,0:0:0:0:
131,226,47355,2,0,P|123:161|154:111,1,97.50000371933,8|2,0:0|0:0,0:0:0:0:
220,85,47796,6,0,P|266:96|309:76,2,97.50000371933,4|2|8,0:0|0:0|0:0,0:0:0:0:
141,27,48458,1,2,0:0:0:0:
74,97,48678,2,0,P|50:183|87:250,1,97.50000371933,4|2,0:0|0:0,0:0:0:0:
117,259,49119,2,0,B|149:275|149:275|181:275|181:275|229:291,1,97.50000371933,8|2,0:0|0:0,0:0:0:0:
284,221,49561,6,0,P|328:117|247:75,1,195.00000743866,4|8,0:0|0:0,0:0:0:0:
187,112,50222,1,2,0:0:0:0:
91,127,50443,1,4,0:0:0:0:
105,223,50663,1,2,0:0:0:0:
201,210,50884,1,8,0:0:0:0:
201,210,51105,1,2,0:0:0:0:
291,246,51325,6,0,P|254:293|173:300,1,97.50000371933,4|2,0:0|0:0,0:0:0:0:
124,286,51766,1,8,0:0:0:0:
124,286,51987,1,2,0:0:0:0:
27,273,52208,2,0,P|70:203|130:190,1,97.50000371933,4|2,0:0|0:0,0:0:0:0:
163,145,52649,1,8,0:0:0:0:
163,145,52870,1,2,0:0:0:0:
259,163,53090,6,0,P|303:155|362:179,1,97.50000371933
402,255,53752,6,0,L|437:255,2,32.5
308,315,54193,1,0,0:0:0:0:
178,310,54413,5,0,0:0:0:0:
178,310,54524,1,0,0:0:0:0:
178,310,54634,1,0,0:0:0:0:
178,310,54744,1,0,0:0:0:0:
178,310,54855,6,0,P|130:326|59:296,1,97.50000371933,4|2,0:0|0:0,0:0:0:0:
127,228,55296,2,0,L|127:116,1,97.50000371933,8|2,0:0|0:0,0:0:0:0:
215,89,55737,1,4,0:0:0:0:
215,89,55958,1,2,0:0:0:0:
301,145,56178,1,8,0:0:0:0:
301,145,56399,1,2,0:0:0:0:
360,221,56619,6,0,P|408:237|474:214,1,97.50000371933,4|2,0:0|0:0,0:0:0:0:
509,147,57061,2,0,P|461:131|395:154,1,97.50000371933,8|2,0:0|0:0,0:0:0:0:
360,221,57502,1,4,0:0:0:0:
360,221,57722,1,2,0:0:0:0:
288,287,57943,1,8,0:0:0:0:
288,287,58163,1,2,0:0:0:0:
197,249,58384,6,0,L|69:233,1,97.50000371933,4|2,0:0|0:0,0:0:0:0:
50,153,58825,2,0,L|178:169,1,97.50000371933,8|2,0:0|0:0,0:0:0:0:
221,101,59266,1,4,0:0:0:0:
221,101,59487,1,2,0:0:0:0:
312,149,59708,1,8,0:0:0:0:
312,149,59928,1,2,0:0:0:0:
396,197,60149,6,0,P|362:231|305:245,1,97.50000371933,4|2,0:0|0:0,0:0:0:0:
218,237,60590,2,0,P|182:221|86:301,1,97.50000371933,8|2,0:0|0:0,0:0:0:0:
56,298,61031,1,4,0:0:0:0:
56,298,61252,1,2,0:0:0:0:
51,205,61472,1,8,0:0:0:0:
51,205,61693,1,2,0:0:0:0:
134,154,61913,6,0,B|134:122|134:122|150:90|150:90|150:26,1,97.50000371933,4|2,0:0|0:0,0:0:0:0:
246,41,62355,1,8,0:0:0:0:
246,41,62575,1,2,0:0:0:0:
341,61,62796,2,0,B|341:91|341:91|357:123|357:123|357:155,1,97.50000371933,4|2,0:0|0:0,0:0:0:0:
375,250,63237,1,8,0:0:0:0:
375,250,63458,1,2,0:0:0:0:
282,279,63678,6,0,P|264:231|310:157,1,97.50000371933,4|2,0:0|0:0,0:0:0:0:
345,119,64119,1,8,0:0:0:0:
439,141,64340,1,2,0:0:0:0:
448,238,64561,2,0,P|441:285|407:317,1,97.50000371933,4|2,0:0|0:0,0:0:0:0:
313,348,65002,1,8,0:0:0:0:
230,297,65222,1,2,0:0:0:0:
138,262,65443,6,0,L|10:270,1,97.50000371933,4|2,0:0|0:0,0:0:0:0:
98,189,65884,2,0,L|226:181,1,97.50000371933,8|2,0:0|0:0,0:0:0:0:
128,112,66325,2,0,L|0:120,1,97.50000371933,4|2,0:0|0:0,0:0:0:0:
88,39,66766,2,0,L|216:31,1,97.50000371933,8|2,0:0|0:0,0:0:0:0:
275,71,67208,5,4,0:0:0:0:
275,71,67428,1,2,0:0:0:0:
357,122,67649,1,8,0:0:0:0:
357,122,67869,1,2,0:0:0:0:
410,203,68090,2,0,P|339:217|272:160,1,97.50000371933,4|2,0:0|0:0,0:0:0:0:
246,141,68531,2,0,P|174:125|118:205,1,97.50000371933,8|2,0:0|0:0,0:0:0:0:
79,195,68972,6,0,P|68:313|124:373,1,195.00000743866,4|8,0:0|0:0,0:0:0:0:
181,264,69634,1,2,0:0:0:0:
181,264,69744,1,2,0:0:0:0:
181,264,69855,2,0,L|342:264,1,97.50000371933,4|2,0:0|0:0,0:0:0:0:
360,317,70296,2,0,P|375:266|366:222,1,97.50000371933,8|2,0:0|0:0,0:0:0:0:
305,147,70737,5,4,0:0:0:0:
305,147,70958,1,2,0:0:0:0:
216,187,71178,2,0,L|112:187,1,97.50000371933,8|2,0:0|0:0,0:0:0:0:
90,280,71619,2,0,L|194:280,1,97.50000371933,0|2,0:0|0:0,0:0:0:0:
275,236,72061,2,0,P|293:182|224:111,1,97.50000371933,8|2,0:0|0:0,0:0:0:0:
214,73,72502,5,4,0:0:0:0:
214,73,72722,1,2,0:0:0:0:
143,140,72943,2,0,B|122:188|122:188|129:243,1,97.50000371933,8|2,0:0|0:0,0:0:0:0:
206,271,73274,1,2,0:0:0:0:
206,271,73384,2,0,P|236:313|239:370,1,97.50000371933,4|2,0:0|0:0,0:0:0:0:
145,345,73825,2,0,B|113:361|81:361|49:345,1,97.50000371933,8|2,0:0|0:0,0:0:0:0:
12,259,74266,5,4,0:0:0:0:
12,259,74487,1,2,0:0:0:0:
50,169,74708,2,0,P|98:153|162:185,1,97.50000371933,8|2,0:0|0:0,0:0:0:0:
235,193,75149,2,0,P|283:209|347:177,1,97.50000371933,0|2,0:0|0:0,0:0:0:0:
377,112,75590,1,8,0:0:0:0:
466,73,75811,1,2,0:0:0:0:
454,169,76031,6,0,B|453:238|453:238|478:293|478:293|480:370,1,195.00000743866,6|8,0:0|0:0,0:0:0:0:
383,344,76693,1,2,0:0:0:0:
383,344,76803,1,2,0:0:0:0:
383,344,76913,2,0,B|381:311|381:311|342:228,1,97.50000371933,6|2,0:0|0:0,0:0:0:0:
316,161,77355,1,8,0:0:0:0:
272,74,77575,1,2,0:0:0:0:
174,76,77796,6,0,P|155:123|169:176,1,97.50000371933,4|2,0:0|0:0,0:0:0:0:
153,264,78237,2,0,P|205:256|257:204,1,97.50000371933,8|2,0:0|0:0,0:0:0:0:
338,228,78678,6,0,P|377:255|425:262,1,97.50000371933,4|2,0:0|0:0,0:0:0:0:
414,165,79119,2,0,P|422:117|404:73,1,97.50000371933,8|2,0:0|0:0,0:0:0:0:
316,42,79561,5,4,0:0:0:0:
316,42,79781,1,2,0:0:0:0:
269,127,80002,2,0,B|233:127|233:127|204:143|204:143|140:143,1,97.50000371933,8|2,0:0|0:0,0:0:0:0:
97,134,80333,1,2,0:0:0:0:
97,134,80443,2,0,P|73:213|103:247,1,97.50000371933,4|2,0:0|0:0,0:0:0:0:
159,288,80884,1,8,0:0:0:0:
159,288,81105,1,2,0:0:0:0:
256,192,81325,12,4,83090,0:0:0:0:
64,160,90149,6,0,L|176:160,1,97.50000371933
231,107,90590,2,0,P|248:165|225:222,1,97.50000371933,2|0,0:0|0:0,0:0:0:0:
160,239,91031,2,0,P|151:286|167:331,1,97.50000371933
237,279,91472,2,0,L|334:279,1,97.50000371933,2|0,0:0|0:0,0:0:0:0:
416,313,91913,1,0,0:0:0:0:
413,225,92134,1,0,0:0:0:0:
461,151,92355,2,0,P|414:135|339:175,1,97.50000371933,2|0,0:0|0:0,0:0:0:0:
289,184,92796,6,0,P|246:204|200:191,1,97.50000371933
112,203,93238,1,2,0:0:0:0:
26,216,93458,1,0,0:0:0:0:
40,303,93679,5,0,0:0:0:0:
125,288,93899,1,0,0:0:0:0:
212,277,94120,2,0,L|324:293,1,97.50000371933,2|0,0:0|0:0,0:0:0:0:
361,220,94561,2,0,L|249:204,1,97.50000371933
185,168,95002,2,0,P|170:105|201:64,1,97.50000371933,2|0,0:0|0:0,0:0:0:0:
258,31,95443,5,0,0:0:0:0:
258,31,95663,1,0,0:0:0:0:
333,76,95884,1,2,0:0:0:0:
333,76,96105,1,0,0:0:0:0:
300,157,96325,2,0,L|233:237,1,97.50000371933
156,300,96766,2,0,L|259:317,1,97.50000371933,2|0,0:0|0:0,0:0:0:0:
352,354,97208,6,0,L|315:255,1,97.50000371933
300,157,97869,6,0,L|325:124,2,32.5
216,96,98311,1,0,0:0:0:0:
128,128,98531,5,0,0:0:0:0:
128,128,98641,1,0,0:0:0:0:
128,128,98752,1,0,0:0:0:0:
128,128,98862,1,0,0:0:0:0:
128,128,98972,6,0,P|112:209|220:237,1,195.00000743866,4|8,0:0|0:0,0:0:0:0:
275,183,99634,1,2,0:0:0:0:
361,230,99855,2,0,L|483:224,1,97.50000371933,0|2,0:0|0:0,0:0:0:0:
500,137,100296,2,0,L|378:143,1,97.50000371933,8|2,0:0|0:0,0:0:0:0:
308,116,100737,5,4,0:0:0:0:
226,62,100958,1,2,0:0:0:0:
188,151,101178,1,8,0:0:0:0:
239,234,101399,1,2,0:0:0:0:
144,256,101619,2,0,P|98:208|102:156,1,97.50000371933,4|2,0:0|0:0,0:0:0:0:
88,81,102061,2,0,P|150:57|196:81,1,97.50000371933,8|2,0:0|0:0,0:0:0:0:
208,160,102502,6,0,P|284:211|340:80,1,195.00000743866,4|8,0:0|0:0,0:0:0:0:
435,98,103163,1,2,0:0:0:0:
437,195,103384,2,0,P|402:253|347:293,1,97.50000371933,4|2,0:0|0:0,0:0:0:0:
292,314,103825,2,0,B|256:313|256:313|227:298|227:298|192:297,1,97.50000371933,8|2,0:0|0:0,0:0:0:0:
110,254,104266,5,4,0:0:0:0:
75,162,104487,1,2,0:0:0:0:
144,93,104708,1,8,0:0:0:0:
237,120,104928,1,2,0:0:0:0:
270,211,105149,2,0,P|324:226|390:172,1,97.50000371933,4|2,0:0|0:0,0:0:0:0:
412,128,105590,2,0,P|357:112|291:166,1,97.50000371933,8|2,0:0|0:0,0:0:0:0:
230,270,106031,6,0,P|385:281|442:230,1,195.00000743866,4|8,0:0|0:0,0:0:0:0:
482,196,106693,1,2,0:0:0:0:
412,128,106913,2,0,P|357:112|291:166,1,97.50000371933,4|2,0:0|0:0,0:0:0:0:
225,145,107355,2,0,P|170:160|104:106,1,97.50000371933,8|2,0:0|0:0,0:0:0:0:
55,97,107796,5,4,0:0:0:0:
55,97,108016,1,2,0:0:0:0:
32,192,108237,2,0,L|17:288,1,97.50000371933,8|2,0:0|0:0,0:0:0:0:
88,355,108679,2,0,L|102:258,1,97.50000371933,4|2,0:0|0:0,0:0:0:0:
187,212,109119,2,0,P|235:228|305:190,1,97.50000371933,8|2,0:0|0:0,0:0:0:0:
347,286,109561,6,0,P|351:152|283:119,1,195.00000743866,4|8,0:0|0:0,0:0:0:0:
219,95,110222,1,2,0:0:0:0:
141,154,110443,2,0,P|113:220|163:281,2,97.50000371933,4|2|8,0:0|0:0|0:0,0:0:0:0:
219,95,111105,1,2,0:0:0:0:
314,112,111325,6,0,L|435:120,1,97.50000371933,4|2,0:0|0:0,0:0:0:0:
470,195,111766,2,0,L|349:187,1,97.50000371933,8|2,0:0|0:0,0:0:0:0:
302,257,112208,2,0,L|423:265,1,97.50000371933,4|2,0:0|0:0,0:0:0:0:
458,340,112649,2,0,L|337:332,1,97.50000371933,8|2,0:0|0:0,0:0:0:0:
263,344,113090,6,0,P|169:335|152:225,1,195.00000743866,4|8,0:0|0:0,0:0:0:0:
176,157,113752,1,2,0:0:0:0:
272,167,113972,1,4,0:0:0:0:
308,257,114193,1,2,0:0:0:0:
400,225,114413,2,0,P|421:165|393:117,1,97.50000371933,8|2,0:0|0:0,0:0:0:0:
359,51,114855,6,0,B|312:59|312:59|259:48,1,97.50000371933,4|2,0:0|0:0,0:0:0:0:
168,71,115296,2,0,B|121:63|121:63|68:74,1,97.50000371933,8|2,0:0|0:0,0:0:0:0:
32,162,115737,1,4,0:0:0:0:
32,162,115958,1,2,0:0:0:0:
112,217,116178,2,0,B|160:227|160:227|207:219,1,97.50000371933,8|2,0:0|0:0,0:0:0:0:
305,227,116619,6,0,P|320:308|413:251,1,195.00000743866,4|8,0:0|0:0,0:0:0:0:
468,207,117281,1,2,0:0:0:0:
412,127,117502,2,0,P|365:93|299:84,1,97.50000371933,4|2,0:0|0:0,0:0:0:0:
230,95,117943,1,8,0:0:0:0:
148,147,118163,1,2,0:0:0:0:
146,245,118384,6,0,P|152:288|193:330,1,97.50000371933,4|2,0:0|0:0,0:0:0:0:
276,287,118825,2,0,P|317:272|374:289,1,97.50000371933,8|2,0:0|0:0,0:0:0:0:
460,318,119266,2,0,L|476:206,1,97.50000371933,4|2,0:0|0:0,0:0:0:0:
450,129,119708,1,8,0:0:0:0:
450,129,119928,1,2,0:0:0:0:
355,150,120149,6,0,B|307:182|307:182|227:182|227:182|163:214,1,195.00000743866,4|8,0:0|0:0,0:0:0:0:
86,246,120811,1,2,0:0:0:0:
23,171,121031,2,0,P|7:120|37:62,1,97.50000371933,4|2,0:0|0:0,0:0:0:0:
116,63,121472,2,0,P|132:114|102:172,1,97.50000371933,8|2,0:0|0:0,0:0:0:0:
86,246,121913,6,0,L|220:285,1,97.50000371933,4|2,0:0|0:0,0:0:0:0:
256,344,122355,1,8,0:0:0:0:
256,344,122575,1,2,0:0:0:0:
326,276,122796,2,0,L|420:249,1,97.50000371933,4|2,0:0|0:0,0:0:0:0:
491,182,123237,2,0,P|507:131|477:73,1,97.50000371933,8|2,0:0|0:0,0:0:0:0:
396,94,123678,6,0,P|303:132|204:78,1,195.00000743866,4|8,0:0|0:0,0:0:0:0:
134,51,124340,1,2,0:0:0:0:
57,111,124561,2,0,P|26:170|52:231,1,97.50000371933,4|2,0:0|0:0,0:0:0:0:
100,266,125002,2,0,B|132:250|132:250|164:250|164:250|196:234,1,97.50000371933,8|2,0:0|0:0,0:0:0:0:
279,196,125443,6,0,L|263:84,1,97.50000371933,4|2,0:0|0:0,0:0:0:0:
349,49,125884,2,0,L|365:161,1,97.50000371933,8|2,0:0|0:0,0:0:0:0:
433,220,126325,1,4,0:0:0:0:
433,220,126546,1,2,0:0:0:0:
399,311,126766,1,8,0:0:0:0:
399,311,126987,1,2,0:0:0:0:
305,338,127208,6,0,P|261:332|217:295,1,97.50000371933
216,170,127869,6,0,L|191:138,2,32.5
304,234,128311,1,0,0:0:0:0:
416,192,128531,5,0,0:0:0:0:
416,192,128641,1,0,0:0:0:0:
416,192,128752,1,0,0:0:0:0:
416,192,128862,1,0,0:0:0:0:
416,192,128972,6,0,P|432:240|416:288,1,97.50000371933,4|2,0:0|0:0,0:0:0:0:
339,340,129413,1,8,0:0:0:0:
339,340,129634,1,2,0:0:0:0:
256,288,129855,2,0,P|243:241|259:196,1,97.50000371933,4|2,0:0|0:0,0:0:0:0:
335,135,130296,1,8,0:0:0:0:
335,135,130516,1,2,0:0:0:0:
400,208,130737,6,0,L|512:224,1,97.50000371933,4|2,0:0|0:0,0:0:0:0:
437,300,131178,2,0,L|325:284,1,97.50000371933,8|2,0:0|0:0,0:0:0:0:
272,224,131619,1,4,0:0:0:0:
272,224,131840,1,2,0:0:0:0:
219,306,132061,1,8,0:0:0:0:
219,306,132281,1,2,0:0:0:0:
128,272,132502,6,0,B|96:240|96:240|96:160,1,97.50000371933,4|2,0:0|0:0,0:0:0:0:
143,102,132943,1,8,0:0:0:0:
143,102,133163,1,2,0:0:0:0:
208,176,133384,2,0,B|256:192|256:192|332:170,1,97.50000371933,4|2,0:0|0:0,0:0:0:0:
362,102,133825,1,8,0:0:0:0:
362,102,134046,1,2,0:0:0:0:
400,192,134266,6,0,B|400:244|400:244|368:276,1,97.50000371933,4|2,0:0|0:0,0:0:0:0:
282,324,134708,2,0,B|250:324|250:324|218:308|218:308|186:308,1,97.50000371933,8|2,0:0|0:0,0:0:0:0:
112,256,135149,1,4,0:0:0:0:
112,256,135369,1,2,0:0:0:0:
115,162,135590,1,8,0:0:0:0:
115,162,135811,1,2,0:0:0:0:
188,98,136031,6,0,B|218:98|218:98|250:82|250:82|282:82,1,97.50000371933,4|2,0:0|0:0,0:0:0:0:
366,32,136472,2,0,P|379:83|369:126,1,97.50000371933,8|2,0:0|0:0,0:0:0:0:
292,185,136913,1,4,0:0:0:0:
292,185,137134,1,2,0:0:0:0:
220,252,137355,6,0,P|205:297|217:343,1,97.50000371933,8|2,0:0|0:0,0:0:0:0:
305,300,137796,2,0,B|337:300|337:300|369:316|369:316|399:316,1,97.50000371933,4|2,0:0|0:0,0:0:0:0:
493,285,138237,1,8,0:0:0:0:
461,191,138458,1,2,0:0:0:0:
398,316,138678,1,4,0:0:0:0:
367,218,138899,1,2,0:0:0:0:
273,192,139119,2,0,P|277:133|303:91,1,97.50000371933,8|2,0:0|0:0,0:0:0:0:
389,127,139561,6,0,P|390:174|363:222,1,97.50000371933,4|2,0:0|0:0,0:0:0:0:
304,292,140002,1,8,0:0:0:0:
304,292,140222,1,2,0:0:0:0:
224,236,140443,2,0,P|170:240|135:299,1,97.50000371933,4|2,0:0|0:0,0:0:0:0:
69,335,140884,1,8,0:0:0:0:
69,335,141105,1,2,0:0:0:0:
48,240,141325,6,0,B|16:192|16:192|16:144,1,97.50000371933,4|2,0:0|0:0,0:0:0:0:
84,82,141766,2,0,B|116:130|116:130|116:178,1,97.50000371933,8|2,0:0|0:0,0:0:0:0:
159,257,142208,2,0,P|214:325|293:307,1,97.50000371933,4|2,0:0|0:0,0:0:0:0:
296,265,142649,2,0,P|278:219|234:194,1,97.50000371933,8|2,0:0|0:0,0:0:0:0:
271,103,143090,6,0,P|364:172|392:263,1,195.00000743866,4|8,0:0|0:0,0:0:0:0:
348,331,143752,1,2,0:0:0:0:
348,331,143862,1,2,0:0:0:0:
348,331,143972,1,4,0:0:0:0:
256,366,144193,1,2,0:0:0:0:
176,309,144413,2,0,P|164:263|191:195,1,97.50000371933,8|2,0:0|0:0,0:0:0:0:
275,210,144855,6,0,P|363:211|400:139,1,97.50000371933,4|2,0:0|0:0,0:0:0:0:
419,126,145296,1,8,0:0:0:0:
419,126,145516,1,2,0:0:0:0:
342,64,145737,2,0,P|284:49|249:60,1,97.50000371933,4|2,0:0|0:0,0:0:0:0:
181,130,146178,1,8,0:0:0:0:
181,130,146399,1,2,0:0:0:0:
94,85,146619,6,0,P|81:135|128:201,2,97.50000371933,4|2|8,0:0|0:0|0:0,0:0:0:0:
179,36,147281,1,2,0:0:0:0:
179,36,147391,1,2,0:0:0:0:
179,36,147502,1,4,0:0:0:0:
253,98,147722,1,2,0:0:0:0:
185,168,147943,2,0,L|170:275,1,97.50000371933,8|2,0:0|0:0,0:0:0:0:
128,352,148384,6,0,P|192:362|242:336,1,97.50000371933,4|2,0:0|0:0,0:0:0:0:
294,286,148825,1,8,0:0:0:0:
294,286,149046,1,2,0:0:0:0:
269,191,149266,2,0,B|281:142|281:142|345:89,1,97.50000371933,4|2,0:0|0:0,0:0:0:0:
411,142,149708,2,0,B|427:190|427:190|404:280,1,97.50000371933,8|2,0:0|0:0,0:0:0:0:
491,296,150149,6,0,P|405:328|326:269,1,195.00000743866,4|8,0:0|0:0,0:0:0:0:
293,180,150811,1,2,0:0:0:0:
293,180,150921,1,2,0:0:0:0:
293,180,151031,2,0,P|222:166|174:211,1,97.50000371933,4|2,0:0|0:0,0:0:0:0:
156,262,151472,2,0,P|108:278|44:246,1,97.50000371933,8|2,0:0|0:0,0:0:0:0:
34,177,151913,5,4,0:0:0:0:
34,177,152134,1,2,0:0:0:0:
100,105,152355,1,8,0:0:0:0:
100,105,152575,1,2,0:0:0:0:
191,137,152796,2,0,L|291:145,1,97.50000371933,4|2,0:0|0:0,0:0:0:0:
340,226,153237,2,0,L|240:218,1,97.50000371933,8|2,0:0|0:0,0:0:0:0:
148,243,153678,5,4,0:0:0:0:
98,159,153899,1,2,0:0:0:0:
160,84,154119,1,8,0:0:0:0:
250,121,154340,1,2,0:0:0:0:
250,121,154450,1,2,0:0:0:0:
250,121,154561,1,4,0:0:0:0:
242,218,154781,1,2,0:0:0:0:
196,304,155002,2,0,P|148:320|100:304,1,97.50000371933,8|2,0:0|0:0,0:0:0:0:
256,192,155443,12,4,157208,0:0:0:0:
448,224,164266,6,0,L|336:224,1,97.50000371933
281,277,164707,2,0,P|264:219|287:162,1,97.50000371933,2|0,0:0|0:0,0:0:0:0:
352,145,165148,2,0,P|361:98|345:53,1,97.50000371933
275,105,165590,2,0,L|177:105,1,97.50000371933,2|0,0:0|0:0,0:0:0:0:
96,71,166030,1,0,0:0:0:0:
99,159,166251,1,0,0:0:0:0:
51,233,166472,2,0,P|98:249|173:209,1,97.50000371933,2|0,0:0|0:0,0:0:0:0:
223,200,166913,6,0,P|266:180|312:193,1,97.50000371933
400,181,167355,1,2,0:0:0:0:
486,168,167575,1,0,0:0:0:0:
472,81,167796,5,0,0:0:0:0:
387,96,168016,1,0,0:0:0:0:
300,107,168237,2,0,L|188:91,1,97.50000371933,2|0,0:0|0:0,0:0:0:0:
151,164,168678,2,0,L|263:180,1,97.50000371933
327,216,169119,2,0,P|342:279|311:320,1,97.50000371933,2|0,0:0|0:0,0:0:0:0:
254,353,169560,5,0,0:0:0:0:
254,353,169780,1,0,0:0:0:0:
179,308,170001,1,2,0:0:0:0:
179,308,170222,1,0,0:0:0:0:
117,246,170442,6,0,L|9:236,1,97.50000371933
53,155,170884,2,0,L|161:165,1,97.50000371933,2|0,0:0|0:0,0:0:0:0:
256,192,171325,12,4,173090,0:0:0:0:
225,199,173752,6,0,L|305:183,1,65,4|2,0:0|0:0,0:0:0:0:
224,320,174634,1,2,0:0:0:0:
224,320,174855,6,0,L|144:336,1,65,4|2,0:0|0:0,0:0:0:0:
96,272,175296,2,0,L|176:256,1,65,2|0,0:0|0:0,0:0:0:0:
225,199,175737,1,8,0:0:0:0:
176,62,176619,5,4,0:0:0:0:
368,192,177061,1,0,0:0:0:0:
368,192,177281,1,2,0:0:0:0:
368,192,177502,1,8,0:0:0:0:
238,74,178384,6,0,L|174:61,1,65,2|0,0:0|0:0,0:0:0:0:
358,95,179046,1,2,0:0:0:0:
423,148,179266,1,8,0:0:0:0:
424,232,179487,1,2,0:0:0:0:
370,297,179708,2,0,P|325:318|295:314,1,65
214,310,180149,5,4,0:0:0:0:
138,265,180369,1,2,0:0:0:0:
137,177,180590,1,8,0:0:0:0:
206,123,180811,1,2,0:0:0:0:
273,178,181031,2,0,B|323:188|323:188|369:178,1,97.50000371933,4|2,0:0|0:0,0:0:0:0:
390,83,181472,2,0,B|340:73|340:73|294:83,1,97.50000371933,8|2,0:0|0:0,0:0:0:0:
206,123,181913,6,0,P|177:179|192:226,1,97.50000371933,4|2,0:0|0:0,0:0:0:0:
264,276,182355,1,8,0:0:0:0:
264,276,182575,1,2,0:0:0:0:
346,307,182796,2,0,L|475:319,1,97.50000371933,4|2,0:0|0:0,0:0:0:0:
492,243,183237,2,0,L|363:231,1,97.50000371933,8|2,0:0|0:0,0:0:0:0:
359,153,183678,6,0,L|488:165,1,97.50000371933,4|2,0:0|0:0,0:0:0:0:
506,90,184119,2,0,L|377:78,1,97.50000371933,8|2,0:0|0:0,0:0:0:0:
323,60,184561,1,4,0:0:0:0:
255,115,184781,1,2,0:0:0:0:
168,100,185002,1,8,0:0:0:0:
107,37,185222,1,2,0:0:0:0:
58,105,185443,6,0,P|46:138|73:208,1,97.50000371933,0|0,0:0|0:0,0:0:0:0:
141,253,186105,6,0,L|141:295,2,32.5
274,262,186546,1,0,0:0:0:0:
400,192,186766,5,0,0:0:0:0:
400,192,186877,1,0,0:0:0:0:
400,192,186987,1,0,0:0:0:0:
400,192,187097,1,0,0:0:0:0:
400,192,187208,6,0,P|413:116|302:71,1,195.00000743866,4|8,0:0|0:0,0:0:0:0:
246,127,187869,1,2,0:0:0:0:
149,113,188090,2,0,P|104:103|21:131,1,97.50000371933,4|2,0:0|0:0,0:0:0:0:
6,197,188531,1,8,0:0:0:0:
6,197,188752,1,2,0:0:0:0:
53,282,188972,6,0,B|101:297|101:297|149:288,1,97.50000371933,4|2,0:0|0:0,0:0:0:0:
244,277,189413,1,8,0:0:0:0:
342,277,189634,1,2,0:0:0:0:
391,195,189855,2,0,P|368:183|284:204,1,97.50000371933,4|2,0:0|0:0,0:0:0:0:
297,359,190296,2,0,P|319:370|407:344,1,97.50000371933,8|2,0:0|0:0,0:0:0:0:
420,278,190737,6,0,P|471:227|426:114,1,195.00000743866,4|8,0:0|0:0,0:0:0:0:
351,137,191399,1,2,0:0:0:0:
268,165,191619,2,0,L|148:171,1,97.50000371933,4|2,0:0|0:0,0:0:0:0:
119,97,192061,2,0,L|239:91,1,97.50000371933,8|2,0:0|0:0,0:0:0:0:
300,65,192502,5,4,0:0:0:0:
377,106,192722,1,2,0:0:0:0:
388,193,192943,1,8,0:0:0:0:
330,259,193163,1,2,0:0:0:0:
260,205,193384,2,0,P|205:188|148:253,1,97.50000371933,4|2,0:0|0:0,0:0:0:0:
83,205,193825,2,0,P|103:262|167:292,1,97.50000371933,8|2,0:0|0:0,0:0:0:0:
218,278,194266,6,0,P|333:252|329:150,1,195.00000743866,4|8,0:0|0:0,0:0:0:0:
301,116,194928,1,2,0:0:0:0:
216,92,195149,2,0,P|214:142|253:190,2,97.50000371933,4|2|8,0:0|0:0|0:0,0:0:0:0:
277,28,195811,1,2,0:0:0:0:
301,116,196031,6,0,P|352:132|410:102,1,97.50000371933,4|2,0:0|0:0,0:0:0:0:
501,197,196472,2,0,P|450:181|392:211,1,97.50000371933,8|2,0:0|0:0,0:0:0:0:
336,240,196913,1,4,0:0:0:0:
272,300,197134,1,2,0:0:0:0:
184,300,197355,1,8,0:0:0:0:
124,240,197575,1,2,0:0:0:0:
83,161,197796,6,0,P|34:253|88:322,1,195.00000743866,4|8,0:0|0:0,0:0:0:0:
167,329,198458,1,2,0:0:0:0:
207,251,198678,2,0,P|255:242|329:255,1,97.50000371933,4|2,0:0|0:0,0:0:0:0:
352,319,199119,2,0,P|400:328|474:315,1,97.50000371933,8|2,0:0|0:0,0:0:0:0:
485,243,199561,5,4,0:0:0:0:
485,243,199781,1,2,0:0:0:0:
457,159,200002,1,8,0:0:0:0:
457,159,200222,1,2,0:0:0:0:
410,84,200443,2,0,P|361:79|313:88,1,97.50000371933,4|2,0:0|0:0,0:0:0:0:
272,165,200884,2,0,P|223:169|175:160,1,97.50000371933,8|2,0:0|0:0,0:0:0:0:
109,102,201325,6,0,P|20:141|46:265,1,195.00000743866,4|8,0:0|0:0,0:0:0:0:
88,275,201987,1,2,0:0:0:0:
164,232,202208,2,0,L|337:227,1,97.50000371933,4|2,0:0|0:0,0:0:0:0:
296,148,202649,2,0,L|123:153,1,97.50000371933,8|2,0:0|0:0,0:0:0:0:
118,115,203090,5,4,0:0:0:0:
61,182,203311,1,2,0:0:0:0:
83,266,203531,1,8,0:0:0:0:
162,302,203752,1,2,0:0:0:0:
249,308,203972,2,0,P|349:303|383:253,1,97.50000371933,4|2,0:0|0:0,0:0:0:0:
393,236,204413,2,0,P|293:241|259:291,1,97.50000371933,8|2,0:0|0:0,0:0:0:0:
212,225,204855,6,0,P|94:130|137:36,2,195.00000743866,4|8|4,0:0|0:0|0:0,0:0:0:0:
291,186,205958,1,2,0:0:0:0:
359,241,206178,2,0,P|333:334|271:359,1,97.50000371933,8|2,0:0|0:0,0:0:0:0:
248,332,206619,6,0,B|154:352|154:352|-20:316,2,195.00000743866,4|8|4,0:0|0:0|0:0,0:0:0:0:
299,258,207722,1,2,0:0:0:0:
202,270,207943,2,0,B|155:280|155:280|35:255,1,97.50000371933,8|2,0:0|0:0,0:0:0:0:
41,210,208384,6,0,P|67:97|201:66,1,195.00000743866,4|8,0:0|0:0,0:0:0:0:
213,85,209046,1,2,0:0:0:0:
293,118,209266,2,0,P|197:166|153:122,1,97.50000371933,4|2,0:0|0:0,0:0:0:0:
151,227,209708,2,0,P|131:162|161:103,1,97.50000371933,8|2,0:0|0:0,0:0:0:0:
213,85,210149,5,4,0:0:0:0:
213,85,210369,1,2,0:0:0:0:
293,118,210590,2,0,L|445:129,1,97.50000371933,8|2,0:0|0:0,0:0:0:0:
428,204,211031,2,0,L|276:193,1,97.50000371933,4|2,0:0|0:0,0:0:0:0:
257,245,211472,2,0,P|153:256|101:218,1,97.50000371933,8|2,0:0|0:0,0:0:0:0:
105,325,211913,6,0,P|80:229|187:174,1,195.00000743866,4|8,0:0|0:0,0:0:0:0:
226,203,212575,1,2,0:0:0:0:
306,238,212796,2,0,P|320:211|260:112,1,97.50000371933,4|2,0:0|0:0,0:0:0:0:
266,70,213237,1,8,0:0:0:0:
266,70,213458,1,2,0:0:0:0:
349,42,213678,6,0,L|488:52,1,97.50000371933,4|2,0:0|0:0,0:0:0:0:
494,133,214119,2,0,L|355:123,1,97.50000371933,8|2,0:0|0:0,0:0:0:0:
336,203,214561,2,0,L|475:213,1,97.50000371933,4|2,0:0|0:0,0:0:0:0:
481,294,215002,2,0,L|342:284,1,97.50000371933,8|2,0:0|0:0,0:0:0:0:
256,192,215443,12,4,217208,0:0:0:0:
