osu file format v14

[General]
AudioFilename: Mig - Ta Malutka Blondynka 2016 [www.nowosci-mp3.eu].mp3
AudioLeadIn: 0
PreviewTime: 23972
Countdown: 0
SampleSet: Soft
StackLeniency: 0.7
Mode: 0
LetterboxInBreaks: 0
WidescreenStoryboard: 0

[Editor]
Bookmarks: 68958,143076
DistanceSpacing: 1.3
BeatDivisor: 2
GridSize: 8
TimelineZoom: 2.000005

[Metadata]
Title:Ta Malutka Blondynka
TitleUnicode:Ta Malutka Blondynka
Artist:Mig
ArtistUnicode:Mig
Creator:deadpon3
Version:Normalny
Source:
Tags:disco polo polish dance eletronic
BeatmapID:1074053
BeatmapSetID:502592

[Difficulty]
HPDrainRate:3
CircleSize:3
OverallDifficulty:4
ApproachRate:5
SliderMultiplier:1.2
SliderTickRate:1

[Events]
//Background and Video events
0,0,"readme.jpg",0,0
Video,0,"cycki.avi"
//Break Periods
2,83290,88949
2,157408,163066
//Storyboard Layer 0 (Background)
//Storyboard Layer 1 (Fail)
//Storyboard Layer 2 (Pass)
//Storyboard Layer 3 (Foreground)
//Storyboard Sound Samples

[TimingPoints]
1914,441.176470588235,4,2,1,69,1,0
24855,-100,4,2,1,69,0,1
53090,-100,4,2,1,69,0,0
97208,-100,4,2,1,5,0,0
98972,-100,4,2,1,69,0,1
127208,-100,4,2,1,69,0,0
187208,-100,4,2,1,69,0,1
215443,-100,4,2,1,69,0,0

[Colours]
Combo1 : 216,0,221
Combo2 : 128,0,255
Combo3 : 0,255,255
Combo4 : 64,0,128

[HitObjects]
68,330,1914,5,0,0:0:0:0:
58,186,2355,2,0,P|64:142|102:110,1,60,2|0,0:0|0:0,0:0:0:0:
143,113,2796,2,0,P|207:133|255:97,1,120,0|2,0:0|0:0,0:0:0:0:
384,58,3678,5,0,0:0:0:0:
431,193,4119,2,0,P|459:244|442:300,1,120,2|2,0:0|0:0,0:0:0:0:
308,252,5002,1,2,0:0:0:0:
236,252,5222,1,0,0:0:0:0:
163,252,5443,6,0,P|149:181|178:142,1,120,2|0,0:0|0:0,0:0:0:0:
233,104,6105,2,0,L|110:106,1,120,2|2,0:0|0:0,0:0:0:0:
256,192,7208,12,0,8972,0:0:0:0:
38,118,9855,5,2,0:0:0:0:
181,102,10296,1,0,0:0:0:0:
126,235,10737,2,0,P|218:248|255:216,1,120,2|2,0:0|0:0,0:0:0:0:
267,171,11399,1,0,0:0:0:0:
328,136,11619,2,0,P|384:120|424:136,1,60,2|0,0:0|0:0,0:0:0:0:
447,154,12061,2,0,P|454:182|448:212,1,60,2|0,0:0|0:0,0:0:0:0:
428,280,12502,6,0,P|347:313|309:282,1,120,2|0,0:0|0:0,0:0:0:0:
214,208,13384,1,2,0:0:0:0:
149,336,13825,1,0,0:0:0:0:
40,241,14266,6,0,B|4:192|4:192|0:117,1,120,2|2,0:0|0:0,0:0:0:0:
62,95,14928,1,0,0:0:0:0:
131,116,15149,2,0,P|174:124|227:108,1,60,2|0,0:0|0:0,0:0:0:0:
258,100,15590,2,0,P|291:95|334:111,1,60,2|0,0:0|0:0,0:0:0:0:
384,128,16031,6,0,B|401:184|401:184|384:251,1,120,4|8,0:0|0:0,0:0:0:0:
264,321,16913,2,0,B|247:265|247:265|264:198,1,120,4|8,0:0|0:0,0:0:0:0:
323,74,17796,5,4,0:0:0:0:
441,156,18237,2,0,P|456:200|452:248,1,60,8|0,0:0|0:0,0:0:0:0:
440,283,18678,2,0,P|325:323|286:310,1,120,4|8,0:0|0:0,0:0:0:0:
226,224,19561,6,0,B|168:208|168:208|109:219,1,120,4|8,0:0|0:0,0:0:0:0:
23,335,20443,2,0,B|81:351|81:351|139:339,1,120,4|8,0:0|0:0,0:0:0:0:
277,297,21325,6,0,P|313:235|291:162,1,120,4|8,0:0|0:0,0:0:0:0:
168,151,22208,2,0,P|136:202|143:264,1,120,4|8,0:0|0:0,0:0:0:0:
230,372,23090,5,0,0:0:0:0:
208,96,24855,6,0,B|176:112|176:112|128:112|128:112|80:128,1,120,4|8,0:0|0:0,0:0:0:0:
37,177,25516,1,2,0:0:0:0:
40,255,25737,2,0,P|73:295|108:311,1,60,0|2,0:0|0:0,0:0:0:0:
157,301,26178,1,8,0:0:0:0:
209,154,26619,6,0,P|202:125|216:76,1,60,4|2,0:0|0:0,0:0:0:0:
283,78,27061,2,0,P|311:86|344:126,1,60,8|2,0:0|0:0,0:0:0:0:
360,180,27502,2,0,P|373:273|320:321,1,120,4|8,0:0|0:0,0:0:0:0:
206,282,28384,6,0,P|146:266|102:224,2,120,4|8|4,0:0|0:0|0:0,0:0:0:0:
361,263,29708,1,8,0:0:0:0:
477,158,30149,6,0,P|481:100|448:51,1,120,4|8,0:0|0:0,0:0:0:0:
292,52,31031,2,0,P|258:100|263:159,1,120,4|8,0:0|0:0,0:0:0:0:
365,291,31913,6,0,P|326:334|268:342,1,120,4|8,0:0|0:0,0:0:0:0:
191,330,32575,1,2,0:0:0:0:
113,343,32796,2,0,P|88:328|72:303,1,60,4|2,0:0|0:0,0:0:0:0:
76,224,33237,1,8,0:0:0:0:
177,105,33678,6,0,P|219:110|271:140,1,60,4|2,0:0|0:0,0:0:0:0:
310,139,34119,2,0,P|347:147|388:140,1,60,8|2,0:0|0:0,0:0:0:0:
444,165,34561,2,0,P|469:236|453:291,1,120,4|8,0:0|0:0,0:0:0:0:
307,310,35443,6,0,P|260:332|188:307,2,120,4|8|4,0:0|0:0|0:0,0:0:0:0:
459,277,36766,1,8,0:0:0:0:
393,133,37208,6,0,P|336:116|277:119,1,120,4|8,0:0|0:0,0:0:0:0:
122,143,38090,2,0,P|95:205|124:249,1,120,4|8,0:0|0:0,0:0:0:0:
273,277,38972,6,0,P|332:279|389:262,1,120,4|8,0:0|0:0,0:0:0:0:
438,202,39634,1,2,0:0:0:0:
460,127,39855,2,0,P|456:88|441:60,1,60,4|2,0:0|0:0,0:0:0:0:
382,27,40296,1,8,0:0:0:0:
246,104,40737,6,0,L|186:109,1,60,4|2,0:0|0:0,0:0:0:0:
174,187,41178,2,0,L|246:194,1,60,8|2,0:0|0:0,0:0:0:0:
296,239,41619,2,0,P|282:317|225:348,1,120,4|8,0:0|0:0,0:0:0:0:
110,275,42502,6,0,P|74:231|67:167,2,120,4|8|0,0:0|0:0|0:0,0:0:0:0:
252,340,43825,1,8,0:0:0:0:
396,280,44266,6,0,P|432:233|439:174,1,120,4|8,0:0|0:0,0:0:0:0:
326,68,45149,2,0,L|194:48,1,120,4|8,0:0|0:0,0:0:0:0:
63,109,46031,6,0,B|63:145|63:145|84:188|84:188|84:224,1,120,4|8,0:0|0:0,0:0:0:0:
71,301,46693,1,2,0:0:0:0:
138,340,46913,2,0,P|181:346|235:312,1,60,4|2,0:0|0:0,0:0:0:0:
261,297,47355,1,8,0:0:0:0:
392,212,47796,6,0,P|397:168|388:138,1,60,4|2,0:0|0:0,0:0:0:0:
321,124,48237,2,0,P|316:168|325:198,1,60,8|2,0:0|0:0,0:0:0:0:
246,214,48678,2,0,P|188:224|129:214,1,120,4|8,0:0|0:0,0:0:0:0:
69,70,49561,6,0,P|130:57|219:82,2,120,4|8|4,0:0|0:0|0:0,0:0:0:0:
20,218,50884,1,8,0:0:0:0:
133,324,51325,6,0,P|194:337|283:312,1,120,4|8,0:0|0:0,0:0:0:0:
370,228,52208,2,0,P|309:215|220:240,1,120,4|8,0:0|0:0,0:0:0:0:
98,249,53090,5,0,0:0:0:0:
33,231,54855,6,0,P|123:244|163:187,1,120,4|8,0:0|0:0,0:0:0:0:
244,129,55737,2,0,P|334:116|374:173,1,120,4|8,0:0|0:0,0:0:0:0:
394,187,56399,1,2,0:0:0:0:
432,246,56619,5,4,0:0:0:0:
309,319,57061,1,8,0:0:0:0:
176,288,57502,2,0,B|159:256|159:256|159:208|159:208|127:128,1,120,4|8,0:0|0:0,0:0:0:0:
288,144,58384,6,0,P|356:160|420:115,2,120,4|8|4,0:0|0:0|0:0,0:0:0:0:
151,96,59708,1,8,0:0:0:0:
82,118,59928,1,2,0:0:0:0:
53,184,60149,6,0,B|36:240|36:240|53:307,1,120,4|8,0:0|0:0,0:0:0:0:
189,340,61031,2,0,B|206:284|206:284|189:217,1,120,4|8,0:0|0:0,0:0:0:0:
272,106,61913,5,4,0:0:0:0:
400,176,62355,1,8,0:0:0:0:
458,307,62796,2,0,P|376:325|324:261,1,120,4|8,0:0|0:0,0:0:0:0:
292,265,63458,1,2,0:0:0:0:
238,218,63678,6,0,P|173:202|78:240,1,120,4|8,0:0|0:0,0:0:0:0:
29,323,64561,1,4,0:0:0:0:
168,359,65002,1,8,0:0:0:0:
281,266,65443,6,0,B|282:204|282:204|252:153,1,120,4|8,0:0|0:0,0:0:0:0:
109,145,66325,2,0,B|80:195|80:195|81:257,1,120,4|8,0:0|0:0,0:0:0:0:
142,295,66987,1,2,0:0:0:0:
206,328,67208,6,0,P|258:344|330:288,1,120,4|8,0:0|0:0,0:0:0:0:
452,275,68090,2,0,P|471:218|450:143,1,120,4|8,0:0|0:0,0:0:0:0:
351,66,68972,5,4,0:0:0:0:
328,208,69413,1,8,0:0:0:0:
242,324,69855,2,0,P|199:309|163:268,1,60,4|2,0:0|0:0,0:0:0:0:
145,242,70296,2,0,P|123:228|70:215,1,60,8|2,0:0|0:0,0:0:0:0:
29,180,70737,6,0,P|25:114|91:59,1,120,4|8,0:0|0:0,0:0:0:0:
127,81,71399,1,2,0:0:0:0:
196,99,71619,2,0,P|242:96|286:66,1,60,0|2,0:0|0:0,0:0:0:0:
325,79,72061,2,0,P|371:82|415:112,1,60,8|2,0:0|0:0,0:0:0:0:
441,129,72502,6,0,P|444:207|368:247,1,120,4|8,0:0|0:0,0:0:0:0:
277,206,73384,1,4,0:0:0:0:
133,217,73825,1,8,0:0:0:0:
137,289,74046,1,2,0:0:0:0:
197,328,74266,6,0,P|293:339|358:303,1,120,4|8,0:0|0:0,0:0:0:0:
443,270,75149,2,0,P|454:174|418:109,1,120,0|8,0:0|0:0,0:0:0:0:
340,58,76031,5,4,0:0:0:0:
191,104,76472,1,8,0:0:0:0:
237,240,76913,2,0,P|260:258|288:270,1,60,4|2,0:0|0:0,0:0:0:0:
360,263,77355,2,0,P|400:262|444:218,1,60,8|2,0:0|0:0,0:0:0:0:
468,202,77796,5,4,0:0:0:0:
350,118,78237,1,8,0:0:0:0:
220,180,78678,2,0,P|213:218|163:261,1,60,4|2,0:0|0:0,0:0:0:0:
137,202,79119,2,0,P|143:163|193:120,1,60,8|2,0:0|0:0,0:0:0:0:
129,78,79561,6,0,B|79:41|44:111|-25:42,2,120,4|8|0,0:0|0:0|0:0,0:0:0:0:
197,57,80663,1,2,0:0:0:0:
259,93,80884,1,8,0:0:0:0:
256,192,81325,12,4,83090,0:0:0:0:
170,257,90149,6,0,L|305:257,1,120,0|2,0:0|0:0,0:0:0:0:
423,309,91031,2,0,P|439:249|401:182,1,120,0|2,0:0|0:0,0:0:0:0:
341,161,91693,1,0,0:0:0:0:
341,161,91913,6,0,L|221:161,1,120,0|2,0:0|0:0,0:0:0:0:
111,68,92796,2,0,L|230:68,1,120,0|2,0:0|0:0,0:0:0:0:
385,98,93679,5,0,0:0:0:0:
328,230,94120,2,0,P|410:242|454:222,2,120,2|0|2,0:0|0:0|0:0,0:0:0:0:
256,192,95443,12,0,97208,0:0:0:0:
512,242,98972,6,0,P|443:261|373:198,1,120,4|8,0:0|0:0,0:0:0:0:
349,184,99634,1,2,0:0:0:0:
301,121,99855,2,0,P|262:91|222:80,1,60,0|2,0:0|0:0,0:0:0:0:
174,90,100296,1,8,0:0:0:0:
60,196,100737,6,0,P|47:237|51:287,1,60,4|2,0:0|0:0,0:0:0:0:
107,302,101178,2,0,P|121:260|118:210,1,60,8|2,0:0|0:0,0:0:0:0:
197,268,101619,2,0,P|249:296|308:298,1,120,4|8,0:0|0:0,0:0:0:0:
455,243,102502,6,0,P|467:317|451:368,2,120,4|8|4,0:0|0:0|0:0,0:0:0:0:
377,107,103825,1,8,0:0:0:0:
223,136,104266,6,0,P|185:182|180:282,1,120,4|8,0:0|0:0,0:0:0:0:
307,317,105149,2,0,P|300:245|270:191,1,120,4|8,0:0|0:0,0:0:0:0:
367,74,106031,6,0,P|353:164|384:206,1,120,4|8,0:0|0:0,0:0:0:0:
426,234,106693,1,2,0:0:0:0:
429,312,106913,2,0,P|393:340|333:338,1,60,4|2,0:0|0:0,0:0:0:0:
307,317,107355,1,8,0:0:0:0:
166,249,107796,6,0,L|107:237,1,60,4|2,0:0|0:0,0:0:0:0:
85,162,108237,2,0,L|143:150,1,60,8|2,0:0|0:0,0:0:0:0:
218,126,108678,2,0,P|249:190|243:253,1,120,4|8,0:0|0:0,0:0:0:0:
121,330,109561,6,0,P|52:314|13:228,2,120,4|8|4,0:0|0:0|0:0,0:0:0:0:
247,237,110884,1,8,0:0:0:0:
371,330,111325,6,0,P|429:320|470:278,1,120,4|8,0:0|0:0,0:0:0:0:
479,122,112208,2,0,P|452:69|399:43,1,120,4|8,0:0|0:0,0:0:0:0:
266,125,113090,6,0,P|188:139|111:107,1,120,4|8,0:0|0:0,0:0:0:0:
75,105,113752,1,2,0:0:0:0:
35,172,113972,2,0,P|38:219|61:251,1,60,4|2,0:0|0:0,0:0:0:0:
103,280,114413,1,8,0:0:0:0:
241,352,114855,6,0,B|271:364|271:364|304:364,1,60,4|2,0:0|0:0,0:0:0:0:
359,314,115296,2,0,L|359:243,1,60,8|2,0:0|0:0,0:0:0:0:
339,178,115737,2,0,P|356:122|336:67,1,120,4|8,0:0|0:0,0:0:0:0:
180,67,116619,6,0,P|160:122|177:178,2,120,4|8|4,0:0|0:0|0:0,0:0:0:0:
336,67,117943,1,8,0:0:0:0:
429,191,118384,6,0,P|403:243|350:269,1,120,4|8,0:0|0:0,0:0:0:0:
210,202,119266,2,0,P|155:167|87:174,1,120,4|8,0:0|0:0,0:0:0:0:
25,305,120149,6,0,P|77:332|136:327,1,120,4|8,0:0|0:0,0:0:0:0:
208,296,120811,1,2,0:0:0:0:
274,337,121031,2,0,P|311:345|352:334,1,60,4|2,0:0|0:0,0:0:0:0:
396,296,121472,1,8,0:0:0:0:
470,158,121913,6,0,P|456:112|422:79,1,60,4|2,0:0|0:0,0:0:0:0:
370,100,122355,2,0,P|384:146|418:179,1,60,8|2,0:0|0:0,0:0:0:0:
330,206,122796,2,0,P|274:223|216:209,1,120,4|8,0:0|0:0,0:0:0:0:
93,113,123678,6,0,P|65:169|64:241,2,120,4|8|4,0:0|0:0|0:0,0:0:0:0:
240,60,125002,1,8,0:0:0:0:
380,128,125443,6,0,P|417:181|406:260,1,120,4|8,0:0|0:0,0:0:0:0:
298,335,126325,2,0,P|239:307|209:233,1,120,4|8,0:0|0:0,0:0:0:0:
177,109,127208,5,0,0:0:0:0:
457,177,128972,6,0,P|379:148|311:192,1,120,4|8,0:0|0:0,0:0:0:0:
268,279,129855,2,0,P|190:308|122:264,1,120,4|8,0:0|0:0,0:0:0:0:
106,248,130516,1,2,0:0:0:0:
93,176,130737,5,4,0:0:0:0:
207,89,131178,1,8,0:0:0:0:
312,196,131619,2,0,L|472:212,1,120,4|8,0:0|0:0,0:0:0:0:
397,67,132502,6,0,L|237:51,1,120,4|8,0:0|0:0,0:0:0:0:
145,112,133384,2,0,P|118:207|168:239,1,120,4|8,0:0|0:0,0:0:0:0:
173,266,134046,1,2,0:0:0:0:
242,246,134266,5,4,0:0:0:0:
386,212,134708,1,8,0:0:0:0:
379,68,135149,2,0,B|315:68|315:68|259:100,1,120,4|8,0:0|0:0,0:0:0:0:
235,227,136031,5,4,0:0:0:0:
120,314,136472,1,8,0:0:0:0:
48,192,136913,2,0,B|48:128|48:128|80:64,1,120,4|8,0:0|0:0,0:0:0:0:
140,52,137575,1,2,0:0:0:0:
209,70,137796,6,0,B|209:134|209:134|177:198,1,120,4|8,0:0|0:0,0:0:0:0:
247,313,138678,2,0,P|327:345|385:301,1,120,4|8,0:0|0:0,0:0:0:0:
440,219,139561,6,0,P|384:172|305:171,1,120,4|8,0:0|0:0,0:0:0:0:
238,86,140443,2,0,B|188:49|188:49|128:48,1,120,4|8,0:0|0:0,0:0:0:0:
68,85,141104,1,2,0:0:0:0:
29,146,141325,6,0,B|31:206|31:206|78:242,1,120,4|8,0:0|0:0,0:0:0:0:
200,319,142208,2,0,P|222:265|218:202,1,120,4|8,0:0|0:0,0:0:0:0:
116,103,143090,5,4,0:0:0:0:
78,242,143531,1,8,0:0:0:0:
200,319,143972,2,0,P|246:303|286:310,1,60,4|2,0:0|0:0,0:0:0:0:
328,294,144413,2,0,P|367:259|375:219,1,60,8|2,0:0|0:0,0:0:0:0:
414,195,144855,6,0,P|397:139|340:77,1,120,4|8,0:0|0:0,0:0:0:0:
288,103,145516,1,2,0:0:0:0:
242,159,145737,2,0,P|212:163|182:159,1,60,0|2,0:0|0:0,0:0:0:0:
133,106,146177,1,8,0:0:0:0:
59,101,146398,1,2,0:0:0:0:
16,159,146619,6,0,P|35:268|81:287,1,120,4|8,0:0|0:0,0:0:0:0:
150,354,147502,1,4,0:0:0:0:
256,256,147943,2,0,P|286:245|333:249,1,60,8|2,0:0|0:0,0:0:0:0:
380,271,148384,6,0,P|424:193|409:142,1,120,4|8,0:0|0:0,0:0:0:0:
326,58,149266,2,0,P|257:72|199:55,1,120,4|8,0:0|0:0,0:0:0:0:
66,48,150149,5,4,0:0:0:0:
46,191,150590,1,8,0:0:0:0:
180,245,151031,2,0,P|234:252|272:236,1,60,0|2,0:0|0:0,0:0:0:0:
309,234,151472,2,0,P|347:228|382:241,1,60,8|2,0:0|0:0,0:0:0:0:
439,239,151913,6,0,P|467:149|450:110,1,120,4|8,0:0|0:0,0:0:0:0:
327,72,152796,2,0,P|305:39|242:19,1,60,4|2,0:0|0:0,0:0:0:0:
242,84,153237,2,0,P|262:117|325:137,1,60,8|2,0:0|0:0,0:0:0:0:
283,201,153679,6,0,B|251:254|191:203|155:294,2,120,4|8|4,0:0|0:0|0:0,0:0:0:0:
354,191,154781,1,2,0:0:0:0:
411,233,155002,1,8,0:0:0:0:
256,192,155443,12,4,157208,0:0:0:0:
342,127,164266,6,0,L|207:127,1,120,0|2,0:0|0:0,0:0:0:0:
89,75,165148,2,0,P|73:135|111:202,1,120,0|2,0:0|0:0,0:0:0:0:
171,223,165810,1,0,0:0:0:0:
171,223,166030,6,0,L|291:223,1,120,0|2,0:0|0:0,0:0:0:0:
401,316,166913,2,0,L|282:316,1,120,0|2,0:0|0:0,0:0:0:0:
127,286,167796,5,0,0:0:0:0:
184,154,168237,2,0,P|102:142|58:162,2,120,2|0|2,0:0|0:0|0:0,0:0:0:0:
256,192,169561,12,4,171325,0:0:0:0:
361,165,173090,5,4,0:0:0:0:
418,297,173531,2,0,P|336:309|292:289,1,120,0|8,0:0|0:0,0:0:0:0:
62,143,174855,5,4,0:0:0:0:
194,199,175296,2,0,P|212:142|168:65,1,120,0|8,0:0|0:0,0:0:0:0:
476,130,176619,5,4,0:0:0:0:
405,255,177061,2,0,L|277:267,1,120,0|8,0:0|0:0,0:0:0:0:
67,78,178384,2,0,P|133:56|195:90,2,120,4|0|8,0:0|0:0|0:0,0:0:0:0:
70,366,180149,5,4,0:0:0:0:
192,290,180590,1,8,0:0:0:0:
325,236,181031,2,0,L|435:230,1,60,4|2,0:0|0:0,0:0:0:0:
386,160,181472,2,0,L|276:154,1,60,8|2,0:0|0:0,0:0:0:0:
255,141,181913,6,0,P|155:137|138:182,1,120,4|8,0:0|0:0,0:0:0:0:
152,285,182796,2,0,P|203:311|255:285,1,120,4|8,0:0|0:0,0:0:0:0:
256,192,183678,12,4,185443,0:0:0:0:
423,117,187208,6,0,P|449:188|433:245,1,120,4|8,0:0|0:0,0:0:0:0:
383,281,187869,1,2,0:0:0:0:
307,302,188090,2,0,P|263:296|235:270,1,60,4|2,0:0|0:0,0:0:0:0:
217,216,188531,1,8,0:0:0:0:
144,78,188972,6,0,P|124:40|85:10,1,60,4|2,0:0|0:0,0:0:0:0:
35,40,189413,2,0,P|27:81|39:129,1,60,8|2,0:0|0:0,0:0:0:0:
87,152,189855,2,0,P|73:228|99:298,1,120,4|8,0:0|0:0,0:0:0:0:
223,336,190737,6,0,P|288:317|323:276,2,120,4|8|4,0:0|0:0|0:0,0:0:0:0:
82,268,192061,1,8,0:0:0:0:
79,112,192502,6,0,B|127:64|127:64|183:64,1,120,4|8,0:0|0:0,0:0:0:0:
334,64,193384,2,0,B|387:64|387:64|435:112,1,120,4|8,0:0|0:0,0:0:0:0:
499,253,194266,6,0,P|422:267|342:236,1,120,4|8,0:0|0:0,0:0:0:0:
322,207,194928,1,2,0:0:0:0:
258,161,195149,2,0,P|212:141|179:148,1,60,4|2,0:0|0:0,0:0:0:0:
130,169,195590,1,8,0:0:0:0:
36,293,196031,6,0,P|62:339|90:357,1,60,4|2,0:0|0:0,0:0:0:0:
144,333,196472,2,0,P|177:323|232:342,1,60,8|2,0:0|0:0,0:0:0:0:
279,333,196913,2,0,P|338:339|393:318,1,120,4|8,0:0|0:0,0:0:0:0:
329,175,197796,6,0,P|273:139|195:138,2,120,4|8|4,0:0|0:0|0:0,0:0:0:0:
470,239,199119,1,8,0:0:0:0:
351,340,199561,6,0,L|231:339,1,120,4|8,0:0|0:0,0:0:0:0:
80,299,200443,2,0,P|68:235|91:159,1,120,4|8,0:0|0:0,0:0:0:0:
180,63,201325,6,0,P|242:51|314:69,1,120,4|8,0:0|0:0,0:0:0:0:
356,113,201987,1,2,0:0:0:0:
397,179,202208,2,0,P|409:223|406:268,1,60,4|2,0:0|0:0,0:0:0:0:
368,303,202649,1,8,0:0:0:0:
215,334,203090,6,0,P|180:289|183:246,1,60,4|2,0:0|0:0,0:0:0:0:
175,209,203531,2,0,P|173:176|160:141,1,60,8|2,0:0|0:0,0:0:0:0:
145,74,203972,2,0,P|73:65|27:133,1,120,4|8,0:0|0:0,0:0:0:0:
24,249,204855,6,0,B|25:320|25:320|73:368,2,120,4|8|4,0:0|0:0|0:0,0:0:0:0:
175,209,206178,1,8,0:0:0:0:
309,288,206619,6,0,P|367:298|426:288,1,120,4|8,0:0|0:0,0:0:0:0:
427,131,207502,2,0,P|368:120|309:131,1,120,4|8,0:0|0:0,0:0:0:0:
175,209,208384,6,0,P|108:194|81:152,1,120,4|8,0:0|0:0,0:0:0:0:
96,76,209046,1,2,0:0:0:0:
162,35,209266,2,0,P|201:32|260:73,1,60,4|2,0:0|0:0,0:0:0:0:
254,109,209708,1,8,0:0:0:0:
334,242,210149,6,0,P|320:283|285:310,1,60,4|2,0:0|0:0,0:0:0:0:
237,322,210590,2,0,P|192:341|150:392,1,60,8|2,0:0|0:0,0:0:0:0:
106,338,211031,2,0,P|57:244|79:209,1,120,4|8,0:0|0:0,0:0:0:0:
185,150,211913,6,0,B|217:102|217:102|217:22,2,120,4|8|4,0:0|0:0|0:0,0:0:0:0:
58,241,213237,1,8,0:0:0:0:
185,330,213678,6,0,P|249:344|318:327,1,120,4|8,0:0|0:0,0:0:0:0:
373,302,214340,1,2,0:0:0:0:
423,242,214561,2,0,P|429:212|414:159,1,60,4|2,0:0|0:0,0:0:0:0:
373,125,215002,1,8,0:0:0:0:
256,192,215443,12,4,217208,0:0:0:0:
