osu file format v14

[General]
AudioFilename: Mig - Ta Malutka Blondynka 2016 [www.nowosci-mp3.eu].mp3
AudioLeadIn: 0
PreviewTime: 23972
Countdown: 0
SampleSet: Soft
StackLeniency: 0.7
Mode: 0
LetterboxInBreaks: 0
WidescreenStoryboard: 0

[Editor]
Bookmarks: 68958,143076
DistanceSpacing: 1
BeatDivisor: 1
GridSize: 8
TimelineZoom: 1.700005

[Metadata]
Title:Ta Malutka Blondynka
TitleUnicode:Ta Malutka Blondynka
Artist:Mig
ArtistUnicode:Mig
Creator:deadpon3
Version:Banalny
Source:
Tags:disco polo polish dance eletronic
BeatmapID:1074556
BeatmapSetID:502592

[Difficulty]
HPDrainRate:2
CircleSize:2.5
OverallDifficulty:2
ApproachRate:3
SliderMultiplier:0.9
SliderTickRate:1

[Events]
//Background and Video events
0,0,"readme.jpg",0,0
Video,0,"cycki.avi"
//Break Periods
2,83290,88709
2,157408,162826
//Storyboard Layer 0 (Background)
//Storyboard Layer 1 (Fail)
//Storyboard Layer 2 (Pass)
//Storyboard Layer 3 (Foreground)
//Storyboard Sound Samples

[TimingPoints]
1914,441.176470588235,4,2,1,69,1,0
24855,-100,4,2,1,69,0,1
53090,-100,4,2,1,69,0,0
97208,-100,4,2,1,5,0,0
98972,-100,4,2,1,69,0,1
127208,-100,4,2,1,69,0,0
187208,-100,4,2,1,69,0,1
215443,-100,4,2,1,69,0,0

[Colours]
Combo1 : 216,0,221
Combo2 : 128,0,255
Combo3 : 0,255,255
Combo4 : 64,0,128

[HitObjects]
53,159,1914,6,0,P|108:172|162:152,1,90,0|2,0:0|0:0,0:0:0:0:
223,131,2796,2,0,P|271:120|318:142,1,90,0|2,0:0|0:0,0:0:0:0:
377,190,3678,2,0,P|363:288|268:311,1,180,0|2,0:0|0:0,0:0:0:0:
123,270,5443,6,0,P|68:253|33:201,1,90,2|0,0:0|0:0,0:0:0:0:
44,140,6325,2,0,P|98:156|133:208,1,90,2|0,0:0|0:0,0:0:0:0:
256,192,7208,12,0,8972,0:0:0:0:
352,312,10737,6,0,P|408:322|455:303,1,90,2|2,0:0|0:0,0:0:0:0:
450,224,11619,2,0,P|394:214|337:235,1,90,2|2,0:0|0:0,0:0:0:0:
276,248,12502,6,0,P|176:260|111:188,1,180,2|2,0:0|0:0,0:0:0:0:
13,67,14266,2,0,P|70:85|127:66,1,90,2|0,0:0|0:0,0:0:0:0:
184,52,15149,2,0,P|231:66|267:102,1,90,2|0,0:0|0:0,0:0:0:0:
318,162,16031,6,0,L|430:162,2,90,4|8|4,0:0|0:0|0:0,0:0:0:0:
254,225,17355,1,8,0:0:0:0:
190,288,17796,2,0,P|115:320|12:245,1,180,4|4,0:0|0:0,0:0:0:0:
12,192,19119,1,8,0:0:0:0:
43,107,19561,6,0,P|106:99|151:117,1,90,4|8,0:0|0:0,0:0:0:0:
217,130,20443,2,0,P|256:134|318:119,1,90,4|8,0:0|0:0,0:0:0:0:
391,97,21325,2,0,P|424:166|369:264,2,180,4|4|0,0:0|0:0|0:0,0:0:0:0:
52,20,24855,6,0,B|12:110|12:110|56:205,1,180,4|4,0:0|0:0,0:0:0:0:
134,205,26178,1,8,0:0:0:0:
220,230,26619,2,0,P|260:229|305:230,2,45,4|2|8,0:0|0:0|0:0,0:0:0:0:
167,303,27502,1,0,0:0:0:0:
98,361,27943,1,8,0:0:0:0:
45,288,28384,6,0,P|25:243|27:199,1,90,4|8,0:0|0:0,0:0:0:0:
33,113,29266,1,4,0:0:0:0:
123,109,29708,1,8,0:0:0:0:
194,164,30149,2,0,P|239:171|298:155,1,90.0000034332277,4|8,0:0|0:0,0:0:0:0:
331,87,31031,2,0,P|374:78|419:85,1,90.0000034332277,4|8,0:0|0:0,0:0:0:0:
481,150,31913,6,0,P|494:234|412:306,1,180.000006866455,4|4,0:0|0:0,0:0:0:0:
351,264,33237,1,8,0:0:0:0:
278,212,33678,2,0,L|278:137,2,45,4|2|8,0:0|0:0|0:0,0:0:0:0:
225,285,34561,2,0,P|249:344|299:360,1,90,4|8,0:0|0:0,0:0:0:0:
359,359,35443,6,0,P|440:295|414:192,1,180,4|4,0:0|0:0,0:0:0:0:
390,148,36766,1,8,0:0:0:0:
300,135,37208,2,0,P|317:203|354:232,2,90,4|8|4,0:0|0:0|0:0,0:0:0:0:
358,66,38531,1,8,0:0:0:0:
447,55,38972,6,0,B|479:135|479:135|465:236,1,180,4|4,0:0|0:0,0:0:0:0:
405,294,40296,1,8,0:0:0:0:
348,224,40737,2,0,L|337:146,2,45,4|2|8,0:0|0:0|0:0,0:0:0:0:
296,297,41619,2,0,P|234:304|199:286,1,90.0000034332277,4|8,0:0|0:0,0:0:0:0:
169,213,42502,6,0,P|214:114|314:129,1,180.000006866455,4|4,0:0|0:0,0:0:0:0:
352,155,43825,1,8,0:0:0:0:
417,217,44266,2,0,L|513:217,2,90.0000034332277,4|8|4,0:0|0:0|0:0,0:0:0:0:
352,280,45590,1,8,0:0:0:0:
334,368,46031,6,0,P|266:304|298:208,1,180,4|4,0:0|0:0,0:0:0:0:
347,166,47355,1,8,0:0:0:0:
435,183,47796,2,0,L|484:168,2,45,4|2|8,0:0|0:0|0:0,0:0:0:0:
377,252,48678,2,0,P|352:301|356:345,1,90,4|8,0:0|0:0,0:0:0:0:
263,337,49561,6,0,P|133:264|129:162,1,180,4|4,0:0|0:0,0:0:0:0:
157,160,50884,1,8,0:0:0:0:
197,79,51325,2,0,P|254:56|312:73,1,90,4|8,0:0|0:0,0:0:0:0:
327,136,52208,2,0,L|327:248,2,90.0000034332277,4|8|0,0:0|0:0|0:0,0:0:0:0:
442,178,54855,6,0,L|352:178,1,90,4|8,0:0|0:0,0:0:0:0:
275,131,55737,2,0,P|263:184|285:239,1,90,4|8,0:0|0:0,0:0:0:0:
251,305,56619,2,0,P|199:318|132:265,1,90.0000034332277,4|8,0:0|0:0,0:0:0:0:
76,297,57502,2,0,P|61:245|86:193,1,90.0000034332277,4|8,0:0|0:0,0:0:0:0:
132,146,58384,6,0,P|251:126|325:160,1,180.000006866455,4|4,0:0|0:0,0:0:0:0:
356,219,59708,1,8,0:0:0:0:
292,282,60149,2,0,B|260:298|260:298|196:298,1,90.0000034332277,4|8,0:0|0:0,0:0:0:0:
150,227,61031,2,0,B|182:211|182:211|246:211,1,90.0000034332277,4|8,0:0|0:0,0:0:0:0:
308,157,61913,6,0,B|260:125|260:125|180:125|180:125|132:93,1,180.000006866455,4|4,0:0|0:0,0:0:0:0:
62,65,63237,1,8,0:0:0:0:
37,151,63678,2,0,P|30:248|141:234,1,180.000006866455,4|4,0:0|0:0,0:0:0:0:
180,240,65002,1,8,0:0:0:0:
262,204,65443,6,0,P|308:197|370:210,1,90.0000034332277,4|8,0:0|0:0,0:0:0:0:
373,290,66325,2,0,P|327:297|265:284,1,90.0000034332277,4|8,0:0|0:0,0:0:0:0:
201,326,67208,2,0,P|150:316|87:347,1,90,4|8,0:0|0:0,0:0:0:0:
43,272,68090,2,0,P|54:213|91:184,1,90,4|8,0:0|0:0,0:0:0:0:
149,144,68972,6,0,P|130:81|71:54,2,135,4|2|8,0:0|0:0|0:0,0:0:0:0:
202,217,70737,2,0,P|278:257|352:213,1,180.000006866455,4|0,0:0|0:0,0:0:0:0:
411,144,72061,1,8,0:0:0:0:
352,76,72502,6,0,P|297:72|248:99,1,90,4|8,0:0|0:0,0:0:0:0:
197,143,73384,2,0,P|203:203|147:260,1,90.0000034332277,4|8,0:0|0:0,0:0:0:0:
113,183,74266,2,0,P|105:137|121:88,1,90,4|8,0:0|0:0,0:0:0:0:
194,50,75149,1,0,0:0:0:0:
283,62,75590,1,8,0:0:0:0:
358,111,76031,6,0,P|378:169|317:259,2,135,4|2|8,0:0|0:0|0:0,0:0:0:0:
289,170,77796,2,0,P|211:211|124:198,1,180,6|6,0:0|0:0,0:0:0:0:
57,137,79119,1,8,0:0:0:0:
96,56,79561,2,0,P|177:20|263:40,1,180,6|6,0:0|0:0,0:0:0:0:
336,92,80884,1,8,0:0:0:0:
256,192,81325,12,4,83090,0:0:0:0:
33,229,90149,6,0,B|145:267|109:202|205:220|241:236,1,180
297,244,91472,1,2,0:0:0:0:
383,269,91913,2,0,P|321:331|230:304,1,180
211,226,93237,1,2,0:0:0:0:
240,141,93678,6,0,P|340:132|398:183,1,180
381,269,95002,1,2,0:0:0:0:
256,192,95443,12,0,97208,0:0:0:0:
399,220,98972,6,0,P|404:294|372:337,2,90.0000034332277,4|8|0,0:0|0:0|0:0,0:0:0:0:
321,174,100296,1,8,0:0:0:0:
234,198,100737,2,0,L|224:248,2,45,0|2|8,0:0|0:0|0:0,0:0:0:0:
220,109,101619,1,0,0:0:0:0:
293,56,102061,1,8,0:0:0:0:
356,120,102502,6,0,L|493:127,1,90.0000034332277,4|8,0:0|0:0,0:0:0:0:
466,212,103384,2,0,L|329:205,1,90.0000034332277,4|8,0:0|0:0,0:0:0:0:
302,258,104266,2,0,B|246:230|246:230|182:230|182:230|118:198,1,180,4|4,0:0|0:0,0:0:0:0:
187,133,105590,1,8,0:0:0:0:
276,143,106031,6,0,L|397:200,1,90.0000034332277,4|8,0:0|0:0,0:0:0:0:
414,251,106913,2,0,P|408:296|384:335,1,90,4|8,0:0|0:0,0:0:0:0:
300,303,107796,2,0,L|299:252,2,45,4|2|8,0:0|0:0|0:0,0:0:0:0:
215,332,108678,1,0,0:0:0:0:
152,266,109119,1,8,0:0:0:0:
167,177,109561,6,0,P|217:170|268:182,1,90.0000034332277,4|8,0:0|0:0,0:0:0:0:
344,193,110443,2,0,P|394:199|448:174,1,90.0000034332277,4|8,0:0|0:0,0:0:0:0:
466,104,111325,2,0,P|416:98|362:123,1,90.0000034332277,4|8,0:0|0:0,0:0:0:0:
289,104,112208,2,0,P|239:110|185:85,1,90.0000034332277,4|8,0:0|0:0,0:0:0:0:
114,79,113090,6,0,B|61:158|61:158|82:271,1,180,4|4,0:0|0:0,0:0:0:0:
154,288,114413,1,8,0:0:0:0:
221,228,114855,2,0,P|217:194|207:166,2,45,4|2|8,0:0|0:0|0:0,0:0:0:0:
268,305,115737,2,0,L|364:305,1,90.0000034332277,4|8,0:0|0:0,0:0:0:0:
446,318,116619,6,0,P|506:248|448:162,1,180,4|4,0:0|0:0,0:0:0:0:
405,119,117943,1,8,0:0:0:0:
336,177,118384,2,0,P|299:201|254:210,1,90,4|8,0:0|0:0,0:0:0:0:
165,217,119266,2,0,P|117:201|86:167,1,90,4|8,0:0|0:0,0:0:0:0:
55,90,120149,6,0,P|122:41|226:61,1,180
296,89,121472,1,8,0:0:0:0:
353,159,121913,2,0,L|330:210,2,45,4|2|8,0:0|0:0|0:0,0:0:0:0:
443,163,122796,2,0,B|460:114|460:114|451:69,1,90,4|8,0:0|0:0,0:0:0:0:
365,55,123678,6,0,B|317:39|317:39|237:39|237:39|189:55,1,180.000006866455,4|4,0:0|0:0,0:0:0:0:
120,111,125002,1,8,0:0:0:0:
62,180,125443,2,0,P|52:236|72:290,1,90.0000034332277,4|8,0:0|0:0,0:0:0:0:
136,315,126325,2,0,P|146:259|126:205,2,90.0000034332277,4|8|0,0:0|0:0|0:0,0:0:0:0:
424,266,128972,6,0,P|364:283|290:257,1,90,4|8,0:0|0:0,0:0:0:0:
258,322,129855,2,0,P|168:321|139:330,1,90,4|8,0:0|0:0,0:0:0:0:
87,283,130737,2,0,P|66:236|85:167,1,90,4|8,0:0|0:0,0:0:0:0:
138,141,131619,2,0,P|158:180|156:225,1,90,4|8,0:0|0:0,0:0:0:0:
186,310,132502,6,0,P|282:334|374:298,1,180.000006866455,4|4,0:0|0:0,0:0:0:0:
418,243,133825,1,8,0:0:0:0:
365,170,134266,2,0,P|317:162|249:182,1,90.0000034332277,4|8,0:0|0:0,0:0:0:0:
187,179,135149,2,0,P|179:227|199:295,1,90.0000034332277,4|8,0:0|0:0,0:0:0:0:
243,336,136031,6,0,B|300:308|300:308|365:308|365:308|435:272,1,180,4|4,0:0|0:0,0:0:0:0:
456,207,137355,1,8,0:0:0:0:
395,138,137796,2,0,P|353:126|308:131,1,90,4|8,0:0|0:0,0:0:0:0:
219,131,138678,2,0,P|174:126|131:138,1,90,4|8,0:0|0:0,0:0:0:0:
72,206,139561,6,0,P|60:268|169:364,1,180,4|4,0:0|0:0,0:0:0:0:
217,349,140884,1,8,0:0:0:0:
306,337,141325,2,0,P|364:330|411:296,1,90,4|8,0:0|0:0,0:0:0:0:
421,230,142208,2,0,P|360:190|323:202,1,90,4|8,0:0|0:0,0:0:0:0:
258,200,143090,6,0,P|191:181|158:90,2,135,4|2|8,0:0|0:0|0:0,0:0:0:0:
246,111,144855,2,0,P|320:65|394:126,1,180,4|0,0:0|0:0,0:0:0:0:
439,182,146178,1,8,0:0:0:0:
442,272,146619,6,0,P|389:283|341:268,1,90.0000034332277,4|8,0:0|0:0,0:0:0:0:
280,225,147502,2,0,P|226:216|179:235,1,90.0000034332277,4|8,0:0|0:0,0:0:0:0:
151,306,148384,2,0,P|204:314|251:295,1,90.0000034332277,4|8,0:0|0:0,0:0:0:0:
327,314,149266,2,0,P|368:274|379:216,1,90,0|8,0:0|0:0,0:0:0:0:
384,154,150149,6,0,P|303:88|256:87,2,135,4|2|8,0:0|0:0|0:0,0:0:0:0:
380,244,151913,2,0,P|351:325|268:354,1,180.000006866455,4|4,0:0|0:0,0:0:0:0:
184,320,153237,1,8,0:0:0:0:
169,231,153678,6,0,L|251:145,1,90.0000034332277,4|8,0:0|0:0,0:0:0:0:
193,83,154561,2,0,L|110:168,1,90.0000034332277,4|8,0:0|0:0,0:0:0:0:
256,192,155443,12,4,157208,0:0:0:0:
479,155,164266,6,0,B|367:117|403:182|307:164|271:148,1,180
215,140,165589,1,2,0:0:0:0:
129,115,166030,2,0,P|191:53|282:80,1,180
301,158,167354,1,2,0:0:0:0:
272,243,167795,6,0,P|172:252|114:201,1,180
131,115,169119,1,2,0:0:0:0:
256,192,169561,12,4,171325,0:0:0:0:
100,105,173090,6,0,P|64:189|121:272,1,180,4|8,0:0|0:0,0:0:0:0:
271,327,174855,2,0,L|469:326,1,180,4|8,0:0|0:0,0:0:0:0:
342,182,176619,6,0,L|162:182,1,180,4|8,0:0|0:0,0:0:0:0:
309,285,178384,2,0,P|475:256|477:208,1,180,4|8,0:0|0:0,0:0:0:0:
374,124,180149,6,0,P|297:129|249:89,1,90,4|8,0:0|0:0,0:0:0:0:
215,71,181031,2,0,P|138:66|90:106,1,90,4|8,0:0|0:0,0:0:0:0:
65,134,181913,2,0,P|72:249|184:281,1,180,4|4,0:0|0:0,0:0:0:0:
207,267,183237,1,8,0:0:0:0:
256,192,183678,12,4,185443,0:0:0:0:
178,364,187208,6,0,P|106:268|166:192,1,180,4|4,0:0|0:0,0:0:0:0:
201,178,188531,1,8,0:0:0:0:
263,243,188972,2,0,P|261:286|251:313,2,45,4|2|8,0:0|0:0|0:0,0:0:0:0:
348,213,189855,2,0,P|379:158|375:115,1,90,4|8,0:0|0:0,0:0:0:0:
338,53,190737,6,0,P|226:115|255:197,1,180.000006866455,4|4,0:0|0:0,0:0:0:0:
290,213,192061,1,8,0:0:0:0:
369,256,192502,2,0,P|292:303|201:231,1,180,4|4,0:0|0:0,0:0:0:0:
129,281,193825,1,8,0:0:0:0:
97,197,194266,6,0,L|5:187,1,90.0000034332277,4|8,0:0|0:0,0:0:0:0:
45,105,195149,2,0,L|137:115,1,90.0000034332277,4|8,0:0|0:0,0:0:0:0:
208,166,196031,2,0,L|185:224,2,45,4|2|8,0:0|0:0|0:0,0:0:0:0:
286,210,196913,2,0,P|351:174|362:153,1,90,4|8,0:0|0:0,0:0:0:0:
368,73,197796,6,0,P|333:44|287:41,1,90,4|8,0:0|0:0,0:0:0:0:
245,118,198678,2,0,P|188:121|125:88,1,90,4|8,0:0|0:0,0:0:0:0:
73,144,199561,2,0,B|73:192|73:192|105:256,1,90.0000034332277,4|8,0:0|0:0,0:0:0:0:
148,300,200443,2,0,B|188:309|188:309|225:340,1,90.0000034332277,4|8,0:0|0:0,0:0:0:0:
314,324,201325,6,0,P|385:235|289:165,1,180,4|4,0:0|0:0,0:0:0:0:
280,151,202649,1,8,0:0:0:0:
216,214,203090,2,0,L|216:260,2,45,4|2|8,0:0|0:0|0:0,0:0:0:0:
135,174,203972,2,0,P|129:139|162:65,1,90,4|8,0:0|0:0,0:0:0:0:
232,69,204855,6,0,P|336:76|374:162,1,180,4|4,0:0|0:0,0:0:0:0:
313,201,206178,1,8,0:0:0:0:
264,276,206619,2,0,P|220:280|151:258,2,90,4|8|4,0:0|0:0|0:0,0:0:0:0:
354,280,207943,1,8,0:0:0:0:
408,208,208384,6,0,P|374:128|289:108,1,180,4|0,0:0|0:0,0:0:0:0:
212,154,209708,1,8,0:0:0:0:
135,201,210149,2,0,L|85:201,2,45,4|2|8,0:0|0:0|0:0,0:0:0:0:
212,247,211031,1,4,0:0:0:0:
285,299,211472,1,8,0:0:0:0:
370,270,211913,6,0,P|425:204|404:120,1,180,4|4,0:0|0:0,0:0:0:0:
315,100,213237,1,8,0:0:0:0:
225,107,213678,2,0,P|178:129|145:174,1,90,4|8,0:0|0:0,0:0:0:0:
123,242,214561,2,0,P|90:281|38:302,1,90,4|8,0:0|0:0,0:0:0:0:
256,192,215443,12,4,217208,0:0:0:0:
