osu file format v14

[General]
AudioFilename: audio.ogg
AudioLeadIn: 0
PreviewTime: 51139
Countdown: 0
SampleSet: Soft
StackLeniency: 0.7
Mode: 3
LetterboxInBreaks: 0
SpecialStyle: 0
WidescreenStoryboard: 0

[Editor]
DistanceSpacing: 1.1
BeatDivisor: 4
GridSize: 8
TimelineZoom: 1.4

[Metadata]
Title:Ketsui no Hikari
TitleUnicode:決意の光
Artist:Mifune Shioriko (CV: Koizumi Moeka)
ArtistUnicode:三船栞子 (CV: 小泉萌香)
Creator:Mirsaaa
Version:Normal // Decision
Source:ラブライブ!虹ヶ咲学園スクールアイドル同好会
Tags:love live! school idol project nijigasaki academy club festival all stars llsifas video mobile game japanese LoveLive! ニジガク NijiGaku ラブライブ!スクールアイドルフェスティバル High School Gakuen Doukoukai Dōkōkai J-Rock JRock Rock Pop Jpop J-pop Just Believe!!! 中村 歩 Nakamura Ayumu 菊池博人 Kikuchi Hiroto
BeatmapID:4201324
BeatmapSetID:2017779

[Difficulty]
HPDrainRate:7.4
CircleSize:4
OverallDifficulty:7.4
ApproachRate:5
SliderMultiplier:1.4
SliderTickRate:1

[Events]
//Background and Video events
0,0,"BEGEH2.jpg",0,0
Video,-3793,"Video.mp4"
//Break Periods
//Storyboard Layer 0 (Background)
//Storyboard Layer 1 (Fail)
//Storyboard Layer 2 (Pass)
//Storyboard Layer 3 (Foreground)
//Storyboard Layer 4 (Overlay)
//Storyboard Sound Samples
Sample,6139,0,"Hat open.wav",40
Sample,6821,0,"Hat open.wav",40
Sample,7503,0,"Hat open.wav",40
Sample,8184,0,"Hat open.wav",40
Sample,8866,0,"Hat open.wav",40
Sample,9548,0,"Hat open.wav",40
Sample,10230,0,"Hat open.wav",40
Sample,11594,0,"Hat open.wav",40
Sample,12275,0,"Hat open.wav",40
Sample,12957,0,"Hat open.wav",40
Sample,13639,0,"Hat open.wav",40
Sample,14321,0,"Hat open.wav",40
Sample,15003,0,"Hat open.wav",40
Sample,16537,0,"Tom2.wav",40
Sample,18753,0,"Tom1.wav",40
Sample,29662,0,"Tom1.wav",40
Sample,30173,0,"Tom3.wav",40
Sample,45173,0,"Hat open.wav",40
Sample,47389,0,"soft-hitfinish.wav",25
Sample,48753,0,"Hat open.wav",40
Sample,49946,0,"Hat open.wav",40
Sample,50287,0,"Hat open.wav",40
Sample,52503,0,"Hat open.wav",40
Sample,52844,0,"Hat open.wav",40
Sample,53184,0,"Hat open.wav",40
Sample,53866,0,"Hat open.wav",40
Sample,54548,0,"Hat open.wav",40
Sample,55230,0,"Hat open.wav",40
Sample,55571,0,"Hat open.wav",40
Sample,55912,0,"Hat open.wav",40
Sample,56594,0,"Hat open.wav",40
Sample,57275,0,"Hat open.wav",40
Sample,57957,0,"Hat open.wav",40
Sample,58298,0,"Hat open.wav",40
Sample,58639,0,"Hat open.wav",40
Sample,59321,0,"Hat open.wav",40
Sample,59662,0,"Hat open.wav",40
Sample,60003,0,"Hat open.wav",40
Sample,63412,0,"Hat open.wav",40
Sample,63753,0,"Hat open.wav",40
Sample,64094,0,"Hat open.wav",40
Sample,64775,0,"Hat open.wav",40
Sample,65457,0,"Hat open.wav",40
Sample,66139,0,"Hat open.wav",40
Sample,66480,0,"Hat open.wav",40
Sample,66821,0,"Hat open.wav",40
Sample,67844,0,"Hat open.wav",40
Sample,74321,0,"Hat open.wav",40
Sample,75003,0,"Hat open.wav",40
Sample,75684,0,"Hat open.wav",40
Sample,76366,0,"Hat open.wav",40
Sample,77048,0,"Hat open.wav",40
Sample,77730,0,"Hat open.wav",40
Sample,78412,0,"Hat open.wav",40
Sample,79775,0,"Hat open.wav",40
Sample,80457,0,"Hat open.wav",40
Sample,81139,0,"Hat open.wav",40
Sample,81821,0,"Hat open.wav",40
Sample,82503,0,"Hat open.wav",40
Sample,83184,0,"Hat open.wav",40
Sample,84719,0,"Tom2.wav",40

[TimingPoints]
344,340.909090909091,4,2,1,40,1,0
52162,-100.0,4,2,1,40,0,1
71253,-100.0,4,2,1,40,0,0

[HitObjects]
448,192,344,1,0,0:0:0:40:Tom2.wav
64,192,514,1,0,0:0:0:0:
192,192,684,1,0,0:0:0:0:
448,192,855,1,0,0:0:0:40:Tom2.wav
64,192,1025,1,0,0:0:0:0:
192,192,1196,1,0,0:0:0:0:
448,192,1366,1,0,0:0:0:40:Tom2.wav
64,192,1537,1,0,0:0:0:0:
192,192,1707,1,0,0:0:0:0:
448,192,1878,1,0,0:0:0:40:Tom2.wav
64,192,2048,1,0,0:0:0:0:
192,192,2219,1,0,0:0:0:0:
448,192,2389,1,0,0:0:0:40:Tom2.wav
448,192,2559,1,0,0:0:0:40:Tom2.wav
64,192,2730,1,0,0:0:0:40:Tom2.wav
64,192,2900,128,0,3241:0:0:0:40:Tom2.wav
448,192,3241,1,0,0:0:0:0:
320,192,3412,1,0,0:0:0:0:
64,192,3582,1,0,0:0:0:40:Tom2.wav
448,192,3753,1,0,0:0:0:0:
320,192,3923,1,0,0:0:0:0:
64,192,4094,1,0,0:0:0:40:Tom2.wav
448,192,4264,1,0,0:0:0:0:
320,192,4434,1,0,0:0:0:0:
64,192,4605,1,0,0:0:0:40:Tom2.wav
448,192,4775,1,0,0:0:0:40:Tom2.wav
192,192,4946,1,0,0:0:0:40:Tom2.wav
448,192,5116,1,8,0:0:0:0:
320,192,5201,1,0,0:0:0:40:Tom1.wav
192,192,5287,1,0,0:0:0:40:Tom2.wav
64,192,5372,1,2,0:0:0:0:
320,192,5457,1,8,0:0:0:0:
448,192,5457,1,0,0:0:0:0:
64,192,5628,128,2,5969:0:0:0:0:
192,192,5628,1,4,0:0:0:0:
320,192,5969,1,2,0:0:0:0:
192,192,6139,1,8,0:0:0:0:
448,192,6309,1,0,0:0:0:0:
320,192,6480,1,2,0:0:0:0:
64,192,6650,1,2,0:0:0:0:
192,192,6821,1,8,0:0:0:0:
320,192,6991,1,2,0:0:0:0:
448,192,6991,128,4,7332:0:0:0:0:
192,192,7332,1,2,0:0:0:0:
320,192,7503,1,8,0:0:0:0:
64,192,7673,1,0,0:0:0:0:
192,192,7844,1,2,0:0:0:0:
448,192,8014,1,2,0:0:0:0:
320,192,8184,1,8,0:0:0:0:
64,192,8355,128,4,8696:0:0:0:0:
192,192,8355,1,2,0:0:0:0:
320,192,8696,1,2,0:0:0:0:
192,192,8866,1,8,0:0:0:0:
448,192,9037,1,0,0:0:0:0:
64,192,9207,1,2,0:0:0:0:
320,192,9378,1,2,0:0:0:0:
192,192,9548,1,8,0:0:0:0:
64,192,9719,1,2,0:0:0:0:
448,192,9719,128,4,10059:0:0:0:0:
320,192,10059,1,2,0:0:0:0:
64,192,10230,1,8,0:0:0:0:
448,192,10400,1,0,0:0:0:0:
192,192,10571,1,0,0:0:0:40:Tom1.wav
320,192,10741,1,8,0:0:0:0:
448,192,10741,1,0,0:0:0:0:
64,192,10912,1,8,0:0:0:0:
192,192,10912,1,0,0:0:0:0:
320,192,11082,128,2,11423:0:0:0:0:
448,192,11082,1,4,0:0:0:0:
192,192,11423,1,2,0:0:0:0:
448,192,11594,1,8,0:0:0:0:
64,192,11764,1,0,0:0:0:0:
192,192,11934,1,2,0:0:0:0:
320,192,12105,1,2,0:0:0:0:
448,192,12275,1,8,0:0:0:0:
64,192,12446,1,2,0:0:0:0:
192,192,12446,128,4,12787:0:0:0:0:
320,192,12787,1,2,0:0:0:0:
64,192,12957,1,8,0:0:0:0:
448,192,13128,1,0,0:0:0:0:
320,192,13298,1,2,0:0:0:0:
192,192,13469,1,2,0:0:0:0:
64,192,13639,1,8,0:0:0:0:
320,192,13809,1,2,0:0:0:0:
448,192,13809,128,4,14150:0:0:0:0:
192,192,14150,1,2,0:0:0:0:
320,192,14321,1,8,0:0:0:0:
64,192,14491,1,0,0:0:0:0:
192,192,14662,1,2,0:0:0:0:
448,192,14832,1,2,0:0:0:0:
320,192,15003,1,8,0:0:0:0:
64,192,15173,128,2,15514:0:0:0:0:
192,192,15173,1,4,0:0:0:0:
448,192,15514,1,2,0:0:0:0:
192,192,15684,1,8,0:0:0:0:
320,192,15684,1,0,0:0:0:40:Hat open.wav
64,192,16025,1,0,0:0:0:40:Tom1.wav
320,192,16196,1,8,0:0:0:0:
448,192,16196,1,0,0:0:0:0:
64,192,16366,1,8,0:0:0:0:
192,192,16366,1,0,0:0:0:0:
320,192,16537,1,2,0:0:0:0:
448,192,16537,1,0,0:0:0:40:Hat open.wav
64,192,16878,1,0,0:0:0:0:
192,192,17048,1,0,0:0:0:0:
448,192,17219,1,0,0:0:0:40:Tom2.wav
64,192,17389,1,0,0:0:0:0:
192,192,17559,1,0,0:0:0:0:
448,192,17730,1,0,0:0:0:40:Tom2.wav
64,192,17900,1,0,0:0:0:0:
192,192,18071,1,0,0:0:0:0:
448,192,18241,1,0,0:0:0:40:Tom2.wav
64,192,18412,1,0,0:0:0:0:
192,192,18582,1,0,0:0:0:0:
320,192,18753,1,2,0:0:0:0:
64,192,18923,1,8,0:0:0:0:
448,192,19094,1,8,0:0:0:0:
192,192,19264,1,0,0:0:0:40:Tom3.wav
64,192,19434,1,2,0:0:0:0:
320,192,19434,1,0,0:0:0:40:Hat open.wav
320,192,19775,1,0,0:0:0:80:LR_Drum+EDge.wav
320,192,20116,1,0,0:0:0:80:LR_Drum+EDge.wav
320,192,20457,1,0,0:0:0:80:LR_Drum+EDge.wav
320,192,20798,1,0,0:0:0:80:LR_Drum+EDge.wav
320,192,21139,1,0,0:0:0:80:LR_Drum+EDge.wav
320,192,21480,1,0,0:0:0:80:LR_Drum+EDge.wav
64,192,21650,1,2,0:0:0:0:
320,192,21821,1,0,0:0:0:80:LR_Drum+EDge.wav
64,192,21991,1,2,0:0:0:0:
192,192,22162,1,2,0:0:0:0:
192,192,22503,1,0,0:0:0:80:LR_Drum+EDge.wav
192,192,22844,1,0,0:0:0:80:LR_Drum+EDge.wav
192,192,23184,1,0,0:0:0:80:LR_Drum+EDge.wav
192,192,23525,1,0,0:0:0:80:LR_Drum+EDge.wav
192,192,23866,1,0,0:0:0:80:LR_Drum+EDge.wav
192,192,24207,1,0,0:0:0:80:LR_Drum+EDge.wav
448,192,24378,1,2,0:0:0:0:
192,192,24548,1,0,0:0:0:80:LR_Drum+EDge.wav
448,192,24719,1,2,0:0:0:0:
64,192,24889,1,2,0:0:0:0:
320,192,24889,1,0,0:0:0:40:Hat open.wav
64,192,25230,1,0,0:0:0:80:LR_Drum+EDge.wav
64,192,25571,1,0,0:0:0:80:LR_Drum+EDge.wav
64,192,25912,1,0,0:0:0:80:LR_Drum+EDge.wav
64,192,26253,1,0,0:0:0:80:LR_Drum+EDge.wav
64,192,26594,1,0,0:0:0:80:LR_Drum+EDge.wav
64,192,26934,1,0,0:0:0:80:LR_Drum+EDge.wav
320,192,27105,1,2,0:0:0:0:
64,192,27275,1,0,0:0:0:80:LR_Drum+EDge.wav
320,192,27446,1,2,0:0:0:0:
192,192,27616,1,2,0:0:0:0:
448,192,27616,1,0,0:0:0:40:Hat open.wav
448,192,27957,1,0,0:0:0:80:LR_Drum+EDge.wav
448,192,28298,1,0,0:0:0:80:LR_Drum+EDge.wav
448,192,28639,1,0,0:0:0:80:LR_Drum+EDge.wav
64,192,28809,1,2,0:0:0:0:
192,192,28809,1,0,0:0:0:40:Hat open.wav
320,192,29662,1,2,0:0:0:0:
64,192,29832,1,8,0:0:0:0:
192,192,29832,1,0,0:0:0:0:
320,192,30003,1,8,0:0:0:0:
448,192,30003,1,0,0:0:0:0:
192,192,30173,1,2,0:0:0:0:
64,192,30344,1,2,0:0:0:0:
448,192,30344,1,4,0:0:0:0:
320,192,30514,1,0,0:0:0:0:
64,192,30684,1,8,0:0:0:0:
192,192,30684,1,0,0:0:0:0:
448,192,30855,1,0,0:0:0:0:
192,192,31025,1,2,0:0:0:0:
320,192,31196,1,2,0:0:0:0:
64,192,31366,1,8,0:0:0:0:
448,192,31366,1,0,0:0:0:0:
192,192,31537,1,2,0:0:0:0:
320,192,31878,1,2,0:0:0:0:
64,192,32048,1,8,0:0:0:0:
448,192,32048,1,0,0:0:0:0:
192,192,32219,1,2,0:0:0:0:
448,192,32559,1,2,0:0:0:0:
64,192,32730,1,8,0:0:0:0:
192,192,32730,1,0,0:0:0:0:
320,192,32900,1,2,0:0:0:0:
64,192,33071,1,2,0:0:0:0:
448,192,33071,1,0,0:0:0:40:Hat open.wav
192,192,33241,1,0,0:0:0:0:
320,192,33412,1,8,0:0:0:0:
448,192,33412,1,0,0:0:0:0:
64,192,33582,1,0,0:0:0:0:
320,192,33753,1,2,0:0:0:0:
192,192,33923,1,2,0:0:0:0:
64,192,34094,1,8,0:0:0:0:
448,192,34094,1,0,0:0:0:0:
320,192,34264,1,2,0:0:0:0:
192,192,34605,1,2,0:0:0:0:
64,192,34775,1,8,0:0:0:0:
448,192,34775,1,0,0:0:0:0:
320,192,34946,1,2,0:0:0:0:
64,192,35287,1,2,0:0:0:0:
320,192,35457,1,8,0:0:0:0:
448,192,35457,1,0,0:0:0:0:
192,192,35628,1,2,0:0:0:0:
64,192,35798,1,2,0:0:0:0:
448,192,35798,1,0,0:0:0:40:Hat open.wav
64,192,36139,1,8,0:0:0:0:
192,192,36139,1,0,0:0:0:0:
320,192,36309,1,0,0:0:0:0:
192,192,36480,1,2,0:0:0:0:
448,192,36650,1,2,0:0:0:0:
64,192,36821,1,8,0:0:0:0:
320,192,36821,1,0,0:0:0:0:
192,192,36991,1,0,0:0:0:0:
448,192,37162,1,2,0:0:0:0:
64,192,37503,1,8,0:0:0:0:
192,192,37503,1,0,0:0:0:0:
320,192,37673,1,0,0:0:0:0:
448,192,37844,1,2,0:0:0:0:
64,192,38014,1,2,0:0:0:0:
192,192,38184,1,8,0:0:0:0:
320,192,38184,1,0,0:0:0:0:
448,192,38355,1,0,0:0:0:0:
64,192,38525,1,2,0:0:0:0:
192,192,38525,1,4,0:0:0:0:
320,192,38866,1,8,0:0:0:0:
448,192,38866,1,0,0:0:0:0:
64,192,39037,1,0,0:0:0:0:
320,192,39207,1,2,0:0:0:0:
192,192,39378,1,2,0:0:0:0:
64,192,39548,1,8,0:0:0:0:
448,192,39548,1,0,0:0:0:0:
192,192,39889,1,2,0:0:0:0:
320,192,40059,1,2,0:0:0:0:
64,192,40230,1,8,0:0:0:0:
448,192,40230,1,0,0:0:0:25:soft-hitfinish.wav
192,192,40400,1,2,0:0:0:0:
320,192,40571,1,8,0:0:0:0:
448,192,40741,1,0,0:0:0:0:
64,192,40912,1,0,0:0:0:40:Tom1.wav
192,192,41082,1,0,0:0:0:0:
320,192,41253,128,2,41594:0:0:0:0:
448,192,41253,1,4,0:0:0:0:
64,192,41594,1,0,0:0:0:80:LR_Drum+EDge.wav
192,192,41764,128,0,42105:0:0:0:0:
320,192,42105,1,0,0:0:0:0:
448,192,42446,1,0,0:0:0:0:
64,192,42616,128,0,42957:0:0:0:80:LR_Drum+EDge.wav
320,192,42957,1,0,0:0:0:80:LR_Drum+EDge.wav
448,192,43128,128,0,43469:0:0:0:0:
192,192,43469,1,2,0:0:0:0:
64,192,43809,1,2,0:0:0:0:
320,192,43980,128,2,44321:0:0:0:0:
448,192,43980,1,0,0:0:0:40:Hat open.wav
192,192,44321,1,0,0:0:0:80:LR_Drum+EDge.wav
448,192,44491,128,0,44832:0:0:0:0:
64,192,44832,128,0,45173:0:0:0:0:
320,192,45173,128,2,45514:0:0:0:0:
192,192,45514,1,2,0:0:0:0:
448,192,45684,1,8,0:0:0:0:
64,192,46025,1,8,0:0:0:0:
64,192,46253,1,8,0:0:0:0:
320,192,46480,1,0,0:0:0:40:Tom2.wav
192,192,46707,1,2,0:0:0:0:
448,192,46707,1,4,0:0:0:0:
64,192,46934,1,0,0:0:0:0:
320,192,47162,1,0,0:0:0:0:
192,192,47389,1,8,0:0:0:0:
192,192,47616,1,0,0:0:0:0:
448,192,47844,1,0,0:0:0:0:
64,192,48071,1,2,0:0:0:0:
320,192,48298,1,0,0:0:0:0:
192,192,48525,1,0,0:0:0:0:
448,192,48753,1,8,0:0:0:0:
448,192,48980,1,0,0:0:0:0:
192,192,49207,1,0,0:0:0:0:
320,192,49434,1,2,0:0:0:0:
448,192,49434,128,4,49775:0:0:0:0:
64,192,49775,1,8,0:0:0:0:
320,192,49946,128,2,50287:0:0:0:0:
192,192,50287,1,2,0:0:0:0:
64,192,50457,128,0,50798:0:0:0:0:
448,192,50798,1,0,0:0:0:0:
320,192,50969,1,0,0:0:0:0:
192,192,51139,1,0,0:0:0:0:
64,192,51309,1,0,0:0:0:0:
320,192,51480,1,8,0:0:0:0:
448,192,51480,1,0,0:0:0:0:
192,192,51650,1,0,0:0:0:40:Tom2.wav
64,192,51821,1,8,0:0:0:0:
448,192,51821,1,0,0:0:0:40:Hat open.wav
320,192,51991,1,0,0:0:0:0:
64,192,52162,128,6,52503:0:0:0:0:
192,192,52162,1,0,0:0:0:70:Praise.wav
448,192,52503,1,8,0:0:0:0:
192,192,52673,1,0,0:0:0:0:
320,192,52844,128,2,53184:0:0:0:0:
64,192,53014,1,2,0:0:0:0:
448,192,53184,1,8,0:0:0:0:
192,192,53355,1,0,0:0:0:0:
320,192,53525,1,2,0:0:0:0:
448,192,53525,128,4,53866:0:0:0:0:
64,192,53866,1,8,0:0:0:0:
320,192,54037,1,2,0:0:0:0:
192,192,54378,1,2,0:0:0:0:
448,192,54548,1,8,0:0:0:0:
64,192,54719,1,0,0:0:0:0:
192,192,54889,128,2,55230:0:0:0:0:
320,192,54889,1,4,0:0:0:0:
448,192,55059,1,0,0:0:0:0:
64,192,55230,1,8,0:0:0:0:
320,192,55400,1,0,0:0:0:0:
64,192,55571,128,2,55912:0:0:0:0:
448,192,55741,1,2,0:0:0:0:
192,192,55912,1,8,0:0:0:0:
320,192,56082,1,0,0:0:0:0:
192,192,56253,1,2,0:0:0:0:
448,192,56253,128,4,56594:0:0:0:0:
64,192,56594,1,8,0:0:0:0:
320,192,56764,128,2,57105:0:0:0:0:
192,192,57105,1,2,0:0:0:0:
448,192,57275,1,8,0:0:0:0:
64,192,57446,1,0,0:0:0:0:
192,192,57616,1,2,0:0:0:0:
448,192,57616,1,4,0:0:0:0:
320,192,57957,1,8,0:0:0:0:
64,192,58298,1,2,0:0:0:0:
448,192,58469,1,2,0:0:0:0:
192,192,58639,128,8,58980:0:0:0:0:
64,192,58980,128,2,59321:0:0:0:0:
320,192,58980,1,4,0:0:0:0:
448,192,59321,128,8,59662:0:0:0:0:
192,192,59662,1,2,0:0:0:0:
64,192,59832,1,2,0:0:0:0:
320,192,60003,128,8,60344:0:0:0:0:
64,192,60344,1,2,0:0:0:0:
192,192,60344,128,4,60684:0:0:0:0:
448,192,60684,1,8,0:0:0:0:
64,192,60855,1,0,0:0:0:0:
320,192,61025,128,2,61366:0:0:0:0:
192,192,61196,1,2,0:0:0:0:
448,192,61366,1,8,0:0:0:0:
64,192,61537,1,0,0:0:0:0:
320,192,61707,1,2,0:0:0:0:
448,192,61707,1,0,0:0:0:0:
192,192,61878,1,2,0:0:0:0:
64,192,62048,1,8,0:0:0:0:
448,192,62048,1,0,0:0:0:40:Hat open.wav
320,192,62219,1,2,0:0:0:0:
64,192,62389,1,2,0:0:0:0:
192,192,62389,1,0,0:0:0:0:
448,192,62559,1,8,0:0:0:0:
192,192,62730,1,10,0:0:0:0:
320,192,62900,1,8,0:0:0:0:
64,192,63071,128,6,63412:0:0:0:0:
448,192,63071,1,0,0:0:0:70:Praise.wav
320,192,63412,1,8,0:0:0:0:
192,192,63582,1,0,0:0:0:0:
448,192,63753,128,2,64094:0:0:0:0:
64,192,63923,1,2,0:0:0:0:
192,192,64094,1,8,0:0:0:0:
320,192,64264,1,0,0:0:0:0:
64,192,64434,128,2,64775:0:0:0:0:
448,192,64434,1,4,0:0:0:0:
320,192,64775,1,8,0:0:0:0:
192,192,64946,1,2,0:0:0:0:
320,192,65287,1,2,0:0:0:0:
64,192,65457,1,8,0:0:0:0:
448,192,65628,1,0,0:0:0:0:
192,192,65798,128,2,66139:0:0:0:0:
320,192,65798,1,4,0:0:0:0:
64,192,66139,1,8,0:0:0:0:
448,192,66309,1,0,0:0:0:0:
320,192,66480,128,2,66821:0:0:0:0:
64,192,66650,1,2,0:0:0:0:
448,192,66821,1,8,0:0:0:0:
192,192,66991,1,0,0:0:0:0:
64,192,67162,1,2,0:0:0:0:
448,192,67162,128,0,67503:0:0:0:40:Hat open.wav
320,192,67332,1,2,0:0:0:0:
64,192,67503,1,4,0:0:0:0:
192,192,67503,1,8,0:0:0:0:
320,192,67673,1,2,0:0:0:0:
64,192,67844,1,2,0:0:0:0:
192,192,68014,1,8,0:0:0:0:
320,192,68184,1,8,0:0:0:0:
448,192,68184,1,2,0:0:0:0:
64,192,68525,1,6,0:0:0:0:
192,192,68525,1,0,0:0:0:40:Tom3.wav
320,192,68696,1,8,0:0:0:0:
64,192,68866,1,8,0:0:0:0:
320,192,69037,1,8,0:0:0:0:
448,192,69037,1,2,0:0:0:0:
192,192,69207,1,8,0:0:0:0:
448,192,69378,1,8,0:0:0:0:
64,192,69548,1,8,0:0:0:0:
192,192,69548,1,2,0:0:0:0:
320,192,69719,1,8,0:0:0:0:
64,192,69889,1,8,0:0:0:0:
448,192,69889,1,2,0:0:0:0:
192,192,70059,1,8,0:0:0:0:
320,192,70230,1,8,0:0:0:0:
448,192,70230,1,2,0:0:0:0:
64,192,70400,1,8,0:0:0:0:
192,192,70571,1,8,0:0:0:0:
320,192,70571,1,2,0:0:0:0:
448,192,70741,1,8,0:0:0:0:
64,192,70912,1,8,0:0:0:0:
192,192,70912,1,2,0:0:0:0:
320,192,71082,1,8,0:0:0:0:
64,192,71253,1,2,0:0:0:0:
448,192,71253,1,0,0:0:0:40:Hat open.wav
192,192,71594,1,0,0:0:0:0:
448,192,71764,1,0,0:0:0:0:
320,192,72105,1,0,0:0:0:0:
64,192,72446,1,0,0:0:0:0:
448,192,72787,1,0,0:0:0:0:
320,192,72957,1,0,0:0:0:0:
192,192,73128,1,0,0:0:0:0:
64,192,73298,1,8,0:0:0:0:
448,192,73298,1,0,0:0:0:0:
320,192,73469,1,0,0:0:0:40:Tom2.wav
64,192,73639,1,8,0:0:0:0:
192,192,73639,1,0,0:0:0:40:Hat open.wav
320,192,73809,1,2,0:0:0:0:
448,192,73809,128,4,74150:0:0:0:0:
192,192,74150,1,2,0:0:0:0:
320,192,74321,1,8,0:0:0:0:
64,192,74491,1,0,0:0:0:0:
192,192,74662,1,2,0:0:0:0:
448,192,74832,1,2,0:0:0:0:
320,192,75003,1,8,0:0:0:0:
64,192,75173,128,2,75514:0:0:0:0:
192,192,75173,1,4,0:0:0:0:
320,192,75514,1,2,0:0:0:0:
192,192,75684,1,8,0:0:0:0:
448,192,75855,1,0,0:0:0:0:
320,192,76025,1,2,0:0:0:0:
64,192,76196,1,2,0:0:0:0:
192,192,76366,1,8,0:0:0:0:
320,192,76537,1,4,0:0:0:0:
448,192,76537,128,2,76878:0:0:0:0:
192,192,76878,1,2,0:0:0:0:
320,192,77048,1,8,0:0:0:0:
64,192,77219,1,0,0:0:0:0:
448,192,77389,1,2,0:0:0:0:
192,192,77559,1,2,0:0:0:0:
320,192,77730,1,8,0:0:0:0:
64,192,77900,128,2,78241:0:0:0:0:
448,192,77900,1,4,0:0:0:0:
192,192,78241,1,2,0:0:0:0:
448,192,78412,1,8,0:0:0:0:
64,192,78582,1,0,0:0:0:0:
320,192,78753,1,0,0:0:0:40:Tom1.wav
64,192,78923,1,8,0:0:0:0:
192,192,78923,1,0,0:0:0:0:
320,192,79094,1,8,0:0:0:0:
448,192,79094,1,0,0:0:0:0:
64,192,79264,1,2,0:0:0:0:
192,192,79264,128,4,79605:0:0:0:0:
320,192,79605,1,2,0:0:0:0:
64,192,79775,1,8,0:0:0:0:
448,192,79946,1,0,0:0:0:0:
320,192,80116,1,2,0:0:0:0:
192,192,80287,1,2,0:0:0:0:
64,192,80457,1,8,0:0:0:0:
320,192,80628,128,2,80969:0:0:0:0:
448,192,80628,1,4,0:0:0:0:
192,192,80969,1,2,0:0:0:0:
448,192,81139,1,8,0:0:0:0:
64,192,81309,1,0,0:0:0:0:
192,192,81480,1,2,0:0:0:0:
320,192,81650,1,2,0:0:0:0:
448,192,81821,1,8,0:0:0:0:
64,192,81991,128,2,82332:0:0:0:0:
192,192,81991,1,4,0:0:0:0:
320,192,82332,1,2,0:0:0:0:
192,192,82503,1,8,0:0:0:0:
448,192,82673,1,0,0:0:0:0:
320,192,82844,1,2,0:0:0:0:
64,192,83014,1,2,0:0:0:0:
192,192,83184,1,8,0:0:0:0:
320,192,83355,1,2,0:0:0:0:
448,192,83355,128,4,83696:0:0:0:0:
64,192,83696,1,2,0:0:0:0:
192,192,83866,1,8,0:0:0:0:
320,192,83866,1,0,0:0:0:40:Hat open.wav
448,192,84207,1,0,0:0:0:40:Tom1.wav
64,192,84378,1,8,0:0:0:0:
192,192,84378,1,0,0:0:0:0:
320,192,84548,1,8,0:0:0:0:
448,192,84548,1,0,0:0:0:0:
64,192,84719,1,2,0:0:0:0:
192,192,84719,1,0,0:0:0:40:Hat open.wav
448,192,85059,1,0,0:0:0:0:
320,192,85230,1,0,0:0:0:0:
64,192,85400,1,0,0:0:0:40:Tom2.wav
448,192,85571,1,0,0:0:0:0:
320,192,85741,1,0,0:0:0:0:
64,192,85912,1,0,0:0:0:40:Tom2.wav
448,192,86082,1,2,0:0:0:0:
64,192,86253,1,8,0:0:0:0:
192,192,86253,1,0,0:0:0:0:
320,192,86423,1,2,0:0:0:0:
192,192,86594,1,0,0:0:0:40:Tom1.wav
64,192,86764,1,2,0:0:0:0:
320,192,86934,1,10,0:0:0:0:
448,192,86934,1,0,0:0:0:30:soft-hitfinish.wav
64,192,87105,1,2,0:0:0:0:
192,192,87105,1,0,0:0:0:30:soft-hitfinish.wav
320,192,87275,1,2,0:0:0:0:
448,192,87275,1,0,0:0:0:30:soft-hitfinish.wav
64,192,87446,1,2,0:0:0:0:
192,192,87446,1,4,0:0:0:0:
