osu file format v14

[General]
AudioFilename: audio.ogg
AudioLeadIn: 0
PreviewTime: 51139
Countdown: 0
SampleSet: Soft
StackLeniency: 0.7
Mode: 3
LetterboxInBreaks: 0
SpecialStyle: 0
WidescreenStoryboard: 1

[Editor]
DistanceSpacing: 1.1
BeatDivisor: 4
GridSize: 8
TimelineZoom: 2.599999

[Metadata]
Title:Ketsui no Hikari
TitleUnicode:決意の光
Artist:Mifune Shioriko (CV: Koizumi Moeka)
ArtistUnicode:三船栞子 (CV: 小泉萌香)
Creator:Mirsaaa
Version:Hard // Reflection
Source:ラブライブ!虹ヶ咲学園スクールアイドル同好会
Tags:love live! school idol project nijigasaki academy club festival all stars llsifas video mobile game japanese LoveLive! ニジガク NijiGaku ラブライブ!スクールアイドルフェスティバル High School Gakuen Doukoukai Dōkōkai J-Rock JRock Rock Pop Jpop J-pop Just Believe!!! 中村 歩 Nakamura Ayumu 菊池博人 Kikuchi Hiroto
BeatmapID:4201322
BeatmapSetID:2017779

[Difficulty]
HPDrainRate:7.8
CircleSize:4
OverallDifficulty:7.8
ApproachRate:5
SliderMultiplier:1.4
SliderTickRate:1

[Events]
//Background and Video events
0,0,"BEGEH3.jpg",0,0
Video,-3793,"Video.mp4"
//Break Periods
//Storyboard Layer 0 (Background)
//Storyboard Layer 1 (Fail)
//Storyboard Layer 2 (Pass)
//Storyboard Layer 3 (Foreground)
//Storyboard Layer 4 (Overlay)
//Storyboard Sound Samples
Sample,16537,0,"Tom2.wav",40
Sample,30173,0,"Tom3.wav",40
Sample,45855,0,"soft-hitfinish.wav",25
Sample,52844,0,"Hat open.wav",40
Sample,55571,0,"Hat open.wav",40
Sample,58298,0,"Hat open.wav",40
Sample,59662,0,"Hat open.wav",40
Sample,63753,0,"Hat open.wav",40
Sample,66480,0,"Hat open.wav",40
Sample,67844,0,"Hat open.wav",40
Sample,73554,0,"Tom3.wav",40
Sample,84719,0,"Tom2.wav",40

[TimingPoints]
344,340.909090909091,4,2,1,40,1,0
52162,-100.0,4,2,1,40,0,1
71253,-100.0,4,2,1,40,0,0

[HitObjects]
320,192,344,1,0,0:0:0:40:Tom2.wav
448,192,344,1,0,0:0:0:0:
64,192,514,1,0,0:0:0:0:
320,192,684,1,0,0:0:0:0:
64,192,855,1,0,0:0:0:40:Tom2.wav
192,192,855,1,0,0:0:0:0:
448,192,1025,1,0,0:0:0:0:
192,192,1196,1,0,0:0:0:0:
320,192,1366,1,0,0:0:0:40:Tom2.wav
448,192,1366,1,0,0:0:0:0:
64,192,1537,1,0,0:0:0:0:
320,192,1707,1,0,0:0:0:0:
64,192,1878,1,0,0:0:0:40:Tom2.wav
192,192,1878,1,0,0:0:0:0:
448,192,2048,1,0,0:0:0:0:
192,192,2219,1,0,0:0:0:0:
320,192,2389,1,0,0:0:0:40:Tom2.wav
448,192,2389,1,0,0:0:0:0:
64,192,2559,1,0,0:0:0:40:Tom2.wav
192,192,2559,1,0,0:0:0:0:
320,192,2730,1,0,0:0:0:40:Tom2.wav
448,192,2730,1,0,0:0:0:0:
64,192,2900,1,0,0:0:0:40:Tom2.wav
192,192,2900,1,0,0:0:0:0:
448,192,3071,1,0,0:0:0:0:
320,192,3241,1,0,0:0:0:0:
64,192,3412,1,0,0:0:0:0:
320,192,3582,1,0,0:0:0:40:Tom2.wav
448,192,3582,1,0,0:0:0:0:
192,192,3753,1,0,0:0:0:0:
448,192,3923,1,0,0:0:0:0:
64,192,4094,1,0,0:0:0:40:Tom2.wav
192,192,4094,1,0,0:0:0:0:
320,192,4264,1,0,0:0:0:0:
64,192,4434,1,0,0:0:0:0:
320,192,4605,1,0,0:0:0:40:Tom2.wav
448,192,4605,1,0,0:0:0:0:
192,192,4775,1,0,0:0:0:40:Tom2.wav
320,192,4775,1,0,0:0:0:0:
64,192,4946,1,0,0:0:0:40:Tom2.wav
192,192,4946,1,0,0:0:0:0:
64,192,5116,1,8,0:0:0:0:
448,192,5116,1,0,0:0:0:0:
320,192,5201,1,0,0:0:0:40:Tom1.wav
192,192,5287,1,0,0:0:0:40:Tom2.wav
64,192,5372,1,2,0:0:0:0:
320,192,5457,1,8,0:0:0:0:
448,192,5457,1,0,0:0:0:0:
64,192,5628,1,2,0:0:0:0:
192,192,5628,1,4,0:0:0:0:
448,192,5628,1,0,0:0:0:0:
320,192,5969,1,2,0:0:0:0:
64,192,6139,1,8,0:0:0:0:
192,192,6139,1,0,0:0:0:40:Hat open.wav
448,192,6309,1,0,0:0:0:0:
192,192,6480,1,2,0:0:0:0:
192,192,6650,1,2,0:0:0:0:
320,192,6821,1,8,0:0:0:0:
448,192,6821,1,0,0:0:0:40:Hat open.wav
64,192,6991,128,2,7332:0:0:0:0:
192,192,6991,128,4,7332:0:0:0:0:
320,192,7332,1,2,0:0:0:0:
64,192,7503,1,8,0:0:0:0:
448,192,7503,1,0,0:0:0:40:Hat open.wav
192,192,7673,1,0,0:0:0:0:
320,192,7844,1,2,0:0:0:0:
320,192,8014,1,2,0:0:0:0:
64,192,8184,1,8,0:0:0:0:
192,192,8184,1,0,0:0:0:40:Hat open.wav
320,192,8355,128,4,8696:0:0:0:0:
448,192,8355,128,2,8696:0:0:0:0:
192,192,8696,1,2,0:0:0:0:
64,192,8866,1,8,0:0:0:0:
448,192,8866,1,0,0:0:0:40:Hat open.wav
320,192,9037,1,0,0:0:0:0:
192,192,9207,1,2,0:0:0:0:
192,192,9378,1,2,0:0:0:0:
64,192,9548,1,8,0:0:0:0:
320,192,9548,1,0,0:0:0:40:Hat open.wav
192,192,9719,128,2,10059:0:0:0:0:
448,192,9719,128,4,10059:0:0:0:0:
64,192,10059,1,2,0:0:0:0:
192,192,10230,1,8,0:0:0:0:
320,192,10230,1,0,0:0:0:40:Hat open.wav
448,192,10400,1,0,0:0:0:0:
64,192,10571,1,0,0:0:0:40:Tom1.wav
192,192,10571,1,0,0:0:0:0:
320,192,10741,1,8,0:0:0:0:
192,192,10826,1,8,0:0:0:0:
64,192,10912,1,8,0:0:0:0:
320,192,11082,128,2,11423:0:0:0:0:
448,192,11082,128,4,11423:0:0:0:0:
64,192,11423,1,2,0:0:0:0:
192,192,11594,1,8,0:0:0:0:
320,192,11594,1,0,0:0:0:40:Hat open.wav
448,192,11764,1,0,0:0:0:0:
64,192,11934,1,2,0:0:0:0:
64,192,12105,1,2,0:0:0:0:
320,192,12275,1,8,0:0:0:0:
448,192,12275,1,0,0:0:0:40:Hat open.wav
64,192,12446,128,2,12787:0:0:0:0:
192,192,12446,128,4,12787:0:0:0:0:
448,192,12787,1,2,0:0:0:0:
192,192,12957,1,8,0:0:0:0:
320,192,12957,1,0,0:0:0:40:Hat open.wav
64,192,13128,1,0,0:0:0:0:
448,192,13298,1,2,0:0:0:0:
448,192,13469,1,2,0:0:0:0:
64,192,13639,1,8,0:0:0:0:
192,192,13639,1,0,0:0:0:40:Hat open.wav
320,192,13809,128,2,14150:0:0:0:0:
448,192,13809,128,4,14150:0:0:0:0:
64,192,14150,1,2,0:0:0:0:
192,192,14321,1,8,0:0:0:0:
320,192,14321,1,0,0:0:0:40:Hat open.wav
448,192,14491,1,0,0:0:0:0:
64,192,14662,1,2,0:0:0:0:
64,192,14832,1,2,0:0:0:0:
192,192,15003,1,8,0:0:0:0:
448,192,15003,1,0,0:0:0:40:Hat open.wav
64,192,15173,128,2,15514:0:0:0:0:
320,192,15173,128,4,15514:0:0:0:0:
448,192,15514,1,2,0:0:0:0:
64,192,15684,1,8,0:0:0:0:
192,192,15684,1,0,0:0:0:40:Hat open.wav
320,192,15855,1,0,0:0:0:0:
64,192,16025,1,0,0:0:0:40:Tom1.wav
448,192,16025,1,0,0:0:0:0:
192,192,16196,1,8,0:0:0:0:
320,192,16281,1,8,0:0:0:0:
448,192,16366,1,8,0:0:0:0:
64,192,16537,1,2,0:0:0:0:
192,192,16537,1,0,0:0:0:40:Hat open.wav
320,192,16878,1,0,0:0:0:0:
64,192,17048,1,0,0:0:0:0:
320,192,17219,1,0,0:0:0:40:Tom2.wav
448,192,17219,1,0,0:0:0:0:
192,192,17389,1,0,0:0:0:0:
448,192,17559,1,0,0:0:0:0:
64,192,17730,1,0,0:0:0:40:Tom2.wav
192,192,17730,1,0,0:0:0:0:
320,192,17900,1,0,0:0:0:0:
64,192,18071,1,0,0:0:0:0:
320,192,18241,1,0,0:0:0:40:Tom2.wav
448,192,18241,1,0,0:0:0:0:
192,192,18412,1,0,0:0:0:0:
448,192,18582,1,0,0:0:0:0:
64,192,18753,1,2,0:0:0:0:
192,192,18753,1,0,0:0:0:40:Tom1.wav
448,192,18923,1,8,0:0:0:0:
320,192,19008,1,8,0:0:0:0:
64,192,19094,1,8,0:0:0:0:
192,192,19179,1,8,0:0:0:0:
320,192,19264,1,0,0:0:0:40:Tom3.wav
64,192,19434,1,2,0:0:0:0:
448,192,19434,1,0,0:0:0:40:Hat open.wav
192,192,19605,1,0,0:0:0:0:
320,192,19775,1,0,0:0:0:80:LR_Drum+EDge.wav
64,192,19946,128,0,20287:0:0:0:0:
448,192,20116,1,0,0:0:0:80:LR_Drum+EDge.wav
192,192,20287,1,0,0:0:0:0:
320,192,20457,1,0,0:0:0:80:LR_Drum+EDge.wav
64,192,20628,1,0,0:0:0:0:
448,192,20798,1,0,0:0:0:80:LR_Drum+EDge.wav
192,192,20969,1,0,0:0:0:0:
320,192,21139,1,0,0:0:0:80:LR_Drum+EDge.wav
448,192,21309,128,0,21650:0:0:0:0:
64,192,21480,1,0,0:0:0:80:LR_Drum+EDge.wav
320,192,21650,1,2,0:0:0:0:
192,192,21821,1,0,0:0:0:80:LR_Drum+EDge.wav
448,192,21991,1,2,0:0:0:0:
64,192,22162,1,2,0:0:0:0:
192,192,22332,1,0,0:0:0:0:
448,192,22503,1,0,0:0:0:80:LR_Drum+EDge.wav
320,192,22673,128,0,23014:0:0:0:0:
192,192,22844,1,0,0:0:0:80:LR_Drum+EDge.wav
448,192,23014,128,0,23355:0:0:0:0:
64,192,23184,1,0,0:0:0:80:LR_Drum+EDge.wav
192,192,23355,128,0,23866:0:0:0:0:
320,192,23525,1,0,0:0:0:80:LR_Drum+EDge.wav
64,192,23696,1,0,0:0:0:0:
448,192,23866,1,0,0:0:0:80:LR_Drum+EDge.wav
320,192,24037,1,0,0:0:0:0:
64,192,24207,1,0,0:0:0:80:LR_Drum+EDge.wav
192,192,24378,1,2,0:0:0:0:
448,192,24548,1,0,0:0:0:80:LR_Drum+EDge.wav
192,192,24719,1,2,0:0:0:0:
192,192,24889,1,2,0:0:0:0:
320,192,24889,128,0,25230:0:0:0:40:Hat open.wav
64,192,25230,1,0,0:0:0:80:LR_Drum+EDge.wav
448,192,25400,128,0,25741:0:0:0:0:
192,192,25571,1,0,0:0:0:80:LR_Drum+EDge.wav
64,192,25741,128,0,26082:0:0:0:0:
448,192,25912,1,0,0:0:0:80:LR_Drum+EDge.wav
320,192,26082,128,0,26423:0:0:0:0:
64,192,26253,1,0,0:0:0:80:LR_Drum+EDge.wav
192,192,26423,128,0,26764:0:0:0:0:
320,192,26594,1,0,0:0:0:80:LR_Drum+EDge.wav
448,192,26764,128,0,27105:0:0:0:0:
192,192,26934,1,0,0:0:0:80:LR_Drum+EDge.wav
64,192,27105,128,2,27446:0:0:0:0:
448,192,27275,1,0,0:0:0:80:LR_Drum+EDge.wav
320,192,27446,1,2,0:0:0:0:
192,192,27616,1,2,0:0:0:0:
320,192,27616,1,0,0:0:0:40:Hat open.wav
64,192,27787,1,0,0:0:0:0:
320,192,27957,128,0,28298:0:0:0:80:LR_Drum+EDge.wav
192,192,28128,1,0,0:0:0:0:
448,192,28298,1,0,0:0:0:80:LR_Drum+EDge.wav
64,192,28469,1,0,0:0:0:0:
192,192,28639,1,0,0:0:0:80:LR_Drum+EDge.wav
320,192,28809,1,2,0:0:0:0:
448,192,28809,1,0,0:0:0:40:Hat open.wav
64,192,29662,1,2,0:0:0:0:
192,192,29662,1,0,0:0:0:40:Tom1.wav
448,192,29832,1,8,0:0:0:0:
320,192,29917,1,8,0:0:0:0:
64,192,30003,1,8,0:0:0:0:
192,192,30088,1,8,0:0:0:0:
320,192,30173,1,2,0:0:0:0:
64,192,30344,1,2,0:0:0:0:
192,192,30344,1,4,0:0:0:0:
448,192,30344,1,0,0:0:0:0:
64,192,30514,1,0,0:0:0:0:
320,192,30684,1,8,0:0:0:0:
448,192,30684,1,0,0:0:0:0:
192,192,30855,1,0,0:0:0:0:
320,192,31025,1,2,0:0:0:0:
320,192,31196,1,2,0:0:0:0:
64,192,31366,1,8,0:0:0:0:
192,192,31366,1,0,0:0:0:0:
448,192,31537,1,2,0:0:0:0:
64,192,31707,1,0,0:0:0:0:
320,192,31878,1,2,0:0:0:0:
192,192,32048,1,8,0:0:0:0:
448,192,32048,1,0,0:0:0:0:
64,192,32219,1,2,0:0:0:0:
320,192,32389,1,0,0:0:0:0:
192,192,32559,1,2,0:0:0:0:
64,192,32730,1,8,0:0:0:0:
448,192,32730,1,0,0:0:0:0:
320,192,32900,1,2,0:0:0:0:
192,192,33071,1,2,0:0:0:0:
320,192,33071,1,0,0:0:0:40:Hat open.wav
192,192,33241,1,0,0:0:0:0:
64,192,33412,1,8,0:0:0:0:
448,192,33412,1,0,0:0:0:0:
320,192,33582,1,0,0:0:0:0:
64,192,33753,1,2,0:0:0:0:
64,192,33923,1,2,0:0:0:0:
320,192,34094,1,8,0:0:0:0:
448,192,34094,1,0,0:0:0:0:
192,192,34264,1,2,0:0:0:0:
448,192,34434,1,0,0:0:0:0:
64,192,34605,1,2,0:0:0:0:
192,192,34775,1,8,0:0:0:0:
320,192,34775,1,0,0:0:0:0:
448,192,34946,1,2,0:0:0:0:
192,192,35116,1,0,0:0:0:0:
320,192,35287,1,2,0:0:0:0:
64,192,35457,1,8,0:0:0:0:
448,192,35457,1,0,0:0:0:0:
192,192,35628,1,2,0:0:0:0:
192,192,35798,1,2,0:0:0:0:
320,192,35798,128,0,36139:0:0:0:40:Hat open.wav
64,192,36139,1,8,0:0:0:0:
448,192,36139,1,0,0:0:0:0:
64,192,36309,1,0,0:0:0:0:
448,192,36480,1,2,0:0:0:0:
448,192,36650,1,2,0:0:0:0:
64,192,36821,1,8,0:0:0:0:
192,192,36821,1,0,0:0:0:0:
320,192,36991,1,0,0:0:0:0:
64,192,37162,128,2,37503:0:0:0:0:
448,192,37162,1,0,0:0:0:0:
192,192,37332,1,0,0:0:0:0:
320,192,37503,1,8,0:0:0:0:
448,192,37503,1,0,0:0:0:0:
320,192,37673,1,0,0:0:0:0:
192,192,37844,1,2,0:0:0:0:
192,192,38014,1,2,0:0:0:0:
64,192,38184,1,8,0:0:0:0:
448,192,38184,1,0,0:0:0:0:
320,192,38355,1,0,0:0:0:0:
64,192,38525,1,2,0:0:0:0:
192,192,38525,128,4,38866:0:0:0:0:
448,192,38525,1,0,0:0:0:0:
320,192,38866,1,8,0:0:0:0:
448,192,38866,1,0,0:0:0:0:
64,192,39037,1,0,0:0:0:0:
320,192,39207,1,2,0:0:0:0:
320,192,39378,1,2,0:0:0:0:
64,192,39548,1,8,0:0:0:0:
448,192,39548,1,0,0:0:0:0:
192,192,39719,1,0,0:0:0:0:
320,192,39889,1,2,0:0:0:0:
320,192,40059,1,2,0:0:0:0:
64,192,40230,1,8,0:0:0:0:
192,192,40230,1,0,0:0:0:25:soft-hitfinish.wav
448,192,40400,1,2,0:0:0:0:
64,192,40571,1,8,0:0:0:0:
192,192,40684,1,8,0:0:0:0:
320,192,40798,1,8,0:0:0:0:
64,192,40912,1,0,0:0:0:40:Tom1.wav
448,192,41025,1,0,0:0:0:40:Tom2.wav
320,192,41139,1,0,0:0:0:40:Tom3.wav
64,192,41253,1,2,0:0:0:0:
192,192,41253,1,4,0:0:0:0:
448,192,41253,1,0,0:0:0:0:
320,192,41423,1,0,0:0:0:0:
192,192,41594,1,0,0:0:0:80:LR_Drum+EDge.wav
192,192,41764,1,0,0:0:0:0:
320,192,41934,1,0,0:0:0:80:LR_Drum+EDge.wav
192,192,42105,1,0,0:0:0:0:
448,192,42275,1,0,0:0:0:80:LR_Drum+EDge.wav
64,192,42446,1,0,0:0:0:0:
320,192,42616,1,0,0:0:0:80:LR_Drum+EDge.wav
192,192,42787,1,0,0:0:0:0:
320,192,42957,1,0,0:0:0:80:LR_Drum+EDge.wav
320,192,43128,1,0,0:0:0:0:
64,192,43298,1,0,0:0:0:80:LR_Drum+EDge.wav
320,192,43469,1,2,0:0:0:0:
192,192,43639,1,0,0:0:0:80:LR_Drum+EDge.wav
448,192,43809,1,2,0:0:0:0:
64,192,43980,1,2,0:0:0:0:
320,192,43980,1,0,0:0:0:40:Hat open.wav
192,192,44150,1,0,0:0:0:0:
64,192,44321,1,0,0:0:0:80:LR_Drum+EDge.wav
64,192,44491,1,0,0:0:0:0:
448,192,44662,1,0,0:0:0:80:LR_Drum+EDge.wav
64,192,44832,1,0,0:0:0:0:
320,192,45003,1,0,0:0:0:80:LR_Drum+EDge.wav
64,192,45173,1,2,0:0:0:0:
192,192,45173,1,0,0:0:0:40:Hat open.wav
448,192,45514,1,2,0:0:0:0:
192,192,45684,1,8,0:0:0:0:
320,192,45684,1,0,0:0:0:0:
64,192,45855,1,2,0:0:0:0:
448,192,46025,1,8,0:0:0:0:
320,192,46139,1,8,0:0:0:0:
192,192,46253,1,8,0:0:0:0:
448,192,46366,1,0,0:0:0:40:Tom1.wav
64,192,46480,1,0,0:0:0:40:Tom2.wav
192,192,46594,1,0,0:0:0:40:Tom3.wav
64,192,46707,1,2,0:0:0:0:
320,192,46707,1,4,0:0:0:0:
448,192,46707,128,0,46934:0:0:0:0:
64,192,46934,128,0,47162:0:0:0:0:
320,192,47162,128,0,47389:0:0:0:0:
64,192,47389,1,8,0:0:0:0:
192,192,47389,128,0,47616:0:0:0:25:soft-hitfinish.wav
448,192,47616,128,0,47844:0:0:0:0:
64,192,47844,128,0,48071:0:0:0:0:
192,192,48071,128,2,48298:0:0:0:0:
320,192,48298,128,0,48525:0:0:0:0:
64,192,48525,128,0,48753:0:0:0:0:
320,192,48753,1,8,0:0:0:0:
448,192,48753,1,0,0:0:0:40:Hat open.wav
192,192,48923,1,2,0:0:0:0:
64,192,49094,1,8,0:0:0:0:
448,192,49094,1,0,0:0:0:40:Hat open.wav
192,192,49264,1,8,0:0:0:0:
320,192,49349,1,8,0:0:0:0:
64,192,49434,1,2,0:0:0:0:
448,192,49434,1,4,0:0:0:0:
320,192,49605,1,8,0:0:0:0:
192,192,49690,1,8,0:0:0:0:
448,192,49775,1,8,0:0:0:0:
320,192,49861,1,8,0:0:0:0:
64,192,49946,128,2,50116:0:0:0:0:
192,192,49946,1,0,0:0:0:40:Hat open.wav
192,192,50287,128,2,50457:0:0:0:0:
320,192,50287,1,0,0:0:0:40:Hat open.wav
320,192,50628,128,2,51480:0:0:0:0:
448,192,50628,1,0,0:0:0:40:Hat open.wav
64,192,50798,128,0,50969:0:0:0:0:
448,192,50969,128,0,51139:0:0:0:0:
192,192,51139,128,0,51309:0:0:0:0:
448,192,51309,128,0,51480:0:0:0:0:
64,192,51480,128,8,51650:0:0:0:0:
192,192,51480,1,0,0:0:0:0:
448,192,51650,128,0,51821:0:0:0:40:Tom2.wav
192,192,51821,128,8,51991:0:0:0:0:
320,192,51821,1,0,0:0:0:40:Hat open.wav
64,192,51991,128,0,52162:0:0:0:0:
192,192,52162,1,2,0:0:0:0:
320,192,52162,1,4,0:0:0:0:
448,192,52162,128,0,52503:0:0:0:70:Praise.wav
64,192,52503,1,8,0:0:0:0:
192,192,52503,1,0,0:0:0:40:Hat open.wav
320,192,52673,1,0,0:0:0:0:
192,192,52844,1,2,0:0:0:0:
192,192,53014,1,2,0:0:0:0:
64,192,53184,1,8,0:0:0:0:
448,192,53184,1,0,0:0:0:40:Hat open.wav
320,192,53355,1,0,0:0:0:0:
64,192,53525,128,2,53866:0:0:0:0:
192,192,53525,1,4,0:0:0:0:
448,192,53525,1,0,0:0:0:0:
320,192,53866,1,8,0:0:0:0:
448,192,53866,1,0,0:0:0:40:Hat open.wav
192,192,54037,1,2,0:0:0:0:
320,192,54207,1,0,0:0:0:40:Hat open.wav
192,192,54378,1,2,0:0:0:0:
64,192,54548,1,8,0:0:0:0:
448,192,54548,1,0,0:0:0:40:Hat open.wav
320,192,54719,1,0,0:0:0:0:
64,192,54889,1,2,0:0:0:0:
192,192,54889,128,4,55230:0:0:0:0:
448,192,54889,1,0,0:0:0:0:
320,192,55059,1,0,0:0:0:0:
64,192,55230,1,8,0:0:0:0:
448,192,55230,1,0,0:0:0:40:Hat open.wav
192,192,55400,1,0,0:0:0:0:
320,192,55571,1,2,0:0:0:0:
320,192,55741,1,2,0:0:0:0:
64,192,55912,1,8,0:0:0:0:
192,192,55912,1,0,0:0:0:40:Hat open.wav
448,192,56082,1,0,0:0:0:0:
64,192,56253,1,2,0:0:0:0:
192,192,56253,1,4,0:0:0:0:
320,192,56253,128,0,56594:0:0:0:0:
64,192,56594,1,8,0:0:0:0:
448,192,56594,1,0,0:0:0:40:Hat open.wav
192,192,56764,1,2,0:0:0:0:
320,192,56934,1,0,0:0:0:40:Hat open.wav
192,192,57105,1,2,0:0:0:0:
320,192,57275,1,8,0:0:0:0:
448,192,57275,1,0,0:0:0:40:Hat open.wav
64,192,57446,1,0,0:0:0:0:
192,192,57616,1,2,0:0:0:0:
320,192,57616,1,4,0:0:0:0:
448,192,57616,128,0,57957:0:0:0:0:
64,192,57957,1,8,0:0:0:0:
192,192,57957,1,0,0:0:0:40:Hat open.wav
320,192,58128,1,0,0:0:0:0:
64,192,58298,1,2,0:0:0:0:
64,192,58469,1,2,0:0:0:0:
192,192,58639,128,8,58980:0:0:0:0:
448,192,58639,1,0,0:0:0:40:Hat open.wav
64,192,58980,128,2,59321:0:0:0:0:
320,192,58980,1,4,0:0:0:0:
448,192,58980,1,0,0:0:0:0:
192,192,59321,1,8,0:0:0:0:
320,192,59321,1,0,0:0:0:40:Hat open.wav
448,192,59491,1,0,0:0:0:0:
192,192,59662,1,2,0:0:0:0:
192,192,59832,1,2,0:0:0:0:
64,192,60003,1,8,0:0:0:0:
448,192,60003,128,0,60344:0:0:0:40:Hat open.wav
64,192,60344,1,2,0:0:0:0:
192,192,60344,128,4,60684:0:0:0:0:
320,192,60344,1,0,0:0:0:0:
320,192,60684,1,8,0:0:0:0:
448,192,60684,1,0,0:0:0:0:
64,192,60855,1,0,0:0:0:0:
320,192,61025,128,2,61366:0:0:0:0:
192,192,61196,1,2,0:0:0:0:
64,192,61366,1,8,0:0:0:0:
448,192,61366,1,0,0:0:0:0:
320,192,61537,1,0,0:0:0:0:
64,192,61707,1,2,0:0:0:0:
192,192,61707,128,0,62048:0:0:0:0:
448,192,61878,128,2,62048:0:0:0:0:
64,192,62048,128,8,62389:0:0:0:0:
320,192,62048,1,0,0:0:0:40:Hat open.wav
192,192,62219,128,2,62389:0:0:0:0:
320,192,62389,1,2,0:0:0:0:
448,192,62389,1,0,0:0:0:0:
64,192,62559,1,8,0:0:0:0:
192,192,62645,1,8,0:0:0:0:
448,192,62730,1,10,0:0:0:0:
320,192,62815,1,8,0:0:0:0:
64,192,62900,1,8,0:0:0:0:
192,192,62986,1,8,0:0:0:0:
64,192,63071,128,2,63412:0:0:0:0:
320,192,63071,1,4,0:0:0:0:
448,192,63071,1,0,0:0:0:70:Praise.wav
320,192,63412,1,8,0:0:0:0:
448,192,63412,1,0,0:0:0:40:Hat open.wav
192,192,63582,1,0,0:0:0:0:
320,192,63753,1,2,0:0:0:0:
320,192,63923,1,2,0:0:0:0:
64,192,64094,1,8,0:0:0:0:
448,192,64094,1,0,0:0:0:40:Hat open.wav
192,192,64264,1,0,0:0:0:0:
64,192,64434,1,2,0:0:0:0:
320,192,64434,1,4,0:0:0:0:
448,192,64434,128,0,64775:0:0:0:0:
64,192,64775,1,8,0:0:0:0:
192,192,64775,1,0,0:0:0:40:Hat open.wav
320,192,64946,1,2,0:0:0:0:
192,192,65116,1,0,0:0:0:40:Hat open.wav
320,192,65287,1,2,0:0:0:0:
64,192,65457,1,8,0:0:0:0:
448,192,65457,1,0,0:0:0:40:Hat open.wav
192,192,65628,1,0,0:0:0:0:
64,192,65798,1,2,0:0:0:0:
320,192,65798,128,4,66139:0:0:0:0:
448,192,65798,1,0,0:0:0:0:
64,192,66139,1,8,0:0:0:0:
448,192,66139,1,0,0:0:0:40:Hat open.wav
320,192,66309,1,0,0:0:0:0:
192,192,66480,1,2,0:0:0:0:
192,192,66650,1,2,0:0:0:0:
320,192,66821,1,8,0:0:0:0:
448,192,66821,1,0,0:0:0:40:Hat open.wav
64,192,66991,1,0,0:0:0:0:
192,192,67162,128,2,67503:0:0:0:0:
320,192,67162,1,0,0:0:0:40:Hat open.wav
320,192,67332,1,2,0:0:0:0:
64,192,67503,1,4,0:0:0:0:
448,192,67503,1,8,0:0:0:0:
192,192,67673,1,2,0:0:0:0:
192,192,67844,1,2,0:0:0:0:
448,192,68014,1,8,0:0:0:0:
320,192,68099,1,8,0:0:0:0:
64,192,68184,1,10,0:0:0:0:
192,192,68270,1,8,0:0:0:0:
448,192,68355,1,0,0:0:0:40:Tom1.wav
320,192,68440,1,0,0:0:0:40:Tom2.wav
64,192,68525,1,2,0:0:0:0:
192,192,68525,1,4,0:0:0:0:
448,192,68525,1,0,0:0:0:40:Tom3.wav
320,192,68696,1,8,0:0:0:0:
192,192,68781,1,8,0:0:0:0:
448,192,68866,1,8,0:0:0:0:
320,192,68951,1,8,0:0:0:0:
64,192,69037,1,8,0:0:0:0:
192,192,69037,1,2,0:0:0:0:
320,192,69207,1,8,0:0:0:0:
448,192,69292,1,8,0:0:0:0:
64,192,69378,1,8,0:0:0:0:
192,192,69463,1,8,0:0:0:0:
320,192,69548,1,8,0:0:0:0:
448,192,69548,1,2,0:0:0:0:
192,192,69719,1,8,0:0:0:0:
64,192,69804,1,8,0:0:0:0:
320,192,69889,1,10,0:0:0:0:
448,192,69974,1,8,0:0:0:0:
192,192,70059,1,8,0:0:0:0:
320,192,70145,1,8,0:0:0:0:
64,192,70230,1,10,0:0:0:0:
192,192,70315,1,8,0:0:0:0:
320,192,70400,1,8,0:0:0:0:
448,192,70486,1,8,0:0:0:0:
192,192,70571,1,10,0:0:0:0:
64,192,70656,1,8,0:0:0:0:
320,192,70741,1,8,0:0:0:0:
192,192,70826,1,8,0:0:0:0:
448,192,70912,1,10,0:0:0:0:
320,192,70997,1,8,0:0:0:0:
64,192,71082,1,8,0:0:0:0:
192,192,71167,1,8,0:0:0:0:
320,192,71253,1,2,0:0:0:0:
448,192,71253,128,0,71594:0:0:0:40:Hat open.wav
64,192,71423,128,0,71594:0:0:0:0:
192,192,71594,128,0,71764:0:0:0:0:
320,192,71764,128,0,71934:0:0:0:0:
448,192,71934,128,0,72105:0:0:0:0:
320,192,72105,128,0,72275:0:0:0:0:
192,192,72275,128,0,72446:0:0:0:0:
64,192,72446,128,0,72616:0:0:0:0:
448,192,72616,128,0,72787:0:0:0:0:
320,192,72787,128,0,72957:0:0:0:0:
192,192,72957,128,0,73128:0:0:0:0:
64,192,73128,128,0,73298:0:0:0:0:
320,192,73298,1,8,0:0:0:0:
448,192,73298,1,0,0:0:0:0:
192,192,73383,1,0,0:0:0:40:Tom1.wav
320,192,73469,1,0,0:0:0:40:Tom2.wav
448,192,73554,1,2,0:0:0:0:
64,192,73639,1,8,0:0:0:0:
192,192,73639,1,0,0:0:0:40:Hat open.wav
64,192,73809,1,2,0:0:0:0:
320,192,73809,1,4,0:0:0:0:
448,192,73809,1,0,0:0:0:0:
192,192,74150,1,2,0:0:0:0:
320,192,74321,1,8,0:0:0:0:
448,192,74321,1,0,0:0:0:40:Hat open.wav
64,192,74491,1,0,0:0:0:0:
320,192,74662,1,2,0:0:0:0:
320,192,74832,1,2,0:0:0:0:
64,192,75003,1,8,0:0:0:0:
192,192,75003,1,0,0:0:0:40:Hat open.wav
320,192,75173,128,2,75514:0:0:0:0:
448,192,75173,128,4,75514:0:0:0:0:
192,192,75514,1,2,0:0:0:0:
64,192,75684,1,8,0:0:0:0:
448,192,75684,1,0,0:0:0:40:Hat open.wav
320,192,75855,1,0,0:0:0:0:
192,192,76025,1,2,0:0:0:0:
192,192,76196,1,2,0:0:0:0:
320,192,76366,1,8,0:0:0:0:
448,192,76366,1,0,0:0:0:40:Hat open.wav
64,192,76537,128,4,76878:0:0:0:0:
192,192,76537,128,2,76878:0:0:0:0:
320,192,76878,1,2,0:0:0:0:
64,192,77048,1,8,0:0:0:0:
448,192,77048,1,0,0:0:0:40:Hat open.wav
192,192,77219,1,0,0:0:0:0:
320,192,77389,1,2,0:0:0:0:
320,192,77559,1,2,0:0:0:0:
192,192,77730,1,8,0:0:0:0:
448,192,77730,1,0,0:0:0:40:Hat open.wav
64,192,77900,128,2,78241:0:0:0:0:
320,192,77900,128,4,78241:0:0:0:0:
448,192,78241,1,2,0:0:0:0:
192,192,78412,1,8,0:0:0:0:
320,192,78412,1,0,0:0:0:40:Hat open.wav
64,192,78582,1,0,0:0:0:0:
320,192,78753,1,0,0:0:0:40:Tom1.wav
448,192,78753,1,0,0:0:0:0:
192,192,78923,1,8,0:0:0:0:
320,192,79008,1,8,0:0:0:0:
448,192,79094,1,8,0:0:0:0:
64,192,79264,128,2,79605:0:0:0:0:
192,192,79264,128,4,79605:0:0:0:0:
448,192,79605,1,2,0:0:0:0:
192,192,79775,1,8,0:0:0:0:
320,192,79775,1,0,0:0:0:40:Hat open.wav
64,192,79946,1,0,0:0:0:0:
448,192,80116,1,2,0:0:0:0:
448,192,80287,1,2,0:0:0:0:
64,192,80457,1,8,0:0:0:0:
192,192,80457,1,0,0:0:0:40:Hat open.wav
320,192,80628,128,2,80969:0:0:0:0:
448,192,80628,128,4,80969:0:0:0:0:
64,192,80969,1,2,0:0:0:0:
192,192,81139,1,8,0:0:0:0:
320,192,81139,1,0,0:0:0:40:Hat open.wav
448,192,81309,1,0,0:0:0:0:
64,192,81480,1,2,0:0:0:0:
64,192,81650,1,2,0:0:0:0:
320,192,81821,1,8,0:0:0:0:
448,192,81821,1,0,0:0:0:40:Hat open.wav
64,192,81991,128,2,82332:0:0:0:0:
192,192,81991,128,4,82332:0:0:0:0:
448,192,82332,1,2,0:0:0:0:
192,192,82503,1,8,0:0:0:0:
320,192,82503,1,0,0:0:0:40:Hat open.wav
64,192,82673,1,0,0:0:0:0:
448,192,82844,1,2,0:0:0:0:
448,192,83014,1,2,0:0:0:0:
64,192,83184,1,8,0:0:0:0:
320,192,83184,1,0,0:0:0:40:Hat open.wav
192,192,83355,128,2,83696:0:0:0:0:
448,192,83355,128,4,83696:0:0:0:0:
64,192,83696,1,2,0:0:0:0:
192,192,83866,1,8,0:0:0:0:
320,192,83866,1,0,0:0:0:40:Hat open.wav
64,192,84037,1,0,0:0:0:0:
320,192,84207,1,0,0:0:0:40:Tom1.wav
448,192,84207,1,0,0:0:0:0:
192,192,84378,1,8,0:0:0:0:
320,192,84463,1,8,0:0:0:0:
448,192,84548,1,8,0:0:0:0:
192,192,84719,128,2,85059:0:0:0:0:
320,192,84719,1,0,0:0:0:40:Hat open.wav
64,192,85059,1,0,0:0:0:0:
448,192,85230,1,0,0:0:0:0:
192,192,85400,1,0,0:0:0:40:Tom2.wav
320,192,85400,1,0,0:0:0:0:
64,192,85571,1,0,0:0:0:0:
448,192,85741,1,0,0:0:0:0:
192,192,85912,1,0,0:0:0:40:Tom2.wav
320,192,85912,1,0,0:0:0:0:
64,192,86082,1,2,0:0:0:0:
192,192,86167,1,2,0:0:0:0:
448,192,86253,1,8,0:0:0:0:
320,192,86338,1,8,0:0:0:0:
192,192,86423,1,2,0:0:0:0:
64,192,86508,1,2,0:0:0:0:
320,192,86594,1,0,0:0:0:40:Tom1.wav
192,192,86679,1,0,0:0:0:40:Tom1.wav
448,192,86764,1,2,0:0:0:0:
320,192,86849,1,2,0:0:0:0:
64,192,86934,1,10,0:0:0:0:
192,192,86934,1,0,0:0:0:30:soft-hitfinish.wav
192,192,87105,1,2,0:0:0:0:
320,192,87105,1,0,0:0:0:30:soft-hitfinish.wav
320,192,87275,1,2,0:0:0:0:
448,192,87275,1,0,0:0:0:30:soft-hitfinish.wav
64,192,87446,1,2,0:0:0:0:
192,192,87446,1,4,0:0:0:0:
448,192,87446,1,0,0:0:0:0:
