osu file format v14

[General]
AudioFilename: audio.mp3
AudioLeadIn: 0
PreviewTime: 51234
Countdown: 0
SampleSet: Soft
StackLeniency: 0.7
Mode: 0
LetterboxInBreaks: 0
WidescreenStoryboard: 1

[Editor]
Bookmarks: 5638,16547,19444,30354,41263,46717,63081,68535,87456
DistanceSpacing: 0.8
BeatDivisor: 4
GridSize: 32
TimelineZoom: 1.2

[Metadata]
Title:Ketsui no Hikari
TitleUnicode:決意の光
Artist:Mifune Shioriko (CV: Koizumi Moeka)
ArtistUnicode:三船栞子 (CV: 小泉萌香)
Creator:Gabizon04
Version:Expert
Source:ラブライブ!虹ヶ咲学園スクールアイドル同好会
Tags:love live! school idol project nijigasaki academy club festival all stars llsifas video mobile game japanese LoveLive! ニジガク NijiGaku ラブライブ!スクールアイドルフェスティバル High School Gakuen Doukoukai Dōkōkai J-Rock JRock Rock Just Believe!!! 中村 歩 Nakamura Ayumu 菊池博人 Kikuchi Hiroto
BeatmapID:3791212
BeatmapSetID:1845584

[Difficulty]
HPDrainRate:5
CircleSize:4
OverallDifficulty:8.2
ApproachRate:9.2
SliderMultiplier:1.7
SliderTickRate:1

[Events]
//Background and Video events
0,0,"bg.jpg",0,0
//Break Periods
//Storyboard Layer 0 (Background)
//Storyboard Layer 1 (Fail)
//Storyboard Layer 2 (Pass)
//Storyboard Layer 3 (Foreground)
//Storyboard Layer 4 (Overlay)
//Storyboard Sound Samples

[TimingPoints]
354,340.909090909091,4,2,1,80,1,0
354,-125,4,2,1,80,0,0
5638,-83.3333333333333,4,2,1,80,0,0
16547,-90.9090909090909,4,2,1,70,0,0
19444,-125,4,2,2,60,0,0
29842,-111.111111111111,4,2,1,80,0,0
37427,-111.111111111111,4,2,1,5,0,0
37513,-111.111111111111,4,2,1,80,0,0
41263,-111.111111111111,4,2,2,65,0,0
45694,-111.111111111111,4,2,1,80,0,0
49956,-90.9090909090908,4,2,1,80,0,0
50126,-90.9090909090908,4,2,1,5,0,0
50297,-90.9090909090908,4,2,1,80,0,0
50467,-90.9090909090908,4,2,1,5,0,0
50638,-90.9090909090908,4,2,1,80,0,0
50808,-90.9090909090908,4,2,1,5,0,0
50893,-90.9090909090908,4,2,1,80,0,0
51490,-90.9090909090908,4,2,1,80,0,0
52172,-83.3333333333333,4,2,1,80,0,1
71263,-125,4,2,1,80,0,0
73819,-83.3333333333333,4,2,1,80,0,0
84729,-90.9090909090909,4,2,1,70,0,0
86263,-90.9090909090909,4,2,1,80,0,0

[Colours]
Combo1 : 0,166,166
Combo2 : 234,254,120
Combo3 : 17,254,176

[HitObjects]
16,186,354,6,0,L|1:109,1,68,2|0,3:2|0:0,0:0:0:0:
2,119,694,1,0,0:0:0:0:
112,192,865,2,0,L|97:115,1,68,2|0,3:2|0:0,0:0:0:0:
98,125,1205,1,0,0:0:0:0:
204,201,1376,2,0,L|189:124,1,68,2|0,3:2|0:0,0:0:0:0:
190,134,1716,1,0,0:0:0:0:
295,214,1888,2,0,L|280:137,1,68,2|0,3:2|0:0,0:0:0:0:
281,147,2228,1,0,0:0:0:0:
273,308,2399,6,0,P|305:313|345:285,1,68,2|0,3:2|0:0,0:0:0:0:
335,297,2740,1,0,0:0:0:0:
391,150,2910,2,0,P|359:145|295:223,1,136,2|0,3:2|0:0,0:0:0:0:
420,267,3422,1,2,3:2:0:0:
512,162,3592,6,0,L|503:73,1,68,2|0,3:2|0:0,0:0:0:0:
505,94,3933,1,0,0:0:0:0:
386,45,4104,2,0,L|392:131,1,68,2|0,3:2|0:0,0:0:0:0:
390,112,4444,1,0,0:0:0:0:
265,73,4615,2,0,L|256:-16,1,68,2|0,3:2|0:0,0:0:0:0:
258,5,4956,1,0,0:0:0:0:
125,168,5126,5,8,0:0:0:0:
100,192,5211,1,8,0:0:0:0:
89,225,5297,1,0,3:0:0:0:
98,258,5382,1,0,3:0:0:0:
122,282,5467,1,8,3:2:0:0:
345,313,5638,6,0,B|297:289|246:332|271:330|224:384|160:356,1,203.999993774414,6|2,3:2|3:2,0:0:0:0:
1,192,6149,2,0,P|-11:240|13:283,1,101.999996887207,10|2,0:0|0:0,0:0:0:0:
112,213,6490,1,2,3:2:0:0:
57,108,6660,1,2,3:2:0:0:
262,36,6831,1,10,0:0:0:0:
211,273,7001,6,0,B|166:74,1,203.999993774414,6|2,3:2|3:2,0:0:0:0:
14,183,7513,2,0,L|120:215,1,101.999996887207,10|2,0:0|0:0,0:0:0:0:
211,273,7854,1,2,3:2:0:0:
297,197,8024,1,2,3:2:0:0:
98,255,8194,1,10,0:0:0:0:
213,44,8365,6,0,B|265:19|324:60|295:77|349:126|400:103,1,203.999993774414,6|2,3:2|3:2,0:0:0:0:
498,269,8876,2,0,P|451:261|413:208,1,101.999996887207,10|2,0:0|0:0,0:0:0:0:
392,105,9217,1,2,3:2:0:0:
487,42,9388,1,2,3:2:0:0:
254,34,9558,1,10,0:0:0:0:
492,183,9729,6,0,L|295:127,1,203.999993774414,6|0,3:2|3:0,0:0:0:0:
130,259,10240,2,0,P|128:209|163:174,1,101.999996887207,10|2,0:0|0:0,0:0:0:0:
295,127,10581,1,2,3:2:0:0:
220,0,10751,1,10,0:0:0:0:
214,20,10836,1,8,0:0:0:0:
208,40,10922,1,10,0:0:0:0:
484,30,11092,6,0,B|430:7|386:55|411:52|368:109|302:85,1,203.999993774414,6|2,3:2|3:2,0:0:0:0:
115,0,11604,2,0,L|138:100,1,101.999996887207,10|2,0:0|0:0,0:0:0:0:
100,214,11944,1,2,3:2:0:0:
0,148,12115,1,2,3:2:0:0:
206,32,12285,1,10,0:0:0:0:
206,282,12456,6,0,B|129:294|129:294|95:323|95:323|10:336,1,203.999993774414,6|0,3:2|3:0,0:0:0:0:
178,182,12967,2,0,P|236:175|283:217,1,101.999996887207,10|2,0:0|0:0,0:0:0:0:
333,291,13308,1,2,3:2:0:0:
435,231,13479,1,2,3:2:0:0:
199,343,13649,1,10,0:0:0:0:
328,152,13819,6,0,B|285:369,1,203.999993774414,6|2,3:2|3:2,0:0:0:0:
502,295,14331,2,0,P|468:241|423:230,1,101.999996887207,10|2,0:0|0:0,0:0:0:0:
333,291,14672,1,2,3:2:0:0:
256,194,14842,1,2,3:2:0:0:
477,156,15013,1,10,0:0:0:0:
290,26,15183,6,0,L|87:82,1,203.999993774414,6|0,3:2|3:0,0:0:0:0:
0,261,15694,2,0,P|50:270|97:229,1,101.999996887207,10|2,0:0|0:0,0:0:0:0:
239,160,16035,1,2,3:2:0:0:
83,42,16206,1,10,0:0:0:0:
88,61,16291,1,8,0:0:0:0:
93,80,16376,1,10,0:0:0:0:
142,248,16547,6,0,B|194:225|241:279|224:278|257:324|308:302,1,187.000005706787,2|2,3:2|0:0,0:0:0:0:
384,233,17058,1,2,0:0:0:0:
384,233,17229,2,0,P|338:195|286:206,1,93.5000028533936,2|2,3:2|0:0,0:0:0:0:
220,141,17569,1,2,0:0:0:0:
220,141,17740,2,0,P|265:103|317:114,1,93.5000028533936,2|2,3:2|0:0,0:0:0:0:
375,41,18081,1,2,0:0:0:0:
375,41,18252,2,0,P|330:3|278:14,1,93.5000028533936,2|2,3:2|0:0,0:0:0:0:
298,5,18592,1,2,0:0:0:0:
164,55,18763,1,0,3:2:0:0:
292,179,18933,5,10,3:2:0:0:
296,159,19018,1,8,0:0:0:0:
300,139,19103,1,8,0:0:0:0:
304,118,19189,1,8,0:0:0:0:
307,97,19274,1,8,0:0:0:0:
446,230,19444,6,0,P|425:256|393:266,1,68,6|2,3:2|0:0,0:0:0:0:
370,173,19785,1,10,0:0:0:0:
288,284,19956,2,0,L|225:259,1,68,2|8,0:0|0:0,0:0:0:0:
75,239,20297,6,0,B|56:169,2,68,2|10|2,0:0|0:0|0:0,0:0:0:0:
156,173,20808,2,0,L|171:95,1,68,10|2,0:0|0:0,0:0:0:0:
77,42,21149,1,10,0:0:0:0:
77,42,21319,2,0,P|96:13|126:-1,1,68,2|8,0:0|0:0,0:0:0:0:
66,145,21660,2,0,L|-13:126,1,68,2|10,3:2|0:0,0:0:0:0:
77,42,22001,1,0,3:0:0:0:
182,153,22172,5,10,3:2:0:0:
182,153,22342,1,2,0:0:0:0:
244,69,22513,1,10,0:0:0:0:
324,151,22683,2,0,L|314:230,1,68,2|8,0:0|0:0,0:0:0:0:
415,230,23024,2,0,L|425:151,1,68,2|8,0:0|0:0,0:0:0:0:
491,50,23365,6,0,B|456:34|417:61|436:62|395:93|365:82,1,136,2|0,0:0|0:0,0:0:0:0:
275,36,23876,2,0,P|261:66|271:100,1,68,8|0,0:0|0:0,0:0:0:0:
222,180,24217,2,0,P|251:198|283:194,1,68,8|0,0:0|3:0,0:0:0:0:
365,82,24558,1,10,3:2:0:0:
365,82,24729,1,0,3:0:0:0:
417,240,24899,6,0,L|396:318,1,68,14|0,3:2|0:0,0:0:0:0:
242,360,25240,1,10,0:0:0:0:
242,360,25410,2,0,L|316:383,1,68,2|8,0:0|0:0,0:0:0:0:
220,263,25751,2,0,P|186:268|162:291,1,68,2|8,0:0|0:0,0:0:0:0:
306,282,26092,6,0,L|324:214,1,68,2|8,0:0|0:0,0:0:0:0:
223,93,26433,2,0,L|241:161,1,68,2|8,0:0|0:0,0:0:0:0:
111,132,26774,2,0,L|41:104,1,68,2|8,0:0|0:0,0:0:0:0:
0,241,27115,2,0,L|64:216,1,68,2|8,3:2|0:0,0:0:0:0:
184,211,27456,1,2,3:2:0:0:
139,373,27626,6,0,L|124:299,1,68,12|2,3:2|0:0,0:0:0:0:
150,130,27967,2,0,P|234:132|263:172,1,136,10|8,0:0|0:0,0:0:0:0:
317,255,28479,2,0,L|255:281,1,68
364,165,28819,1,2,3:2:0:0:
260,48,29672,1,0,3:0:0:0:
344,163,29842,5,10,0:0:0:0:
364,165,29927,1,8,0:0:0:0:
384,167,30013,1,8,0:0:0:0:
404,170,30098,1,8,0:0:0:0:
424,173,30183,1,2,3:2:0:0:
512,28,30354,5,6,3:2:0:0:
512,28,30524,1,2,0:0:0:0:
374,89,30694,1,10,0:0:0:0:
512,180,30865,2,0,L|491:88,1,76.4999976654053,2|0,0:0|3:0,0:0:0:0:
404,170,31206,1,2,3:2:0:0:
512,260,31376,1,10,0:0:0:0:
391,359,31547,6,0,P|338:313|255:324,1,152.999995330811,2|2,3:2|3:2,0:0:0:0:
128,289,32058,1,10,0:0:0:0:
222,384,32229,2,0,L|199:232,1,152.999995330811,2|2,3:2|3:2,0:0:0:0:
245,87,32740,1,10,0:0:0:0:
245,87,32910,1,2,3:2:0:0:
115,186,33081,6,0,P|79:184|49:156,1,76.4999976654053,6|2,3:2|0:0,0:0:0:0:
2,35,33422,1,10,0:0:0:0:
143,20,33592,2,0,L|120:102,1,76.4999976654053,2|0,0:0|3:0,0:0:0:0:
264,160,33933,2,0,L|244:86,1,76.4999976654053,2|10,3:2|0:0,0:0:0:0:
397,212,34274,6,0,B|359:199|314:225|337:236|304:265|258:250,1,152.999995330811,2|0,3:2|3:0,0:0:0:0:
155,226,34785,2,0,L|178:319,1,76.4999976654053,10|0,0:0|3:0,0:0:0:0:
0,234,35126,2,0,L|54:180,1,76.4999976654053,2|0,0:0|3:0,0:0:0:0:
95,342,35467,2,0,L|20:325,1,76.4999976654053,10|0,0:0|3:0,0:0:0:0:
281,230,35808,6,0,L|257:391,1,152.999995330811,6|10,3:2|0:0,0:0:0:0:
419,331,36319,2,0,P|391:300|352:295,1,76.4999976654053,2|0,0:0|3:0,0:0:0:0:
165,326,36660,1,2,3:2:0:0:
281,230,36831,1,10,0:0:0:0:
141,174,37001,1,2,0:0:0:0:
290,88,37172,6,0,L|415:113,1,114.749996498108,2|0,3:2|0:0,0:0:0:0:
433,116,37513,1,10,0:0:0:0:
483,203,37683,2,0,P|485:246|464:277,1,76.4999976654053,2|0,0:0|3:0,0:0:0:0:
357,362,38024,1,2,3:2:0:0:
277,237,38194,2,0,L|257:147,1,76.4999976654053,10|2,0:0|0:0,0:0:0:0:
115,44,38535,6,0,B|154:25|202:58|179:68|217:95|254:78,1,152.999995330811,6|8,3:2|0:0,0:0:0:0:
372,18,39047,1,2,0:0:0:0:
466,122,39217,2,0,L|482:37,1,76.4999976654053,2|0,3:2|3:0,0:0:0:0:
297,182,39558,2,0,B|238:196|238:196|221:216|221:216|153:236,1,152.999995330811,8|0,0:0|3:0,0:0:0:0:
0,153,40069,1,0,3:0:0:0:
179,47,40240,5,10,0:0:0:0:
32,53,40410,1,0,3:0:0:0:
157,234,40581,5,10,0:0:0:0:
197,269,40694,5,8,0:0:0:0:
248,269,40808,5,8,0:0:0:0:
283,249,40922,5,2,3:2:0:0:
298,222,41035,5,0,3:0:0:0:
298,201,41149,5,0,3:0:0:0:
293,191,41263,6,0,B|339:21,1,152.999995330811,6|10,3:2|0:0,0:0:0:0:
160,69,41774,2,0,L|241:93,1,76.4999976654053,2|8,0:0|0:0,0:0:0:0:
332,43,42115,2,0,L|402:11,1,76.4999976654053,2|8,0:0|0:0,0:0:0:0:
498,76,42456,1,2,0:0:0:0:
472,191,42626,6,0,L|317:145,1,152.999995330811,10|10,0:0|0:0,0:0:0:0:
320,58,43138,2,0,P|270:68|253:100,1,76.4999976654053,2|8,0:0|0:0,0:0:0:0:
158,40,43479,2,0,P|141:88|160:119,1,76.4999976654053,2|8,0:0|0:0,0:0:0:0:
256,86,43819,1,2,3:2:0:0:
217,227,43990,6,0,B|184:218|156:237|156:237|135:286|85:276,1,152.999995330811,10|10,3:2|0:0,0:0:0:0:
0,167,44501,2,0,L|93:198,1,76.4999976654053,2|8,0:0|0:0,0:0:0:0:
53,23,44842,2,0,L|-2:86,1,76.4999976654053,2|8,0:0|0:0,0:0:0:0:
171,129,45183,2,0,B|213:144|256:118|226:101|273:73|312:89,1,152.999995330811,2|0,3:2|3:0,0:0:0:0:
512,3,45694,5,12,0:0:0:0:
389,69,45865,1,0,3:0:0:0:
506,174,46035,5,10,0:0:0:0:
510,224,46149,5,8,0:0:0:0:
477,263,46263,5,10,0:0:0:0:
437,272,46376,5,0,3:0:0:0:
407,265,46490,5,2,3:2:0:0:
393,249,46604,5,0,3:0:0:0:
389,239,46717,6,0,B|356:226|315:252|334:263|294:292|249:276,1,152.999995330811,6|0,3:2|0:0,0:0:0:0:
122,326,47229,1,0,3:0:0:0:
122,326,47314,1,0,3:0:0:0:
122,326,47399,2,0,L|151:158,1,152.999995330811,10|0,0:0|3:0,0:0:0:0:
88,44,47910,5,8,0:0:0:0:
88,44,47996,1,8,0:0:0:0:
88,44,48081,1,10,0:0:0:0:
256,75,48251,2,0,B|320:84|320:84|343:102|343:102|403:109,1,152.999995330811,8|0,0:0|3:0,0:0:0:0:
475,284,48763,5,14,0:0:0:0:
302,180,48933,1,0,3:0:0:0:
485,94,49104,1,8,0:0:0:0:
423,218,49274,1,10,0:0:0:0:
400,213,49359,1,8,0:0:0:0:
377,209,49444,1,10,0:0:0:0:
280,337,49615,1,8,0:0:0:0:
303,332,49700,1,8,0:0:0:0:
326,328,49785,1,10,0:0:0:0:
240,163,49956,6,0,P|186:143|156:158,1,93.5000028533936,2|0,3:2|0:0,0:0:0:0:
142,355,50297,2,0,P|180:330|188:285,1,93.5000028533936,2|0,3:2|0:0,0:0:0:0:
11,159,50638,2,0,B|104:107|215:177|135:226|236:305|337:260,1,374.000011413575,2|2,3:2|0:0,0:0:0:0:
434,87,51490,5,8,0:0:0:0:
406,87,51575,1,8,0:0:0:0:
380,99,51660,1,10,0:0:0:0:
365,123,51746,1,8,0:0:0:0:
365,150,51831,1,10,0:0:0:0:
459,178,52001,1,2,0:0:0:0:
262,9,52172,6,0,L|50:71,1,203.999993774414,6|10,3:2|0:0,0:0:0:0:
66,66,52683,1,2,0:0:0:0:
222,180,52854,2,0,P|256:138|242:72,1,101.999996887207,2|0,3:2|3:0,0:0:0:0:
13,155,53194,1,10,0:0:0:0:
216,260,53365,1,2,0:0:0:0:
0,355,53535,6,0,L|110:388,1,101.999996887207,6|0,3:2|0:0,0:0:0:0:
222,180,53876,1,10,0:0:0:0:
13,155,54047,2,0,L|34:254,1,101.999996887207,2|0,3:2|0:0,0:0:0:0:
195,101,54388,2,0,L|216:2,1,101.999996887207,2|8,3:2|0:0,0:0:0:0:
41,55,54729,1,2,0:0:0:0:
293,158,54899,6,0,B|343:135|407:168|377:187|425:229|485:197,1,203.999993774414,6|10,3:2|0:0,0:0:0:0:
478,200,55410,1,2,0:0:0:0:
501,0,55581,2,0,P|430:6|397:40,1,101.999996887207,2|0,3:2|3:0,0:0:0:0:
214,186,55922,1,10,0:0:0:0:
314,38,56092,1,2,0:0:0:0:
117,224,56263,6,0,L|72:9,1,203.999993774414,6|10,3:2|0:0,0:0:0:0:
305,191,56774,2,0,P|258:208|214:186,1,101.999996887207,2|0,3:2|0:0,0:0:0:0:
21,281,57115,2,0,P|1:226|25:184,1,101.999996887207,2|8,3:2|0:0,0:0:0:0:
134,88,57456,1,2,0:0:0:0:
286,296,57626,6,0,B|208:310|208:310|177:344|177:344|98:363,1,203.999993774414,6|8,3:2|0:0,0:0:0:0:
100,362,58138,1,0,0:0:0:0:
182,211,58308,1,0,3:0:0:0:
182,211,58479,1,0,3:0:0:0:
351,384,58649,2,0,L|375:279,1,101.999996887207,10|0,0:0|0:0,0:0:0:0:
494,44,58990,6,0,P|433:65|417:100,1,101.999996887207,6|0,3:2|0:0,0:0:0:0:
205,111,59331,2,0,P|269:118|298:94,1,101.999996887207,10|0,0:0|0:0,0:0:0:0:
509,221,59672,2,0,L|411:187,1,101.999996887207,2|0,3:2|3:0,0:0:0:0:
274,367,60013,2,0,L|385:348,1,101.999996887207,10|0,0:0|0:0,0:0:0:0:
418,96,60354,6,0,P|340:108|318:233,1,203.999993774414,6|10,3:2|0:0,0:0:0:0:
412,187,60865,1,2,0:0:0:0:
231,274,61035,2,0,L|205:168,1,101.999996887207,2|0,3:2|3:0,0:0:0:0:
0,17,61376,1,10,0:0:0:0:
149,114,61547,1,2,0:0:0:0:
44,269,61717,5,2,3:2:0:0:
44,269,61888,1,2,3:2:0:0:
268,74,62058,1,14,0:0:0:0:
102,209,62229,1,2,3:2:0:0:
0,17,62399,1,2,3:2:0:0:
200,173,62569,5,8,0:0:0:0:
235,166,62655,1,8,0:0:0:0:
269,156,62740,1,8,3:2:0:0:
303,148,62825,1,8,0:0:0:0:
337,140,62910,1,10,0:0:0:0:
372,132,62996,1,8,0:0:0:0:
406,124,63081,6,0,P|416:66|380:24,1,101.999996887207,6|0,3:2|0:0,0:0:0:0:
179,74,63422,1,10,0:0:0:0:
358,12,63592,1,2,0:0:0:0:
274,223,63763,2,0,P|233:208|175:190,1,101.999996887207,2|0,3:2|3:0,0:0:0:0:
0,10,64104,1,10,0:0:0:0:
179,74,64274,1,2,0:0:0:0:
31,250,64444,6,0,P|-5:188|13:147,1,101.999996887207,6|0,3:2|0:0,0:0:0:0:
191,227,64785,1,10,0:0:0:0:
99,384,64956,2,0,L|0:357,1,101.999996887207,2|0,3:2|0:0,0:0:0:0:
241,291,65297,2,0,L|342:257,1,101.999996887207,2|8,3:2|0:0,0:0:0:0:
414,347,65638,1,2,0:0:0:0:
177,349,65808,6,0,P|150:307|161:259,1,101.999996887207,6|0,3:2|0:0,0:0:0:0:
400,160,66149,1,10,0:0:0:0:
199,69,66319,1,2,0:0:0:0:
337,258,66490,2,0,L|314:151,1,101.999996887207,2|0,3:2|3:0,0:0:0:0:
512,0,66831,1,10,0:0:0:0:
293,65,67001,1,2,0:0:0:0:
500,168,67172,6,0,P|508:119|480:72,1,101.999996887207,6|0,3:2|3:0,0:0:0:0:
224,0,67513,1,10,0:0:0:0:
315,158,67683,2,0,L|417:131,1,101.999996887207,2|0,3:2|3:0,0:0:0:0:
146,347,68024,5,10,0:0:0:0:
136,305,68109,1,8,0:0:0:0:
126,263,68194,1,8,0:0:0:0:
117,221,68280,1,8,0:0:0:0:
108,180,68365,1,2,3:2:0:0:
100,138,68450,1,0,3:2:0:0:
91,97,68535,1,6,3:2:0:0:
308,8,68706,5,8,0:0:0:0:
304,42,68791,1,8,0:0:0:0:
283,71,68876,1,8,0:0:0:0:
251,88,68961,1,8,0:0:0:0:
215,85,69047,1,8,3:2:0:0:
335,246,69217,5,8,0:0:0:0:
369,253,69302,1,8,0:0:0:0:
403,261,69388,1,8,0:0:0:0:
437,270,69473,1,8,0:0:0:0:
471,278,69558,2,0,L|524:262,1,50.9999984436036,10|0,0:0|0:0,0:0:0:0:
512,112,69729,5,8,0:0:0:0:
477,121,69814,1,8,0:0:0:0:
442,130,69899,2,0,L|390:116,1,50.9999984436036,10|0,0:0|0:0,0:0:0:0:
291,0,70069,5,8,0:0:0:0:
256,9,70154,1,8,0:0:0:0:
221,18,70240,2,0,L|159:4,1,50.9999984436036,10|0,0:0|0:0,0:0:0:0:
248,178,70410,1,8,0:0:0:0:
275,181,70496,1,8,0:0:0:0:
307,151,70581,5,10,3:2:0:0:
293,109,70666,1,8,0:0:0:0:
249,101,70751,1,8,0:0:0:0:
215,127,70836,1,8,0:0:0:0:
188,176,70922,5,10,3:2:0:0:
135,206,71007,1,8,0:0:0:0:
76,192,71092,1,8,0:0:0:0:
50,137,71177,1,8,0:0:0:0:
60,109,71263,6,0,L|91:263,1,136,2|2,3:2|0:0,0:0:0:0:
241,251,71774,2,0,L|206:415,2,136,2|2|2,0:0|0:0|0:0,0:0:0:0:
441,103,72797,2,0,L|458:19,2,68,2|2|2,0:0|0:0|0:0,0:0:0:0:
247,54,73308,5,10,0:0:0:0:
253,83,73393,1,0,3:0:0:0:
259,112,73479,1,0,3:0:0:0:
265,141,73564,1,0,3:0:0:0:
271,170,73649,1,8,3:2:0:0:
189,316,73819,6,0,P|252:252|360:287,1,203.999993774414,6|2,3:2|3:2,0:0:0:0:
498,115,74331,2,0,L|517:228,1,101.999996887207,10|2,0:0|3:2,0:0:0:0:
396,178,74672,1,2,3:2:0:0:
353,278,74842,1,2,3:2:0:0:
498,115,75013,1,10,0:0:0:0:
427,331,75183,6,0,B|213:283,1,203.999993774414,6|2,3:2|3:2,0:0:0:0:
2,338,75695,2,0,P|67:346|107:319,1,101.999996887207,10|2,0:0|3:2,0:0:0:0:
134,212,76036,1,2,3:2:0:0:
227,286,76206,1,2,3:2:0:0:
43,253,76376,1,10,0:0:0:0:
184,14,76547,6,0,B|132:219,1,203.999993774414,6|2,3:2|3:2,0:0:0:0:
293,384,77058,2,0,P|327:349|318:291,1,101.999996887207,10|2,0:0|3:2,0:0:0:0:
245,197,77399,1,2,3:2:0:0:
190,314,77570,1,2,3:2:0:0:
409,323,77740,1,10,0:0:0:0:
271,111,77911,6,0,B|222:91|169:127|196:153|142:183|82:159,1,203.999993774414,6|0,3:2|3:0,0:0:0:0:
241,13,78422,2,0,P|309:16|335:40,1,101.999996887207,10|2,0:0|3:2,3:0:0:0:
378,181,78763,1,2,3:2:0:0:
500,96,78933,1,10,0:0:0:0:
506,76,79018,1,8,0:0:0:0:
512,56,79104,1,10,0:0:0:0:
303,211,79274,6,0,B|354:192|406:241|375:242|414:295|482:275,1,203.999993774414,6|2,3:2|3:2,0:0:0:0:
269,384,79786,2,0,L|245:263,1,101.999996887207,10|2,0:0|3:2,0:0:0:0:
150,199,80126,1,2,3:2:0:0:
223,101,80297,1,2,3:2:0:0:
45,237,80467,1,10,0:0:0:0:
194,20,80638,6,0,P|280:33|308:143,1,203.999993774414,6|2,3:2|3:2,0:0:0:0:
512,183,81149,2,0,L|392:154,1,101.999996887207,10|2,0:0|3:2,0:0:0:0:
337,248,81490,1,2,3:2:0:0:
435,316,81661,1,2,3:2:0:0:
511,104,81831,1,10,0:0:0:0:
268,198,82001,6,0,B|213:176|166:219|192:239|148:270|86:249,1,203.999993774414,6|2,3:2|3:2,0:0:0:0:
6,43,82513,2,0,P|62:37|99:69,1,101.999996887207,10|2,0:0|3:2,0:0:0:0:
165,163,82854,1,2,3:2:0:0:
266,92,83024,1,2,3:2:0:0:
36,137,83195,1,10,0:0:0:0:
222,275,83365,6,0,L|178:64,1,203.999993774414,6|0,3:2|3:0,0:0:0:0:
387,184,83876,2,0,P|336:197|280:167,1,101.999996887207,10|2,0:0|3:2,0:0:0:0:
180,75,84217,1,2,3:2:0:0:
373,38,84388,1,10,0:0:0:0:
369,58,84473,1,8,0:0:0:0:
365,77,84558,1,8,0:0:0:0:
484,235,84729,6,0,P|393:228|328:309,1,187.000005706787,2|2,3:2|0:0,0:0:0:0:
252,384,85240,1,2,0:0:0:0:
252,384,85411,2,0,P|214:338|225:286,1,93.5000028533936,2|2,3:2|0:0,0:0:0:0:
97,246,85751,1,2,0:0:0:0:
97,246,85922,2,0,P|117:190|168:173,1,93.5000028533936,2|2,3:2|3:2,0:0:0:0:
184,166,86177,1,0,3:0:0:0:
222,180,86263,5,8,0:0:0:0:
252,215,86348,1,8,0:0:0:0:
279,232,86433,1,0,3:0:0:0:
311,237,86518,1,0,3:0:0:0:
342,226,86604,1,0,3:0:0:0:
365,203,86689,1,0,3:0:0:0:
375,172,86774,1,0,3:0:0:0:
370,139,86859,1,0,3:0:0:0:
341,102,86944,5,14,3:2:0:0:
139,50,87115,1,2,3:2:0:0:
405,0,87285,1,2,3:2:0:0:
252,215,87456,1,10,0:0:0:0:
