osu file format v14

[General]
AudioFilename: audio.mp3
AudioLeadIn: 0
PreviewTime: 51277
Countdown: 0
SampleSet: Soft
StackLeniency: 0.7
Mode: 2
LetterboxInBreaks: 0
WidescreenStoryboard: 1

[Editor]
Bookmarks: 52172
DistanceSpacing: 1
BeatDivisor: 4
GridSize: 8
TimelineZoom: 1.3

[Metadata]
Title:Ketsui no Hikari
TitleUnicode:決意の光
Artist:Mifune Shioriko (CV: Koizumi Moeka)
ArtistUnicode:三船栞子 (CV: 小泉萌香)
Creator:BlackBN
Version:Zonda & R-34's Salad
Source:ラブライブ!虹ヶ咲学園スクールアイドル同好会
Tags:BlackBq lovelive! love live! nijigasaki high school idol club rabu raibu! gakuen sukuuru aidoru doukou-kai sukūru sukuru dōkō-kai doko-kai japanese anime video game videogame rock j-rock jrock short ver. version 3rdアルバム 3rd album Just Believe!!! スクールアイドルフェスティバル ALL STARS festival fesutibaru 中村歩 nakamura ayumu 菊池博人 kikuchi hiroto Greaper Natsuko R-34 R34 bigh bighzonda Usaha Takekii Hanasaka Yui Nana Abe
BeatmapID:3608085
BeatmapSetID:1742382

[Difficulty]
HPDrainRate:3
CircleSize:3
OverallDifficulty:7
ApproachRate:7
SliderMultiplier:1.35
SliderTickRate:1

[Events]
//Background and Video events
0,0,"bg.jpg",0,0
//Break Periods
//Storyboard Layer 0 (Background)
//Storyboard Layer 1 (Fail)
//Storyboard Layer 2 (Pass)
//Storyboard Layer 3 (Foreground)
//Storyboard Layer 4 (Overlay)
//Storyboard Sound Samples

[TimingPoints]
354,340.909090909091,4,2,2,60,1,0
5552,-100,4,2,2,60,0,0
5638,-100,4,2,2,70,0,0
16547,-100,4,2,2,60,0,0
30268,-100,4,2,2,60,0,0
30354,-100,4,2,2,70,0,0
41263,-100,4,2,2,60,0,0
49444,-100,4,2,2,70,0,0
50211,-100,4,2,2,5,0,0
50297,-100,4,2,2,70,0,0
50552,-100,4,2,2,5,0,0
50638,-100,4,2,2,70,0,0
52172,-100,4,2,2,70,0,1
71263,-100,4,2,2,60,0,0
73819,-100,4,2,2,70,0,0

[Colours]
Combo1 : 80,245,146
Combo2 : 18,143,121
Combo3 : 249,237,132

[HitObjects]
151,289,354,6,0,P|92:254|163:156,1,202.5,0|0,1:0|1:0,0:0:0:0:
345,149,1376,1,0,1:0:0:0:
141,131,1888,5,0,1:0:0:0:
344,233,2399,1,0,1:0:0:0:
380,179,2569,1,0,1:0:0:0:
333,121,2740,1,0,1:0:0:0:
257,107,2910,6,0,L|111:103,1,135,0|0,1:0|0:0,0:0:0:0:
87,130,3422,1,0,0:0:0:0:
122,163,3592,2,0,L|266:168,1,135,0|2,1:0|0:0,0:0:0:0:
325,171,4104,1,0,1:0:0:0:
257,218,4274,6,0,P|183:204|219:110,1,202.5,0|0,0:0|1:0,0:0:0:0:
252,93,4956,1,0,1:0:0:0:
185,87,5126,1,8,0:0:0:0:
153,48,5297,1,0,1:0:0:0:
185,87,5467,1,8,0:0:0:0:
354,260,5638,6,0,L|492:241,1,135,6|0,1:2|1:0,0:0:0:0:
416,187,6149,1,8,0:0:0:0:
271,164,6490,1,0,1:0:0:0:
238,112,6660,1,0,1:0:0:0:
271,164,6831,1,8,0:0:0:0:
339,237,7001,6,0,L|173:234,1,135,6|0,1:2|1:0,0:0:0:0:
136,229,7513,2,0,P|126:189|202:124,1,135,8|0,0:0|1:0,0:0:0:0:
319,119,8194,1,8,0:0:0:0:
152,179,8365,6,0,L|8:163,1,135,6|0,1:2|1:0,0:0:0:0:
90,104,8876,1,8,0:0:0:0:
234,106,9217,1,0,1:0:0:0:
166,96,9388,1,0,1:0:0:0:
99,84,9558,1,8,0:0:0:0:
167,181,9729,6,0,P|240:182|332:85,1,202.5,6|8,1:2|0:0,0:0:0:0:
194,83,10581,1,0,1:0:0:0:
261,77,10751,1,0,1:0:0:0:
297,28,10922,1,8,0:0:0:0:
130,180,11092,6,0,B|29:165|29:165|8:121,1,135,6|0,1:2|1:0,0:0:0:0:
83,87,11604,1,8,0:0:0:0:
218,71,11944,1,0,1:0:0:0:
184,35,12115,1,0,1:0:0:0:
116,33,12285,1,8,0:0:0:0:
48,124,12456,6,0,P|155:133|261:178,1,202.5,6|8,1:2|0:0,0:0:0:0:
378,230,13308,1,0,1:0:0:0:
344,165,13479,1,0,1:0:0:0:
273,144,13649,1,8,0:0:0:0:
441,181,13819,6,0,P|472:141|406:85,1,135,6|0,1:2|1:0,0:0:0:0:
358,79,14331,2,0,L|200:82,1,135,8|0,0:0|1:0,0:0:0:0:
155,91,14842,1,0,1:0:0:0:
223,81,15013,1,8,0:0:0:0:
290,131,15183,6,0,L|135:145,1,135,6|0,1:2|1:0,0:0:0:0:
225,201,15694,2,0,P|270:187|263:92,1,135,8|0,0:0|1:0,0:0:0:0:
211,90,16206,1,0,1:0:0:0:
144,84,16376,1,8,0:0:0:0:
313,185,16547,5,4,1:2:0:0:
180,123,18763,5,0,1:0:0:0:
249,123,18933,1,8,0:0:0:0:
317,118,19104,1,8,0:0:0:0:
351,80,19274,1,0,1:0:0:0:
183,202,19444,6,0,L|46:194,1,135,6|8,1:2|0:3,0:0:0:0:
185,206,20126,2,0,L|242:75,1,135,8|8,0:3|0:3,0:0:0:0:
376,152,20808,6,0,L|433:21,1,135,8|8,0:3|0:3,0:0:0:0:
295,221,21490,1,8,0:3:0:0:
228,213,21660,1,0,1:0:0:0:
161,201,21831,1,8,0:3:0:0:
296,201,22172,6,0,L|433:193,1,135,0|8,1:0|0:3,0:0:0:0:
294,205,22854,2,0,L|237:74,1,135,8|8,0:3|0:3,0:0:0:0:
103,151,23536,6,0,L|46:20,1,135,8|8,0:3|0:3,0:0:0:0:
184,220,24218,1,8,0:3:0:0:
251,212,24388,1,0,1:0:0:0:
318,200,24559,1,8,0:3:0:0:
251,212,24729,1,0,1:0:0:0:
184,220,24899,6,0,L|333:203,1,135,6|8,1:2|0:3,0:0:0:0:
454,235,25581,2,0,L|397:104,1,135,8|8,0:3|0:3,0:0:0:0:
263,181,26263,6,0,L|206:50,1,135,8|8,0:3|0:3,0:0:0:0:
75,226,26944,1,8,0:3:0:0:
48,164,27114,1,0,1:0:0:0:
85,117,27284,1,8,0:3:0:0:
154,103,27456,1,0,1:0:0:0:
222,98,27626,6,0,L|68:90,1,135,6|8,1:2|0:3,0:0:0:0:
222,252,28308,2,0,L|279:121,1,135,8|8,0:3|0:3,0:0:0:0:
208,115,28819,1,0,1:2:0:0:
348,97,29672,1,0,1:0:0:0:
416,90,29842,1,0,1:0:0:0:
450,38,30013,1,8,0:0:0:0:
416,90,30183,1,0,1:0:0:0:
246,161,30354,6,0,L|92:140,1,135,6|8,1:2|0:0,0:0:0:0:
180,103,30865,2,0,L|334:82,1,135,0|0,0:0|1:0,0:0:0:0:
246,64,31376,1,8,0:0:0:0:
179,53,31547,6,0,P|132:61|80:150,1,135,0|0,1:0|1:0,0:0:0:0:
115,154,32058,1,8,0:0:0:0:
183,185,32229,2,0,L|325:175,1,135,0|0,1:0|1:0,0:0:0:0:
250,233,32740,2,0,L|228:141,1,67.5,8|0,0:0|1:0,0:0:0:0:
405,213,33081,6,0,P|450:190|410:114,1,135,6|8,1:2|0:0,0:0:0:0:
362,106,33592,2,0,L|202:100,2,135,0|0|0,0:0|1:0|1:0,0:0:0:0:
430,119,34444,6,0,P|463:138|411:191,1,135,0|8,0:0|0:0,0:0:0:0:
347,186,34956,2,0,P|314:205|366:258,1,135,0|0,1:0|1:0,0:0:0:0:
430,207,35467,1,8,0:0:0:0:
361,259,35638,1,0,1:0:0:0:
193,249,35808,6,0,L|34:235,1,135,6|8,1:2|0:0,0:0:0:0:
126,197,36319,2,0,P|170:173|124:110,1,135,0|0,0:0|1:0,0:0:0:0:
70,104,36831,1,8,0:0:0:0:
138,110,37001,1,0,0:0:0:0:
206,116,37172,6,0,L|358:123,1,135,0|8,1:0|0:0,0:0:0:0:
274,209,37683,2,0,L|256:62,1,135,0|0,0:0|1:0,0:0:0:0:
327,67,38194,1,8,0:0:0:0:
85,222,38535,6,0,P|61:188|163:85,1,202.5,6|0,1:2|0:0,0:0:0:0:
211,85,39217,1,0,1:0:0:0:
346,91,39558,1,8,0:0:0:0:
211,85,39899,5,0,1:0:0:0:
454,215,40240,1,10,0:0:0:0:
319,166,40581,1,8,0:0:0:0:
274,144,40694,1,8,0:0:0:0:
319,166,40808,1,8,0:0:0:0:
365,153,40922,1,0,1:0:0:0:
319,166,41035,1,0,1:0:0:0:
130,220,41263,6,0,P|105:179|177:114,1,135,6|8,1:2|0:3,0:0:0:0:
216,110,41774,2,0,L|380:123,1,135
283,72,42285,1,8,0:3:0:0:
151,219,42626,6,0,P|176:177|297:274,1,270,8|8,0:3|0:3,0:0:0:0:
228,238,43479,1,0,1:0:0:0:
161,93,43649,1,8,0:3:0:0:
230,79,43819,1,0,1:0:0:0:
399,200,43990,6,0,P|365:133|303:86,1,135,6|8,1:2|0:3,0:0:0:0:
253,76,44501,2,0,B|317:69|317:69|333:77|333:77|392:70,1,135
317,72,45013,1,8,0:3:0:0:
249,76,45183,6,0,P|209:87|162:176,1,135,0|0,1:0|1:0,0:0:0:0:
332,235,45694,2,0,L|420:230,2,67.5,10|0|8,0:0|1:0|0:0,0:0:0:0:
270,237,46149,1,8,0:0:0:0:
225,215,46263,1,8,0:0:0:0:
195,152,46376,1,0,1:0:0:0:
225,215,46490,1,0,1:0:0:0:
414,210,46717,6,0,P|472:186|402:79,1,202.5,6|0,1:2|1:0,0:0:0:0:
366,70,47399,2,0,L|201:67,1,135,14|0,1:2|0:0,0:0:0:0:
96,64,48081,5,0,1:0:0:0:
131,62,48251,2,0,L|287:57,1,135,8|0,0:0|1:0,0:0:0:0:
300,58,48763,1,14,0:0:0:0:
165,172,49104,2,0,L|250:168,1,67.5,8|8,0:0|0:0,0:0:0:0:
401,232,49444,6,0,P|430:208|377:123,1,135,6|8,1:2|0:0,0:0:0:0:
335,121,49956,1,6,1:2:0:0:
200,107,50297,1,6,1:2:0:0:
133,102,50467,1,0,0:0:0:0:
200,107,50638,6,0,L|350:102,1,135,6|0,1:2|0:0,0:0:0:0:
369,90,51149,1,0,0:0:0:0:
302,69,51319,1,0,0:0:0:0:
133,102,51490,1,8,0:0:0:0:
99,115,51575,1,0,1:0:0:0:
80,160,51660,1,0,1:0:0:0:
149,193,51831,1,8,0:0:0:0:
216,196,52001,1,0,0:0:0:0:
386,192,52172,6,0,B|466:192|466:192|386:192,1,135,6|8,1:2|0:0,0:0:0:0:
338,192,52683,1,0,0:0:0:0:
269,190,52854,1,0,1:0:0:0:
404,191,53194,2,0,L|500:191,1,67.5,8|0,0:0|0:0,0:0:0:0:
302,65,53535,6,0,L|158:65,1,135,6|8,1:2|0:0,0:0:0:0:
238,63,54047,1,0,1:0:0:0:
374,61,54388,2,0,L|454:61,2,67.5,0|8|0,1:0|0:0|0:0,0:0:0:0:
205,208,54899,6,0,B|125:208|125:208|205:208,1,135,6|8,1:2|0:0,0:0:0:0:
250,209,55410,1,0,0:0:0:0:
321,207,55581,1,0,1:0:0:0:
182,194,55922,2,0,L|102:194,1,67.5,8|0,0:0|0:0,0:0:0:0:
285,195,56263,6,0,L|431:196,1,135,6|8,1:2|0:0,0:0:0:0:
419,195,56774,1,0,1:0:0:0:
285,195,57115,1,0,1:0:0:0:
349,195,57285,1,8,0:0:0:0:
413,195,57456,1,0,0:0:0:0:
244,318,57626,6,0,L|84:318,2,135,6|8|0,1:2|0:0|1:0,0:0:0:0:
312,319,58479,1,0,1:0:0:0:
379,319,58649,1,8,0:0:0:0:
137,311,58990,6,0,L|137:167,1,135,6|8,1:2|0:0,0:0:0:0:
265,176,59672,1,0,1:0:0:0:
201,176,59842,1,0,1:0:0:0:
137,176,60013,1,8,0:0:0:0:
380,198,60354,6,0,B|463:199|463:199|380:198,1,135,6|8,1:2|0:0,0:0:0:0:
341,197,60865,1,0,0:0:0:0:
272,197,61035,1,0,1:0:0:0:
134,204,61376,2,0,L|214:204,1,67.5,8|0,0:0|0:0,0:0:0:0:
32,231,61717,6,0,L|33:80,1,135,0|8,1:0|0:0,0:0:0:0:
109,103,62229,1,0,1:0:0:0:
176,103,62399,2,0,L|16:103,1,135,6|8,1:2|0:0,0:0:0:0:
289,72,63081,6,0,L|129:72,1,135,6|8,1:2|0:0,0:0:0:0:
222,71,63592,1,0,0:0:0:0:
289,72,63763,1,0,1:0:0:0:
154,72,64104,2,0,L|74:72,1,67.5,8|0,0:0|0:0,0:0:0:0:
255,78,64444,6,0,L|415:78,1,135,6|8,1:2|0:0,0:0:0:0:
390,78,64956,1,0,1:0:0:0:
256,214,65297,1,0,1:0:0:0:
320,214,65467,1,8,0:0:0:0:
384,214,65638,1,0,0:0:0:0:
216,191,65808,6,0,L|72:191,1,135,6|8,1:2|0:0,0:0:0:0:
149,189,66319,1,0,0:0:0:0:
216,191,66490,1,0,1:0:0:0:
356,190,66831,2,0,L|276:190,1,67.5,8|0,0:0|0:0,0:0:0:0:
459,320,67172,6,0,L|459:176,1,135,0|8,1:0|0:0,0:0:0:0:
379,176,67683,1,0,1:0:0:0:
235,304,68024,1,8,0:0:0:0:
299,304,68194,1,8,0:0:0:0:
363,304,68365,1,0,1:0:0:0:
194,295,68535,6,0,B|114:295|114:295|194:295,1,135,6|8,1:2|0:0,0:0:0:0:
226,295,69047,2,0,L|66:295,1,135,0|8,1:2|0:0,0:0:0:0:
162,295,69558,1,0,1:2:0:0:
402,303,69899,6,0,B|482:303|482:303|402:303,1,135,8|8,1:2|1:2,0:0:0:0:
290,313,70581,2,0,L|434:313,1,135,8|8,1:2|1:2,0:0:0:0:
181,312,71263,5,6,1:2:0:0:
256,192,71604,12,8,73308,0:0:0:0:
204,193,73819,6,0,L|44:193,1,135,6|0,1:2|1:0,0:0:0:0:
140,193,74331,1,8,0:0:0:0:
275,126,74672,1,0,1:0:0:0:
343,126,74842,1,0,1:0:0:0:
410,126,75013,1,8,0:0:0:0:
241,124,75183,6,0,L|82:122,1,135,6|0,1:2|1:0,0:0:0:0:
107,123,75694,1,8,0:0:0:0:
241,124,76035,2,0,L|101:124,1,135,0|8,1:0|0:0,0:0:0:0:
276,131,76547,6,0,B|372:131|372:131|308:131,1,135,6|0,1:2|1:0,0:0:0:0:
261,130,77058,1,8,0:0:0:0:
126,131,77399,2,0,L|126:211,1,67.5,0|0,1:0|1:0,0:0:0:0:
190,195,77740,1,8,0:0:0:0:
359,192,77910,6,0,B|359:256|359:330,1,135,6|0,1:2|1:0,0:0:0:0:
288,320,78422,1,8,0:0:0:0:
149,320,78763,2,0,L|149:250,1,67.5,0|0,1:0|1:0,0:0:0:0:
224,256,79104,1,8,0:0:0:0:
57,259,79274,6,0,L|58:108,1,135,6|0,1:2|1:0,0:0:0:0:
126,116,79785,1,8,0:0:0:0:
263,117,80126,1,0,1:0:0:0:
194,117,80297,1,0,1:0:0:0:
126,116,80467,1,8,0:0:0:0:
296,130,80638,6,0,L|436:130,1,135,6|0,1:2|1:0,0:0:0:0:
363,130,81149,1,8,0:0:0:0:
228,195,81490,2,0,L|370:195,1,135,0|8,1:0|0:0,0:0:0:0:
192,194,82001,6,0,B|112:194|112:194|176:194,1,135,6|0,1:2|1:0,0:0:0:0:
237,193,82512,1,8,0:0:0:0:
373,193,82854,2,0,L|373:113,1,67.5,0|0,1:0|1:0,0:0:0:0:
305,121,83194,1,8,0:0:0:0:
135,129,83365,6,0,B|68:129|68:129|135:129,1,135,6|0,1:2|1:0,0:0:0:0:
206,129,83876,1,8,0:0:0:0:
346,195,84217,1,0,1:0:0:0:
278,193,84388,1,0,1:0:0:0:
209,193,84558,1,8,0:0:0:0:
379,198,84729,5,6,1:2:0:0:
379,198,86092,1,0,1:0:0:0:
209,193,86263,6,0,B|129:193|129:193|209:193,1,135,8|0,0:0|1:0,0:0:0:0:
320,194,86944,2,0,L|400:194,2,67.5,6|6|6,1:2|1:2|1:2,0:0:0:0:
150,193,87456,5,6,1:2:0:0:
