osu file format v14

[General]
AudioFilename: audio.mp3
AudioLeadIn: 0
PreviewTime: 51277
Countdown: 0
SampleSet: Soft
StackLeniency: 0.7
Mode: 2
LetterboxInBreaks: 0
WidescreenStoryboard: 1

[Editor]
Bookmarks: 5638,16035,16547,19444,30354,41263,46717,84729
DistanceSpacing: 1
BeatDivisor: 4
GridSize: 16
TimelineZoom: 3.799998

[Metadata]
Title:Ketsui no Hikari
TitleUnicode:決意の光
Artist:Mifune Shioriko (CV: Koizumi Moeka)
ArtistUnicode:三船栞子 (CV: 小泉萌香)
Creator:BlackBN
Version:Usaha's Rain
Source:ラブライブ!虹ヶ咲学園スクールアイドル同好会
Tags:BlackBq lovelive! love live! nijigasaki high school idol club rabu raibu! gakuen sukuuru aidoru doukou-kai sukūru sukuru dōkō-kai doko-kai japanese anime video game videogame rock j-rock jrock short ver. version 3rdアルバム 3rd album Just Believe!!! スクールアイドルフェスティバル ALL STARS festival fesutibaru 中村歩 nakamura ayumu 菊池博人 kikuchi hiroto Greaper Natsuko R-34 R34 bigh bighzonda Usaha Takekii Hanasaka Yui Nana Abe
BeatmapID:3612957
BeatmapSetID:1742382

[Difficulty]
HPDrainRate:5
CircleSize:3.8
OverallDifficulty:9
ApproachRate:9
SliderMultiplier:1.76
SliderTickRate:2

[Events]
//Background and Video events
0,0,"bg.jpg",0,0
//Break Periods
//Storyboard Layer 0 (Background)
//Storyboard Layer 1 (Fail)
//Storyboard Layer 2 (Pass)
//Storyboard Layer 3 (Foreground)
//Storyboard Layer 4 (Overlay)
//Storyboard Sound Samples

[TimingPoints]
354,340.909090909091,4,2,2,60,1,0
5552,-100,4,2,2,60,0,0
5638,-100,4,2,2,70,0,0
16547,-100,4,2,2,60,0,0
19444,-111.111111111111,4,2,2,60,0,0
30268,-111.111111111111,4,2,2,60,0,0
30354,-100,4,2,2,70,0,0
41263,-100,4,2,2,60,0,0
47569,-100,4,2,2,60,0,0
47740,-100,4,2,2,60,0,0
47910,-100,4,2,2,60,0,0
48081,-100,4,2,2,60,0,0
49444,-100,4,2,2,70,0,0
50211,-100,4,2,2,5,0,0
50297,-100,4,2,2,70,0,0
50552,-100,4,2,2,5,0,0
50638,-100,4,2,2,70,0,0
52172,-90.9090909090909,4,2,2,70,0,1
71263,-100,4,2,2,60,0,0
73819,-100,4,2,2,70,0,0

[Colours]
Combo1 : 80,245,146
Combo2 : 18,143,121
Combo3 : 249,237,132

[HitObjects]
311,227,354,6,0,L|398:225,2,88,0|0|0,1:0|0:0|0:0,0:0:0:0:
161,180,865,1,0,1:0:0:0:
270,162,1035,2,0,L|271:59,1,88
421,184,1376,1,0,1:0:0:0:
312,166,1546,2,0,L|311:63,1,88
75,104,1888,6,0,L|34:20,2,88,0|0|0,1:0|0:0|0:0,0:0:0:0:
226,148,2399,2,0,L|320:148,2,88,0|0|0,1:0|1:0|1:0,0:0:0:0:
76,235,2910,1,0,1:0:0:0:
311,247,3081,6,0,L|373:247,1,44,2|2,0:0|0:0,0:0:0:0:
360,229,3251,2,0,L|316:229,1,44
160,197,3422,2,0,L|116:197,1,44,0|2,0:0|0:0,0:0:0:0:
275,164,3592,5,0,1:0:0:0:
322,168,3677,1,0,0:0:0:0:
356,134,3762,1,0,0:0:0:0:
353,86,3847,1,0,0:0:0:0:
313,58,3932,1,2,0:0:0:0:
266,70,4018,1,0,0:0:0:0:
88,174,4104,5,0,1:0:0:0:
58,153,4189,1,0,0:0:0:0:
43,121,4274,1,0,0:0:0:0:
45,86,4359,1,0,0:0:0:0:
64,56,4444,1,0,0:0:0:0:
96,39,4530,1,0,0:0:0:0:
184,135,4615,5,0,1:0:0:0:
228,129,4700,1,0,0:0:0:0:
272,123,4785,1,0,1:0:0:0:
317,116,4871,1,0,0:0:0:0:
361,106,4956,1,0,1:0:0:0:
317,116,5041,1,0,0:0:0:0:
171,106,5126,6,0,L|99:106,1,44,8|0,0:0|1:0,0:0:0:0:
278,165,5297,2,0,L|350:165,2,44,0|0|8,1:0|1:0|0:0,0:0:0:0:
32,250,5638,6,0,L|29:366,1,88,6|0,1:2|0:0,0:0:0:0:
181,245,5979,1,0,1:0:0:0:
58,231,6149,2,0,L|58:137,1,88,8|0,0:0|0:0,0:0:0:0:
208,99,6490,2,0,L|109:99,2,88,0|0|8,1:0|1:0|0:0,0:0:0:0:
446,204,7001,6,0,L|251:195,1,176,6|0,1:2|1:0,0:0:0:0:
421,181,7513,2,0,L|431:87,1,88,8|0,0:0|0:0,0:0:0:0:
279,74,7854,2,0,L|185:78,2,88,0|0|8,1:0|1:0|0:0,0:0:0:0:
38,233,8365,6,0,P|39:188|143:123,1,176,6|0,1:2|1:0,0:0:0:0:
289,157,8876,2,0,L|295:56,1,88,8|0,0:0|0:0,0:0:0:0:
444,88,9217,1,0,1:0:0:0:
300,103,9388,2,0,L|308:-6,1,88,0|8,1:0|0:0,0:0:0:0:
74,233,9729,6,0,L|288:208,1,176,6|0,1:2|1:0,0:0:0:0:
99,159,10240,2,0,L|95:60,1,88,8|0,0:0|0:0,0:0:0:0:
246,92,10581,2,0,L|318:92,1,44,0|0,1:0|0:0,0:0:0:0:
132,156,10751,2,0,L|60:156,2,44,0|0|8,1:0|1:0|0:0,0:0:0:0:
406,259,11092,6,0,P|464:244|405:184,1,176,6|0,1:2|1:0,0:0:0:0:
259,179,11604,2,0,L|163:179,1,88,8|0,0:0|0:0,0:0:0:0:
320,102,11944,1,0,1:0:0:0:
196,102,12115,2,0,L|100:102,1,88,0|8,1:0|0:0,0:0:0:0:
344,228,12456,6,0,L|357:40,1,176,6|0,1:2|1:0,0:0:0:0:
206,161,12967,2,0,L|295:157,1,88,8|0,0:0|0:0,0:0:0:0:
144,136,13308,2,0,L|144:244,1,88,0|0,1:0|1:0,0:0:0:0:
10,165,13649,1,8,0:0:0:0:
289,264,13819,6,0,P|351:248|284:201,1,176,6|0,1:2|1:0,0:0:0:0:
143,212,14331,2,0,L|140:116,1,88,8|0,0:0|0:0,0:0:0:0:
290,94,14672,2,0,L|183:89,2,88,0|0|8,1:0|1:0|0:0,0:0:0:0:
57,271,15183,6,0,P|26:224|77:117,1,176,6|0,1:2|1:0,0:0:0:0:
219,128,15694,2,0,L|315:128,2,88,8|0|0,0:0|0:0|1:0,0:0:0:0:
370,196,16206,2,0,L|400:241,2,44,0|0|8,1:0|1:0|0:0,0:0:0:0:
126,233,16547,6,0,P|81:209|144:123,1,176,4|0,1:2|0:0,0:0:0:0:
278,152,17058,2,0,L|282:47,1,88,0|0,0:0|1:0,0:0:0:0:
131,182,17399,2,0,L|225:188,2,88,0|0|0,0:0|0:0|1:0,0:0:0:0:
281,211,17910,6,0,L|187:217,2,88,0|0|0,0:0|0:0|1:0,0:0:0:0:
432,162,18422,1,0,0:0:0:0:
300,184,18592,2,0,L|297:85,1,88,0|0,0:0|1:0,0:0:0:0:
147,68,18933,2,0,L|85:66,1,44,8|8,0:0|0:0,0:0:0:0:
268,105,19104,2,0,L|330:107,2,44,8|8|0,0:0|0:0|1:0,0:0:0:0:
36,206,19444,6,0,L|219:179,1,158.399995166016,6|8,1:2|0:3,0:0:0:0:
113,149,19956,2,0,L|111:55,1,79.1999975830079,0|8,0:0|0:3,0:0:0:0:
250,59,20297,1,0,0:0:0:0:
333,76,20467,1,8,0:3:0:0:
250,59,20638,1,0,0:0:0:0:
116,120,20808,5,8,0:3:0:0:
33,137,20978,1,0,0:0:0:0:
116,120,21149,1,8,0:3:0:0:
259,159,21319,2,0,L|265:245,1,79.1999975830079,0|8,0:0|0:3,0:0:0:0:
185,281,21660,2,0,L|99:281,1,79.1999975830079,0|8,1:0|0:3,0:0:0:0:
98,242,22001,1,0,1:0:0:0:
337,235,22172,6,0,P|383:213|342:138,1,158.399995166016,0|8,1:0|0:3,0:0:0:0:
222,133,22683,2,0,L|320:132,1,79.1999975830079,0|8,0:0|0:3,0:0:0:0:
381,161,23024,2,0,L|383:251,1,79.1999975830079,0|8,0:0|0:3,0:0:0:0:
240,265,23365,5,0,0:0:0:0:
171,252,23535,1,8,0:3:0:0:
125,199,23705,1,0,0:0:0:0:
123,129,23876,1,8,0:3:0:0:
166,74,24046,1,0,0:0:0:0:
234,58,24217,1,8,0:3:0:0:
379,136,24388,6,0,L|381:221,1,79.1999975830079,0|8,1:0|0:3,0:0:0:0:
492,258,24729,1,0,1:0:0:0:
253,265,24899,6,0,L|448:255,1,158.399995166016,6|8,1:2|0:3,0:0:0:0:
307,209,25410,2,0,L|304:122,1,79.1999975830079,0|8,0:0|0:3,0:0:0:0:
441,166,25751,2,0,P|481:138|427:46,1,158.399995166016
351,59,26263,1,8,0:3:0:0:
202,113,26433,6,0,L|290:110,1,79.1999975830079,0|8,0:0|0:3,0:0:0:0:
361,153,26774,2,0,L|368:241,1,79.1999975830079,0|8,0:0|0:3,0:0:0:0:
216,239,27115,2,0,L|209:155,1,79.1999975830079,0|8,1:0|0:3,0:0:0:0:
321,133,27456,1,0,1:0:0:0:
87,94,27626,6,0,L|267:79,2,158.399995166016,6|8|8,1:2|0:3|0:3,0:0:0:0:
347,150,28649,1,8,0:3:0:0:
78,144,28819,1,0,1:2:0:0:
371,115,29672,5,0,1:0:0:0:
221,128,29842,2,0,L|153:128,1,39.5999987915039,0|0,1:0|1:0,0:0:0:0:
328,193,30013,2,0,L|375:196,2,39.5999987915039,8|8|0,0:0|0:0|1:0,0:0:0:0:
73,244,30354,6,0,P|29:211|78:122,1,176,6|8,1:2|0:0,0:0:0:0:
231,141,30865,2,0,L|236:237,1,88,0|0,0:0|1:0,0:0:0:0:
84,172,31206,1,0,1:0:0:0:
199,149,31376,1,8,0:0:0:0:
83,132,31547,1,0,1:0:0:0:
329,204,31717,6,0,L|334:19,1,176,0|8,0:0|0:0,0:0:0:0:
92,195,32229,2,0,L|91:99,1,88,0|0,1:0|0:0,0:0:0:0:
249,92,32569,1,0,1:0:0:0:
108,117,32740,2,0,L|7:111,1,88,8|0,0:0|1:0,0:0:0:0:
291,227,33081,6,0,L|493:210,1,176,6|8,1:2|0:0,0:0:0:0:
474,164,33592,2,0,L|376:156,1,88,0|0,0:0|1:0,0:0:0:0:
227,182,33933,2,0,L|224:91,1,88,0|8,1:0|0:0,0:0:0:0:
365,78,34274,1,0,1:0:0:0:
126,172,34444,6,0,P|78:150|143:66,1,176,0|8,0:0|0:0,0:0:0:0:
364,119,34956,2,0,L|372:224,1,88,0|0,1:0|0:0,0:0:0:0:
216,225,35297,2,0,L|106:208,2,88,0|8|0,1:0|0:0|1:0,0:0:0:0:
464,103,35808,6,0,L|252:94,1,176,6|8,1:2|0:0,0:0:0:0:
431,175,36319,2,0,L|436:278,1,88,0|0,0:0|1:0,0:0:0:0:
282,194,36660,1,0,1:0:0:0:
406,184,36831,1,8,0:0:0:0:
283,181,37001,1,0,0:0:0:0:
39,325,37172,6,0,L|39:135,1,176,0|8,1:0|0:0,0:0:0:0:
290,192,37683,2,0,L|293:97,1,88,0|0,0:0|1:0,0:0:0:0:
143,88,38024,1,0,1:0:0:0:
266,68,38194,1,8,0:0:0:0:
143,88,38365,1,0,0:0:0:0:
394,221,38535,6,0,L|181:204,1,176,6|8,1:2|0:0,0:0:0:0:
212,172,39047,1,0,0:0:0:0:
362,157,39217,2,0,L|372:62,1,88,0|0,1:0|1:0,0:0:0:0:
276,56,39558,2,0,L|171:55,1,88,8|0,0:0|0:0,0:0:0:0:
345,205,39899,6,0,P|387:194|346:90,1,176,0|10,1:0|0:0,0:0:0:0:
266,115,40410,1,0,1:0:0:0:
107,152,40581,1,8,0:0:0:0:
47,141,40694,1,8,0:0:0:0:
107,152,40808,1,8,0:0:0:0:
298,158,40922,5,0,1:0:0:0:
362,149,41035,1,0,1:0:0:0:
428,135,41149,1,0,1:0:0:0:
211,99,41263,1,6,1:2:0:0:
363,229,43479,5,0,1:0:0:0:
92,153,43819,1,0,1:0:0:0:
197,137,43990,1,6,1:2:0:0:
305,68,45013,5,8,0:3:0:0:
67,154,45183,2,0,L|62:57,1,88,0|0,1:0|0:0,0:0:0:0:
160,38,45524,1,0,1:0:0:0:
313,155,45694,2,0,L|319:59,1,88,10|0,0:0|1:0,0:0:0:0:
168,113,46035,5,8,0:0:0:0:
235,109,46148,1,8,0:0:0:0:
303,105,46262,1,8,0:0:0:0:
123,186,46376,5,0,1:0:0:0:
63,175,46489,1,0,1:0:0:0:
123,186,46603,1,0,1:0:0:0:
322,231,46717,6,0,L|477:214,1,117.333333333333,6|0,1:2|0:0,0:0:0:0:
307,90,47229,2,0,L|379:90,1,44,0|0,1:0|1:0,0:0:0:0:
199,174,47399,2,0,L|110:174,1,88,14|0,1:2|0:0,0:0:0:0:
107,118,47740,2,0,L|196:118,1,88
443,223,48081,5,0,1:0:0:0:
327,243,48251,2,0,L|226:242,2,88,8|0|0,0:0|0:0|1:0,0:0:0:0:
175,229,48763,2,0,L|164:323,1,88,14|0,0:0|1:0,0:0:0:0:
408,177,49104,2,0,L|415:269,1,88,8|8,0:0|0:0,0:0:0:0:
366,297,49359,1,8,0:0:0:0:
150,275,49444,5,6,1:2:0:0:
108,266,49529,1,0,0:0:0:0:
87,229,49614,1,8,0:0:0:0:
103,190,49699,1,8,0:0:0:0:
143,176,49784,1,8,0:0:0:0:
388,177,49956,2,0,L|391:86,1,88,6|0,1:2|0:0,0:0:0:0:
140,153,50297,2,0,L|351:155,1,176,6|6,1:2|1:2,0:0:0:0:
301,219,51319,5,0,0:0:0:0:
155,256,51490,1,8,0:0:0:0:
122,217,51575,1,0,1:0:0:0:
119,174,51660,1,0,1:0:0:0:
149,135,51745,1,0,1:0:0:0:
315,153,51831,2,0,L|428:149,1,88,8|0,0:0|0:0,0:0:0:0:
92,228,52172,6,0,L|86:119,1,96.8000029541017,6|0,1:2|0:0,0:0:0:0:
247,108,52513,1,8,0:0:0:0:
121,95,52683,1,0,0:0:0:0:
287,93,52854,2,0,L|293:202,1,96.8000029541017,0|0,1:0|1:0,0:0:0:0:
196,239,53194,1,8,0:0:0:0:
366,177,53365,1,0,0:0:0:0:
113,295,53535,6,0,L|316:283,1,193.600005908203,6|8,1:2|0:0,0:0:0:0:
140,187,54047,2,0,L|132:300,1,96.8000029541017,0|0,1:0|0:0,0:0:0:0:
298,215,54388,1,0,1:0:0:0:
190,222,54558,2,0,L|73:216,1,96.8000029541017,8|0,0:0|0:0,0:0:0:0:
392,229,54899,6,0,L|398:120,1,96.8000029541017,6|0,1:2|0:0,0:0:0:0:
237,109,55240,1,8,0:0:0:0:
363,96,55410,1,0,0:0:0:0:
197,94,55581,2,0,L|191:203,1,96.8000029541017,0|0,1:0|1:0,0:0:0:0:
288,240,55921,1,8,0:0:0:0:
118,178,56092,1,0,0:0:0:0:
380,226,56263,6,0,P|434:212|377:129,1,193.600005908203,6|8,1:2|0:0,0:0:0:0:
208,155,56774,2,0,L|308:155,2,96.8000029541017,0|0|0,1:0|0:0|1:0,0:0:0:0:
374,195,57285,2,0,L|381:297,1,96.8000029541017,8|0,0:0|0:0,0:0:0:0:
109,280,57626,6,0,L|323:263,1,193.600005908203,6|8,1:2|0:0,0:0:0:0:
307,227,58138,1,0,0:0:0:0:
143,173,58308,2,0,L|40:166,2,96.8000029541017,0|0|8,1:0|1:0|0:0,0:0:0:0:
300,170,58819,1,0,0:0:0:0:
32,261,58990,6,0,P|26:203|126:129,1,193.600005908203,6|8,1:2|0:0,0:0:0:0:
290,157,59501,1,0,0:0:0:0:
164,201,59672,2,0,L|160:100,1,96.8000029541017,0|0,1:0|1:0,0:0:0:0:
329,72,60013,2,0,L|425:72,1,96.8000029541017,8|0,0:0|0:0,0:0:0:0:
171,258,60354,6,0,P|113:236|190:162,1,193.600005908203,6|8,1:2|0:0,0:0:0:0:
286,167,60865,1,0,0:0:0:0:
121,241,61035,2,0,L|119:141,1,96.8000029541017,0|0,1:0|1:0,0:0:0:0:
221,117,61376,1,8,0:0:0:0:
55,94,61547,1,0,0:0:0:0:
316,87,61717,6,0,L|428:86,1,96.8000029541017,0|0,1:0|1:0,0:0:0:0:
241,135,62058,2,0,L|126:135,1,96.8000029541017,8|0,0:0|1:0,0:0:0:0:
402,123,62399,1,6,1:2:0:0:
445,138,62484,1,0,0:0:0:0:
454,184,62569,1,8,0:0:0:0:
420,215,62654,1,8,0:0:0:0:
253,236,62740,6,0,L|182:233,1,48.4000014770508,8|8,0:0|0:0,0:0:0:0:
379,312,62910,2,0,L|446:311,1,48.4000014770508,8|8,0:0|0:0,0:0:0:0:
179,271,63081,6,0,L|52:271,1,96.8000029541017,6|0,1:2|0:0,0:0:0:0:
242,167,63422,1,8,0:0:0:0:
116,154,63592,1,0,0:0:0:0:
281,163,63763,2,0,L|410:163,1,96.8000029541017,0|0,1:0|1:0,0:0:0:0:
242,92,64103,1,8,0:0:0:0:
401,125,64274,1,0,0:0:0:0:
143,247,64444,6,0,L|131:44,1,193.600005908203,6|8,1:2|0:0,0:0:0:0:
299,106,64956,2,0,L|194:106,1,96.8000029541017,0|0,1:0|0:0,0:0:0:0:
36,139,65297,1,0,1:0:0:0:
152,174,65467,2,0,L|158:75,1,96.8000029541017,8|0,0:0|0:0,0:0:0:0:
414,216,65808,6,0,L|287:216,1,96.8000029541017,6|0,1:2|0:0,0:0:0:0:
181,171,66149,1,8,0:0:0:0:
307,158,66319,1,0,0:0:0:0:
137,189,66490,2,0,L|137:60,1,96.8000029541017,0|0,1:0|1:0,0:0:0:0:
232,46,66830,1,8,0:0:0:0:
69,77,67001,1,0,0:0:0:0:
237,98,67172,6,0,L|236:204,1,96.8000029541017,0|0,1:0|1:0,0:0:0:0:
491,221,67513,2,0,L|381:217,1,96.8000029541017,8|0,0:0|1:0,0:0:0:0:
236,194,67854,2,0,L|235:93,1,96.8000029541017,0|8,1:0|0:0,0:0:0:0:
284,69,68109,1,8,0:0:0:0:
434,114,68194,5,8,0:0:0:0:
463,152,68279,1,8,0:0:0:0:
463,200,68364,1,0,1:0:0:0:
434,237,68449,1,0,1:0:0:0:
244,249,68535,6,0,L|130:248,1,96.8000029541017,6|8,1:2|0:0,0:0:0:0:
196,207,68791,1,8,0:0:0:0:
250,200,68876,1,8,0:0:0:0:
196,207,68961,1,8,0:0:0:0:
51,187,69047,5,0,1:2:0:0:
31,151,69132,1,0,0:0:0:0:
29,111,69217,1,8,0:0:0:0:
43,74,69302,1,8,0:0:0:0:
73,47,69387,1,8,0:0:0:0:
112,35,69473,1,8,0:0:0:0:
271,109,69558,5,0,1:2:0:0:
272,141,69643,1,0,0:0:0:0:
273,173,69728,1,8,0:0:0:0:
275,205,69813,1,8,0:0:0:0:
125,256,69899,6,0,L|63:253,1,48.4000014770508,8|0,1:2|0:0,0:0:0:0:
79,215,70069,2,0,L|141:218,1,48.4000014770508,8|8,0:0|0:0,0:0:0:0:
302,219,70240,6,0,L|364:222,1,48.4000014770508,8|0,1:2|0:0,0:0:0:0:
186,157,70410,2,0,L|124:154,1,48.4000014770508,8|8,0:0|0:0,0:0:0:0:
318,144,70581,6,0,L|380:141,1,48.4000014770508,8|0,1:2|0:0,0:0:0:0:
364,103,70751,2,0,L|302:106,1,48.4000014770508,8|8,0:0|0:0,0:0:0:0:
153,105,70922,2,0,L|91:108,1,48.4000014770508,8|0,1:2|0:0,0:0:0:0:
280,83,71092,2,0,L|342:80,1,48.4000014770508,8|8,0:0|0:0,0:0:0:0:
148,204,71263,6,0,P|100:170|163:87,1,176,6|0,1:2|0:0,0:0:0:0:
291,161,71774,2,0,P|339:127|276:44,1,176
59,226,72456,2,0,L|263:218,1,176
102,166,72967,2,0,L|100:68,1,88
245,58,73308,1,8,0:0:0:0:
201,57,73393,1,0,1:0:0:0:
157,57,73478,1,0,1:0:0:0:
113,56,73563,1,0,1:0:0:0:
69,56,73648,1,8,0:0:0:0:
339,175,73819,6,0,P|391:135|325:51,1,176,6|0,1:2|1:0,0:0:0:0:
195,145,74331,2,0,L|195:51,1,88,8|0,0:0|0:0,0:0:0:0:
346,79,74672,2,0,L|445:79,2,88,0|0|8,1:0|1:0|0:0,0:0:0:0:
96,221,75183,6,0,L|291:212,1,176,6|0,1:2|1:0,0:0:0:0:
128,151,75695,2,0,L|32:153,1,88,8|0,0:0|0:0,0:0:0:0:
190,91,76036,2,0,L|284:95,2,88,0|0|8,1:0|1:0|0:0,0:0:0:0:
435,257,76547,6,0,P|468:217|419:110,1,176,6|0,1:2|1:0,0:0:0:0:
276,113,77058,2,0,L|175:112,1,88,8|0,0:0|0:0,0:0:0:0:
345,140,77399,1,0,1:0:0:0:
227,185,77570,2,0,L|224:87,1,88,0|8,1:0|0:0,0:0:0:0:
463,280,77911,6,0,L|249:255,1,176,6|0,1:2|1:0,0:0:0:0:
429,224,78422,2,0,L|425:125,1,88,8|0,0:0|0:0,0:0:0:0:
279,136,78763,2,0,L|207:136,1,44,0|0,1:0|0:0,0:0:0:0:
383,69,78933,2,0,L|455:69,2,44,0|0|8,1:0|1:0|0:0,0:0:0:0:
102,217,79274,6,0,L|97:30,1,176,6|0,1:2|1:0,0:0:0:0:
249,98,79786,2,0,L|153:98,1,88,8|0,0:0|0:0,0:0:0:0:
310,142,80126,1,0,1:0:0:0:
187,143,80297,2,0,L|91:143,1,88,0|8,1:0|0:0,0:0:0:0:
358,201,80638,6,0,P|403:173|348:93,1,176,6|0,1:2|1:0,0:0:0:0:
197,150,81149,2,0,L|108:154,1,88,8|0,0:0|0:0,0:0:0:0:
259,231,81490,2,0,L|151:231,2,88,0|0|8,1:0|1:0|0:0,0:0:0:0:
23,362,82001,6,0,L|23:160,1,176,6|0,1:2|1:0,0:0:0:0:
174,172,82513,2,0,L|270:169,1,88,8|0,0:0|0:0,0:0:0:0:
112,105,82854,2,0,L|47:31,2,88,0|0|8,1:0|1:0|0:0,0:0:0:0:
366,201,83365,6,0,P|430:185|373:133,1,176,6|0,1:2|1:0,0:0:0:0:
221,149,83876,2,0,L|125:149,2,88,8|0|0,0:0|0:0|1:0,0:0:0:0:
373,146,84388,2,0,L|403:191,2,44,0|0|8,1:0|1:0|0:0,0:0:0:0:
124,242,84729,6,0,L|327:224,1,176,6|0,1:2|0:0,0:0:0:0:
449,155,85240,2,0,L|344:151,1,88,0|0,0:0|1:0,0:0:0:0:
211,145,85581,2,0,L|305:151,2,88,0|0|0,0:0|0:0|1:0,0:0:0:0:
368,233,86092,2,0,L|371:182,1,44,0|0,1:0|1:0,0:0:0:0:
211,164,86263,5,8,0:0:0:0:
161,163,86348,1,8,0:0:0:0:
112,159,86433,1,0,1:0:0:0:
63,156,86518,1,0,1:0:0:0:
250,180,86604,2,0,L|311:180,1,44,0|0,1:0|1:0,0:0:0:0:
296,162,86774,2,0,L|252:162,1,44,0|0,1:0|1:0,0:0:0:0:
62,259,86944,6,0,L|63:151,1,88,6|6,1:2|1:2,0:0:0:0:
184,131,87285,1,6,1:2:0:0:
429,235,87456,1,6,1:2:0:0:
