osu file format v14

[General]
AudioFilename: audio.mp3
AudioLeadIn: 0
PreviewTime:51277
Countdown: 0
SampleSet: Soft
StackLeniency: 0.7
Mode: 2
LetterboxInBreaks: 0
WidescreenStoryboard: 1

[Editor]
Bookmarks: 5638,11092,16547,19444,24899,30354,35808,41263,46717,57626,63081,67172,73819,79274
DistanceSpacing: 1.3
BeatDivisor: 4
GridSize: 16
TimelineZoom: 2.599999

[Metadata]
Title:Ketsui no Hikari
TitleUnicode:決意の光
Artist:Mifune Shioriko (CV: Koizumi Moeka)
ArtistUnicode:三船栞子 (CV: 小泉萌香)
Creator:BlackBN
Version:Platter
Source:ラブライブ!虹ヶ咲学園スクールアイドル同好会
Tags:BlackBq lovelive! love live! nijigasaki high school idol club rabu raibu! gakuen sukuuru aidoru doukou-kai sukūru sukuru dōkō-kai doko-kai japanese anime video game videogame rock j-rock jrock short ver. version 3rdアルバム 3rd album Just Believe!!! スクールアイドルフェスティバル ALL STARS festival fesutibaru 中村歩 nakamura ayumu 菊池博人 kikuchi hiroto Greaper Natsuko R-34 R34 bigh bighzonda Usaha Takekii Hanasaka Yui Nana Abe
BeatmapID:3614784
BeatmapSetID:1742382

[Difficulty]
HPDrainRate:4
CircleSize:3.4
OverallDifficulty:8
ApproachRate:8
SliderMultiplier:1.5
SliderTickRate:2

[Events]
//Background and Video events
0,0,"bg.jpg",0,0
//Break Periods
//Storyboard Layer 0 (Background)
//Storyboard Layer 1 (Fail)
//Storyboard Layer 2 (Pass)
//Storyboard Layer 3 (Foreground)
//Storyboard Layer 4 (Overlay)
//Storyboard Sound Samples

[TimingPoints]
354,340.909090909091,4,2,2,60,1,0
5552,-100,4,2,2,60,0,0
5638,-100,4,2,2,70,0,0
16547,-100,4,2,2,60,0,0
30268,-100,4,2,2,60,0,0
30354,-100,4,2,2,70,0,0
41263,-100,4,2,2,60,0,0
49444,-100,4,2,2,70,0,0
50211,-100,4,2,2,5,0,0
50297,-100,4,2,2,70,0,0
50552,-100,4,2,2,5,0,0
50638,-100,4,2,2,70,0,0
52172,-100,4,2,2,70,0,1
71263,-100,4,2,2,60,0,0
73819,-100,4,2,2,70,0,0

[Colours]
Combo1 : 80,245,146
Combo2 : 18,143,121
Combo3 : 249,237,132

[HitObjects]
126,316,354,5,0,1:0:0:0:
48,274,524,1,0,0:0:0:0:
47,190,694,1,0,0:0:0:0:
123,158,865,1,0,1:0:0:0:
201,128,1035,1,0,0:0:0:0:
278,101,1206,1,0,0:0:0:0:
135,174,1376,6,0,L|30:174,2,75,0|0|0,1:0|0:0|0:0,0:0:0:0:
212,175,1888,2,0,L|310:170,2,75,0|0|0,1:0|0:0|0:0,0:0:0:0:
356,312,2399,5,0,1:0:0:0:
437,288,2569,1,0,1:0:0:0:
439,208,2739,1,0,1:0:0:0:
361,176,2910,1,0,1:0:0:0:
210,288,3081,6,0,P|169:210|290:210,1,225,2|0,0:0|1:0,0:0:0:0:
347,182,3763,2,0,P|348:103|212:103,1,225
150,291,4444,2,0,P|73:226|163:176,1,225,0|0,0:0|1:0,0:0:0:0:
301,183,5126,2,0,L|405:178,1,75,8|0,0:0|1:0,0:0:0:0:
376,110,5467,1,8,0:0:0:0:
135,307,5638,6,0,P|89:267|152:218,1,150,6|0,1:2|1:0,0:0:0:0:
298,212,6149,2,0,L|299:130,1,75,8|0,0:0|0:0,0:0:0:0:
221,132,6490,2,0,L|129:122,2,75,0|0|8,1:0|1:0|0:0,0:0:0:0:
462,315,7001,6,0,L|311:297,1,150,6|0,1:2|1:0,0:0:0:0:
154,266,7513,2,0,L|253:253,1,75,8|0,0:0|0:0,0:0:0:0:
306,251,7854,2,0,L|307:160,1,75,0|0,1:0|1:0,0:0:0:0:
231,166,8194,1,8,0:0:0:0:
472,314,8365,6,0,P|469:228|395:226,1,150,6|0,1:2|1:0,0:0:0:0:
261,213,8876,2,0,L|174:199,1,75,8|0,0:0|0:0,0:0:0:0:
264,149,9217,2,0,L|354:141,2,75,0|0|8,1:0|1:0|0:0,0:0:0:0:
22,304,9729,6,0,L|193:284,1,150,6|0,1:2|1:0,0:0:0:0:
330,280,10240,2,0,L|330:192,1,75,8|0,0:0|0:0,0:0:0:0:
253,208,10581,2,0,L|160:201,1,75,0|0,1:0|1:0,0:0:0:0:
140,182,10836,1,0,1:0:0:0:
141,127,10922,1,8,0:0:0:0:
380,299,11092,6,0,L|199:280,1,150,6|0,1:2|1:0,0:0:0:0:
72,270,11604,2,0,L|180:261,1,75,8|0,0:0|0:0,0:0:0:0:
222,228,11944,2,0,L|222:153,1,75,0|0,1:0|1:0,0:0:0:0:
144,122,12285,1,8,0:0:0:0:
385,308,12456,6,0,P|432:260|378:206,1,150,6|0,1:2|1:0,0:0:0:0:
229,202,12967,2,0,L|229:124,1,75,8|0,0:0|0:0,0:0:0:0:
307,123,13308,2,0,L|415:116,2,75,0|0|8,1:0|1:0|0:0,0:0:0:0:
65,303,13819,6,0,L|225:293,1,150,6|0,1:2|1:0,0:0:0:0:
374,288,14331,2,0,L|277:275,1,75,8|0,0:0|0:0,0:0:0:0:
223,234,14672,2,0,L|316:223,1,75,0|0,1:0|1:0,0:0:0:0:
373,210,15013,1,8,0:0:0:0:
134,333,15183,6,0,P|124:264|209:257,1,150,6|0,1:2|1:0,0:0:0:0:
347,234,15694,2,0,L|347:143,1,75,8|0,0:0|0:0,0:0:0:0:
270,156,16035,2,0,L|188:146,1,75,0|0,1:0|1:0,0:0:0:0:
156,105,16291,1,0,1:0:0:0:
195,65,16376,1,8,0:0:0:0:
436,298,16547,5,4,1:2:0:0:
435,221,16888,2,0,L|435:133,1,75
345,141,17229,1,0,1:0:0:0:
270,140,17399,2,0,L|272:31,1,75
362,292,17740,1,0,1:0:0:0:
285,295,17910,2,0,L|188:291,1,75
120,253,18251,1,0,1:0:0:0:
205,223,18422,2,0,L|290:219,1,75
371,213,18763,5,0,1:0:0:0:
213,216,18933,1,8,0:0:0:0:
178,205,19018,1,8,0:0:0:0:
163,172,19103,1,8,0:0:0:0:
179,139,19188,1,8,0:0:0:0:
215,131,19273,1,0,1:0:0:0:
457,286,19444,5,6,1:2:0:0:
380,273,19615,2,0,L|381:193,1,75,0|8,0:0|0:3,0:0:0:0:
471,185,19956,2,0,L|309:175,1,150
245,170,20467,2,0,L|245:96,1,75,8|0,0:3|0:0,0:0:0:0:
322,308,20808,6,0,L|412:299,2,75,8|0|8,0:3|0:0|0:3,0:0:0:0:
232,305,21319,2,0,P|172:270|245:234,1,150,0|0,0:0|1:0,0:0:0:0:
324,232,22001,1,0,1:0:0:0:
180,336,22172,6,0,L|180:230,1,75,0|0,1:0|0:0,0:0:0:0:
257,260,22513,1,8,0:3:0:0:
347,256,22683,2,0,P|394:238|324:195,1,150
274,173,23194,1,8,0:3:0:0:
184,341,23365,6,0,L|356:333,1,150
409,337,23876,2,0,L|410:245,1,75,8|0,0:3|0:0,0:0:0:0:
333,252,24217,2,0,L|233:246,2,75,8|0|8,0:3|1:0|0:3,0:0:0:0:
409,249,24729,1,0,1:0:0:0:
169,317,24899,6,0,P|126:263|204:243,1,150,6|8,1:2|0:3,0:0:0:0:
271,236,25410,2,0,L|274:151,1,75,0|8,0:0|0:3,0:0:0:0:
197,158,25751,2,0,L|293:150,1,75,0|8,0:0|0:3,0:0:0:0:
362,331,26092,6,0,L|196:314,1,150
213,261,26604,1,8,0:3:0:0:
303,255,26774,2,0,P|351:226|291:168,1,150,0|0,0:0|1:0,0:0:0:0:
231,157,27285,2,0,L|136:152,1,75,8|0,0:3|1:0,0:0:0:0:
398,311,27626,6,0,L|401:148,1,150,6|8,1:2|0:3,0:0:0:0:
324,161,28138,1,0,0:0:0:0:
249,154,28308,2,0,L|152:149,1,75,8|0,0:3|0:0,0:0:0:0:
175,82,28649,1,8,0:3:0:0:
414,330,28819,5,0,1:2:0:0:
255,322,29672,1,0,1:0:0:0:
412,324,29842,1,0,1:0:0:0:
447,317,29927,1,0,1:0:0:0:
464,286,30012,1,8,0:0:0:0:
450,253,30097,1,8,0:0:0:0:
415,244,30182,1,0,1:0:0:0:
174,318,30354,6,0,L|82:314,2,75,6|0|8,1:2|0:0|0:0,0:0:0:0:
332,312,30865,2,0,P|385:268|320:232,1,150,0|0,0:0|1:0,0:0:0:0:
260,222,31376,1,8,0:0:0:0:
101,338,31547,6,0,L|278:321,1,150,0|0,1:0|1:0,0:0:0:0:
175,263,32058,1,8,0:0:0:0:
334,256,32229,2,0,P|345:182|283:170,1,150,0|0,1:0|1:0,0:0:0:0:
211,159,32740,2,0,L|118:156,1,75,8|0,0:0|1:0,0:0:0:0:
378,338,33081,6,0,L|464:327,2,75,6|0|8,1:2|0:0|0:0,0:0:0:0:
219,307,33592,2,0,L|55:295,1,150,0|0,0:0|1:0,0:0:0:0:
145,234,34104,2,0,L|234:227,1,75,8|0,0:0|1:0,0:0:0:0:
377,271,34444,6,0,L|467:263,2,75,0|0|8,0:0|1:0|0:0,0:0:0:0:
218,267,34956,2,0,P|166:240|228:187,1,150,0|0,1:0|1:0,0:0:0:0:
282,180,35467,2,0,L|374:174,1,75,8|0,0:0|1:0,0:0:0:0:
115,341,35808,6,0,L|116:191,1,150,6|8,1:2|0:0,0:0:0:0:
273,240,36319,2,0,P|324:199|268:156,1,150,0|0,0:0|1:0,0:0:0:0:
197,150,36831,2,0,L|114:145,1,75,8|0,0:0|0:0,0:0:0:0:
281,302,37172,6,0,P|343:275|311:216,1,150,0|8,1:0|0:0,0:0:0:0:
153,221,37683,2,0,L|307:202,1,150,0|0,0:0|1:0,0:0:0:0:
378,198,38194,2,0,L|379:117,1,75,8|0,0:0|0:0,0:0:0:0:
138,298,38535,6,0,P|95:251|160:211,1,150,6|8,1:2|0:0,0:0:0:0:
226,206,39047,1,0,0:0:0:0:
384,212,39217,2,0,P|398:137|315:125,1,150,0|8,1:0|0:0,0:0:0:0:
265,121,39729,1,0,0:0:0:0:
107,302,39899,6,0,L|195:295,1,75,0|0,1:0|1:0,0:0:0:0:
341,289,40240,2,0,L|340:194,1,75,10|0,0:0|1:0,0:0:0:0:
182,217,40581,1,8,0:0:0:0:
131,199,40694,1,8,0:0:0:0:
81,177,40808,1,8,0:0:0:0:
81,125,40921,1,0,1:0:0:0:
354,330,41263,6,0,L|453:326,1,75,6|0,1:2|0:0,0:0:0:0:
429,265,41604,1,8,0:3:0:0:
338,261,41774,2,0,L|181:250,1,150
266,196,42285,2,0,L|344:188,1,75,8|0,0:3|0:0,0:0:0:0:
181,346,42626,6,0,P|134:304|196:264,1,150,8|8,0:3|0:3,0:0:0:0:
279,254,43138,2,0,L|99:237,1,150,0|0,0:0|1:0,0:0:0:0:
131,177,43819,1,0,1:0:0:0:
373,328,43990,6,0,L|373:171,1,150,6|8,1:2|0:3,0:0:0:0:
282,183,44501,2,0,L|445:175,1,150
356,130,45013,1,8,0:3:0:0:
199,263,45183,5,0,1:0:0:0:
86,179,45524,1,0,1:0:0:0:
244,186,45694,2,0,L|244:95,1,75,10|0,0:0|1:0,0:0:0:0:
86,325,46035,1,8,0:0:0:0:
35,299,46149,1,8,0:0:0:0:
36,241,46263,1,8,0:0:0:0:
87,213,46376,1,0,1:0:0:0:
357,288,46717,6,0,L|464:283,2,100,6|0|0,1:2|0:0|1:0,0:0:0:0:
156,256,47399,2,0,L|18:246,2,100,14|0|0,1:2|0:0|0:0,0:0:0:0:
357,220,48081,6,0,L|486:205,1,100,0|8,1:0|0:0,0:0:0:0:
456,134,48535,1,0,1:0:0:0:
254,179,48763,2,0,L|255:62,1,75,14|0,0:0|1:0,0:0:0:0:
413,110,49104,2,0,L|413:7,1,75,8|8,0:0|0:0,0:0:0:0:
143,332,49444,6,0,L|51:321,1,75,6|8,1:2|0:0,0:0:0:0:
68,277,49700,1,8,0:0:0:0:
106,259,49785,1,8,0:0:0:0:
266,252,49956,2,0,L|371:242,1,75,6|0,1:2|0:0,0:0:0:0:
183,198,50297,2,0,L|85:187,1,75,6|0,1:2|0:0,0:0:0:0:
268,325,50638,6,0,P|386:277|316:157,1,300,6|0,1:2|0:0,0:0:0:0:
159,190,51490,1,8,0:0:0:0:
122,185,51575,1,0,1:0:0:0:
94,161,51660,1,0,1:0:0:0:
86,125,51745,1,0,1:0:0:0:
101,91,51830,1,8,0:0:0:0:
132,71,51916,1,0,0:0:0:0:
169,74,52001,1,0,0:0:0:0:
411,328,52172,6,0,P|469:294|412:243,1,150,6|8,1:2|0:0,0:0:0:0:
354,230,52683,1,0,0:0:0:0:
195,236,52854,2,0,L|106:223,2,75,0|0|8,1:0|1:0|0:0,0:0:0:0:
271,241,53365,1,0,0:0:0:0:
32,314,53535,6,0,P|49:231|127:227,1,150,6|8,1:2|0:0,0:0:0:0:
264,228,54047,2,0,P|316:186|263:148,1,150,0|0,1:0|1:0,0:0:0:0:
187,146,54558,2,0,L|186:69,1,75,8|0,0:0|0:0,0:0:0:0:
431,298,54899,6,0,L|267:278,1,150,6|8,1:2|0:0,0:0:0:0:
206,258,55410,1,0,0:0:0:0:
365,211,55581,2,0,L|492:200,2,75,0|0|8,1:0|1:0|0:0,0:0:0:0:
288,211,56092,1,0,0:0:0:0:
46,309,56263,6,0,P|16:237|56:171,1,150,6|8,1:2|0:0,0:0:0:0:
205,158,56774,2,0,P|251:101|195:80,1,150,0|0,1:0|1:0,0:0:0:0:
126,58,57285,2,0,L|23:53,1,75,8|0,0:0|0:0,0:0:0:0:
293,292,57626,6,0,L|465:281,1,150,6|8,1:2|0:0,0:0:0:0:
442,224,58138,1,0,0:0:0:0:
285,213,58308,2,0,L|175:203,1,75,0|0,1:0|1:0,0:0:0:0:
288,140,58649,2,0,L|378:132,1,75,8|0,0:0|0:0,0:0:0:0:
122,310,58990,6,0,P|69:262|117:232,1,150,6|8,1:2|0:0,0:0:0:0:
193,223,59501,1,0,0:0:0:0:
351,223,59672,2,0,L|351:137,1,75,0|0,1:0|1:0,0:0:0:0:
275,144,60013,2,0,L|170:139,1,75,8|0,0:0|0:0,0:0:0:0:
441,309,60354,6,0,P|460:242|381:259,1,150,6|8,1:2|0:0,0:0:0:0:
322,235,60865,1,0,0:0:0:0:
166,230,61035,2,0,L|72:225,2,75,0|0|8,1:0|1:0|0:0,0:0:0:0:
242,216,61547,1,0,0:0:0:0:
399,313,61717,6,0,L|399:233,1,75,0|0,1:0|1:0,0:0:0:0:
241,233,62058,2,0,L|140:228,1,75,8|0,0:0|1:0,0:0:0:0:
324,178,62399,1,6,1:2:0:0:
400,177,62569,1,8,0:0:0:0:
434,163,62654,1,8,0:0:0:0:
448,129,62739,1,8,0:0:0:0:
434,96,62824,1,8,0:0:0:0:
400,83,62909,1,8,0:0:0:0:
156,296,63081,6,0,L|323:287,1,150,6|8,1:2|0:0,0:0:0:0:
381,276,63592,1,0,0:0:0:0:
222,235,63763,2,0,P|172:185|226:147,1,150,0|8,1:0|0:0,0:0:0:0:
297,140,64274,1,0,0:0:0:0:
56,318,64444,6,0,P|51:248|125:224,1,150,6|8,1:2|0:0,0:0:0:0:
275,211,64956,2,0,L|116:201,1,150,0|0,1:0|1:0,0:0:0:0:
50,197,65467,2,0,L|51:117,1,75,8|0,0:0|0:0,0:0:0:0:
294,323,65808,6,0,P|341:267|280:243,1,150,6|8,1:2|0:0,0:0:0:0:
215,233,66319,1,0,0:0:0:0:
375,208,66490,2,0,L|469:200,2,75,0|0|8,1:0|1:0|0:0,0:0:0:0:
299,211,67001,1,0,0:0:0:0:
140,211,67172,6,0,L|52:206,1,75,0|0,1:0|1:0,0:0:0:0:
223,164,67513,1,8,0:0:0:0:
299,144,67683,2,0,L|300:57,1,75,0|0,1:0|1:0,0:0:0:0:
141,124,68024,1,8,0:0:0:0:
105,117,68109,1,8,0:0:0:0:
88,84,68194,1,8,0:0:0:0:
104,52,68279,1,8,0:0:0:0:
139,44,68364,1,0,1:0:0:0:
380,300,68535,6,0,L|466:291,1,75,6|8,1:2|0:0,0:0:0:0:
486,273,68791,1,8,0:0:0:0:
486,228,68876,1,8,0:0:0:0:
327,222,69047,2,0,L|243:205,1,75,0|8,1:2|0:0,0:0:0:0:
213,200,69302,1,8,0:0:0:0:
175,191,69387,1,8,0:0:0:0:
334,158,69558,5,0,1:2:0:0:
372,146,69643,1,0,0:0:0:0:
379,100,69729,1,8,0:0:0:0:
214,297,69899,5,8,1:2:0:0:
176,286,69984,1,0,0:0:0:0:
138,279,70069,1,8,0:0:0:0:
47,241,70240,1,8,1:2:0:0:
43,205,70325,1,0,0:0:0:0:
49,164,70410,1,8,0:0:0:0:
207,159,70581,5,8,1:2:0:0:
245,152,70666,1,0,0:0:0:0:
283,145,70751,1,8,0:0:0:0:
374,133,70922,1,8,1:2:0:0:
412,102,71007,1,0,0:0:0:0:
374,68,71092,1,8,0:0:0:0:
132,322,71263,5,6,1:2:0:0:
354,324,73308,2,0,L|458:319,1,75,8|0,0:0|1:0,0:0:0:0:
429,251,73649,1,8,0:0:0:0:
190,315,73819,6,0,P|146:264|221:237,1,150,6|0,1:2|1:0,0:0:0:0:
359,233,74331,2,0,L|268:218,1,75,8|0,0:0|0:0,0:0:0:0:
209,211,74672,2,0,L|208:132,1,75,0|0,1:0|1:0,0:0:0:0:
284,129,75013,1,8,0:0:0:0:
44,318,75183,6,0,L|208:308,1,150,6|0,1:2|1:0,0:0:0:0:
353,306,75695,2,0,L|353:227,1,75,8|0,0:0|0:0,0:0:0:0:
277,221,76036,2,0,L|177:213,2,75,0|0|8,1:0|1:0|0:0,0:0:0:0:
36,347,76547,6,0,P|34:269|112:263,1,150,6|0,1:2|1:0,0:0:0:0:
260,269,77058,2,0,L|341:260,1,75,8|0,0:0|0:0,0:0:0:0:
257,216,77399,2,0,L|169:203,2,75,0|0|8,1:0|1:0|0:0,0:0:0:0:
16,351,77911,6,0,L|172:333,1,150,6|0,1:2|1:0,0:0:0:0:
324,311,78422,2,0,L|326:237,1,75,8|0,0:0|0:0,0:0:0:0:
249,236,78763,2,0,L|156:226,1,75,0|0,1:0|1:0,0:0:0:0:
170,192,79018,1,0,1:0:0:0:
176,150,79104,1,8,0:0:0:0:
415,319,79274,6,0,L|239:302,1,150,6|0,1:2|1:0,0:0:0:0:
107,303,79785,2,0,L|106:213,1,75,8|0,0:0|0:0,0:0:0:0:
185,220,80126,2,0,L|288:209,2,75,0|0|8,1:0|1:0|0:0,0:0:0:0:
427,326,80638,6,0,P|472:266|419:247,1,150,6|0,1:2|1:0,0:0:0:0:
266,243,81149,2,0,L|178:235,1,75,8|0,0:0|0:0,0:0:0:0:
116,204,81490,2,0,L|116:124,1,75,0|0,1:0|1:0,0:0:0:0:
193,108,81831,1,8,0:0:0:0:
433,306,82001,6,0,L|273:296,1,150,6|0,1:2|1:0,0:0:0:0:
123,287,82513,2,0,L|227:276,1,75,8|0,0:0|0:0,0:0:0:0:
275,261,82854,2,0,L|374:251,2,75,0|0|8,1:0|1:0|0:0,0:0:0:0:
34,337,83365,6,0,P|27:266|112:259,1,150,6|0,1:2|1:0,0:0:0:0:
250,247,83876,2,0,L|347:241,1,75,8|0,0:0|0:0,0:0:0:0:
249,191,84217,2,0,L|157:179,1,75,0|0,1:0|1:0,0:0:0:0:
136,170,84473,1,0,1:0:0:0:
135,127,84558,1,8,0:0:0:0:
377,319,84729,5,6,1:2:0:0:
154,322,86092,1,0,1:0:0:0:
313,316,86263,1,8,0:0:0:0:
349,309,86348,1,8,0:0:0:0:
376,284,86433,1,0,1:0:0:0:
387,249,86518,1,0,1:0:0:0:
376,214,86603,1,0,1:0:0:0:
347,190,86689,1,0,1:0:0:0:
310,186,86774,1,0,1:0:0:0:
71,194,86944,5,6,1:2:0:0:
146,137,87115,1,6,1:2:0:0:
71,88,87285,1,6,1:2:0:0:
313,84,87456,1,6,1:2:0:0:
