osu file format v14

[General]
AudioFilename: audio.mp3
AudioLeadIn: 0
PreviewTime: 51277
Countdown: 0
SampleSet: Soft
StackLeniency: 0.7
Mode: 2
LetterboxInBreaks: 0
WidescreenStoryboard: 1

[Editor]
Bookmarks: 5638,11092,16547,19444,24899,30354,35808,41263,46717,57626,63081,67172,73819,79274
DistanceSpacing: 1.3
BeatDivisor: 3
GridSize: 16
TimelineZoom: 1.5

[Metadata]
Title:Ketsui no Hikari
TitleUnicode:決意の光
Artist:Mifune Shioriko (CV: Koizumi Moeka)
ArtistUnicode:三船栞子 (CV: 小泉萌香)
Creator:BlackBN
Version:Cup
Source:ラブライブ!虹ヶ咲学園スクールアイドル同好会
Tags:BlackBq lovelive! love live! nijigasaki high school idol club rabu raibu! gakuen sukuuru aidoru doukou-kai sukūru sukuru dōkō-kai doko-kai japanese anime video game videogame rock j-rock jrock short ver. version 3rdアルバム 3rd album Just Believe!!! スクールアイドルフェスティバル ALL STARS festival fesutibaru 中村歩 nakamura ayumu 菊池博人 kikuchi hiroto Greaper Natsuko R-34 R34 bigh bighzonda Usaha Takekii Hanasaka Yui Nana Abe
BeatmapID:3613204
BeatmapSetID:1742382

[Difficulty]
HPDrainRate:2
CircleSize:2.5
OverallDifficulty:6
ApproachRate:6
SliderMultiplier:1.2
SliderTickRate:1

[Events]
//Background and Video events
0,0,"bg.jpg",0,0
//Break Periods
//Storyboard Layer 0 (Background)
//Storyboard Layer 1 (Fail)
//Storyboard Layer 2 (Pass)
//Storyboard Layer 3 (Foreground)
//Storyboard Layer 4 (Overlay)
//Storyboard Sound Samples

[TimingPoints]
354,340.909090909091,4,2,2,60,1,0
5552,-100,4,2,2,60,0,0
5638,-100,4,2,2,70,0,0
16547,-100,4,2,2,60,0,0
30268,-100,4,2,2,60,0,0
30354,-100,4,2,2,70,0,0
41263,-100,4,2,2,60,0,0
49444,-100,4,2,2,70,0,0
50211,-100,4,2,2,5,0,0
50297,-100,4,2,2,70,0,0
50552,-100,4,2,2,5,0,0
50638,-100,4,2,2,70,0,0
52172,-100,4,2,2,70,0,1
71263,-100,4,2,2,60,0,0
73819,-100,4,2,2,70,0,0

[Colours]
Combo1 : 80,245,146
Combo2 : 18,143,121
Combo3 : 249,237,132

[HitObjects]
200,253,354,5,0,1:0:0:0:
366,257,865,1,0,1:0:0:0:
200,253,1376,1,0,1:0:0:0:
370,256,1888,1,0,1:0:0:0:
199,255,2399,5,0,1:0:0:0:
144,223,2569,1,0,1:0:0:0:
144,158,2740,1,0,1:0:0:0:
198,119,2910,1,0,1:0:0:0:
270,285,3081,6,0,P|334:244|273:187,1,180,2|0,0:0|1:0,0:0:0:0:
229,183,3763,2,0,P|218:112|327:90,1,180
351,217,4444,2,0,P|359:137|253:106,1,180,0|0,0:0|1:0,0:0:0:0:
213,102,5126,6,0,L|146:95,2,60,8|0|8,0:0|1:0|0:0,0:0:0:0:
286,243,5638,6,0,P|323:187|275:157,1,120,6|0,1:2|1:0,0:0:0:0:
232,148,6149,1,8,0:0:0:0:
112,146,6490,2,0,L|86:67,2,60,0|0|8,1:0|1:0|0:0,0:0:0:0:
184,258,7001,6,0,L|316:248,1,120,6|0,1:2|1:0,0:0:0:0:
304,190,7513,1,8,0:0:0:0:
180,189,7854,2,0,L|154:110,2,60,0|0|8,1:0|1:0|0:0,0:0:0:0:
253,267,8365,6,0,P|288:219|236:184,1,120,6|0,1:2|1:0,0:0:0:0:
190,182,8876,1,8,0:0:0:0:
310,183,9217,2,0,L|336:104,2,60,0|0|8,1:0|1:0|0:0,0:0:0:0:
237,243,9729,6,0,L|384:230,1,120,6|0,1:2|1:0,0:0:0:0:
418,224,10240,1,8,0:0:0:0:
296,167,10581,2,0,L|223:162,2,60,0|0|8,1:0|1:0|0:0,0:0:0:0:
369,278,11092,6,0,P|407:232|360:193,1,120,6|0,1:2|1:0,0:0:0:0:
312,186,11604,1,8,0:0:0:0:
437,183,11944,2,0,L|463:104,2,60,0|0|8,1:0|1:0|0:0,0:0:0:0:
363,272,12456,6,0,L|228:265,1,120,6|0,1:2|1:0,0:0:0:0:
243,215,12967,1,8,0:0:0:0:
366,206,13308,2,0,L|392:127,2,60,0|0|8,1:0|1:0|0:0,0:0:0:0:
293,277,13819,6,0,P|255:231|305:204,1,120,6|0,1:2|1:0,0:0:0:0:
354,203,14331,1,8,0:0:0:0:
227,185,14672,2,0,L|201:106,2,60,0|0|8,1:0|1:0|0:0,0:0:0:0:
300,274,15183,6,0,L|164:267,1,120,6|0,1:2|1:0,0:0:0:0:
118,260,15694,1,8,0:0:0:0:
240,211,16035,2,0,L|316:206,2,60,0|0|8,1:0|1:0|0:0,0:0:0:0:
166,214,16547,5,4,1:2:0:0:
313,203,18763,1,0,1:0:0:0:
373,195,18933,2,0,L|457:193,2,60,8|8|0,0:0|0:0|1:0,0:0:0:0:
300,204,19444,6,0,L|299:74,1,120,6|8,1:2|0:3,0:0:0:0:
424,90,20126,2,0,L|297:79,1,120,8|8,0:3|0:3,0:0:0:0:
183,253,20808,6,0,L|60:241,2,120,8|8|8,0:3|0:3|0:3,0:0:0:0:
245,251,21660,1,0,1:0:0:0:
245,130,22001,1,0,1:0:0:0:
173,263,22172,6,0,P|133:221|180:196,1,120,0|8,1:0|0:3,0:0:0:0:
293,198,22854,2,0,L|413:187,1,120,8|8,0:3|0:3,0:0:0:0:
293,245,23535,6,0,L|157:232,2,120,8|8|8,0:3|0:3|0:3,0:0:0:0:
356,249,24388,2,0,L|435:241,2,60,0|8|0,1:0|0:3|1:0,0:0:0:0:
284,243,24899,6,0,L|285:116,1,120,6|8,1:2|0:3,0:0:0:0:
405,142,25581,2,0,L|262:130,1,120,8|8,0:3|0:3,0:0:0:0:
163,280,26263,6,0,L|164:142,1,120,8|8,0:3|0:3,0:0:0:0:
287,213,26944,2,0,L|364:208,1,60,8|0,0:3|1:0,0:0:0:0:
348,120,27456,1,0,1:0:0:0:
276,300,27626,6,0,P|242:250|307:225,1,120,6|8,1:2|0:3,0:0:0:0:
404,214,28308,2,0,L|405:90,1,120,8|8,0:3|0:3,0:0:0:0:
333,91,28819,5,0,1:2:0:0:
195,301,29672,1,0,1:0:0:0:
134,295,29842,2,0,L|46:291,2,60,0|8|0,1:0|0:0|1:0,0:0:0:0:
207,278,30354,6,0,P|251:241|207:201,1,120,6|8,1:2|0:0,0:0:0:0:
158,188,30865,1,0,0:0:0:0:
281,203,31206,2,0,L|280:134,1,60,0|8,1:0|0:0,0:0:0:0:
218,305,31547,6,0,L|351:287,1,120,0|0,1:0|1:0,0:0:0:0:
398,276,32058,1,8,0:0:0:0:
336,274,32229,2,0,P|298:232|354:205,1,120,0|0,1:0|1:0,0:0:0:0:
398,199,32740,1,8,0:0:0:0:
253,291,33081,6,0,L|124:279,1,120,6|8,1:2|0:0,0:0:0:0:
134,216,33592,1,0,0:0:0:0:
254,217,33933,2,0,L|334:208,1,60,0|8,1:0|0:0,0:0:0:0:
376,194,34274,1,0,1:0:0:0:
315,290,34444,6,0,P|276:247|322:227,1,120,0|8,0:0|0:0,0:0:0:0:
377,225,34956,2,0,L|244:207,1,120,0|0,1:0|1:0,0:0:0:0:
198,193,35467,1,8,0:0:0:0:
344,290,35808,6,0,P|384:249|325:219,1,120,6|8,1:2|0:0,0:0:0:0:
284,209,36319,2,0,L|150:193,1,120,0|0,0:0|1:0,0:0:0:0:
227,154,36831,1,8,0:0:0:0:
348,299,37172,6,0,L|350:161,1,120,0|8,1:0|0:0,0:0:0:0:
289,172,37683,2,0,L|419:152,1,120,0|0,0:0|1:0,0:0:0:0:
407,93,38194,1,8,0:0:0:0:
260,261,38535,6,0,L|125:249,1,120,6|8,1:2|0:0,0:0:0:0:
203,200,39047,1,0,0:0:0:0:
265,201,39217,2,0,P|305:159|266:126,1,120,0|8,1:0|0:0,0:0:0:0:
145,286,39899,6,0,L|285:271,1,120,0|10,1:0|0:0,0:0:0:0:
386,272,40581,2,0,P|421:223|352:218,1,120,8|0,0:0|1:0,0:0:0:0:
239,284,41263,6,0,L|239:152,1,120,6|8,1:2|0:3,0:0:0:0:
361,175,41944,2,0,L|221:164,1,120,8|8,0:3|0:3,0:0:0:0:
119,283,42626,6,0,P|83:266|121:218,1,120,8|8,0:3|0:3,0:0:0:0:
245,226,43308,2,0,L|314:222,1,60,8|0,0:3|1:0,0:0:0:0:
306,142,43819,1,0,1:0:0:0:
233,248,43990,6,0,L|102:239,1,120,6|8,1:2|0:3,0:0:0:0:
235,175,44672,2,0,L|377:160,1,120,8|8,0:3|0:3,0:0:0:0:
281,292,45183,5,0,1:0:0:0:
161,287,45524,2,0,L|160:211,1,60,0|10,1:0|0:0,0:0:0:0:
285,203,46035,2,0,P|323:156|260:145,1,120,8|0,0:0|1:0,0:0:0:0:
141,307,46717,6,0,L|30:291,2,80,6|0|0,1:2|0:0|1:0,0:0:0:0:
237,239,47399,1,14,1:2:0:0:
52,232,48081,6,0,L|51:124,1,80,0|8,1:0|0:0,0:0:0:0:
131,160,48535,1,0,1:0:0:0:
227,151,48763,2,0,L|357:141,1,120,14|8,0:0|0:0,0:0:0:0:
200,302,49444,6,0,L|200:146,1,120,6|8,1:2|0:0,0:0:0:0:
261,180,49956,2,0,L|390:172,2,120,6|6|6,1:2|1:2|1:2,0:0:0:0:
124,290,51490,6,0,L|258:269,1,120,8|8,0:0|0:0,0:0:0:0:
387,268,52172,6,0,P|426:219|375:195,1,120,6|8,1:2|0:0,0:0:0:0:
330,183,52683,1,0,0:0:0:0:
268,171,52854,2,0,L|133:162,1,120,0|8,1:0|0:0,0:0:0:0:
292,283,53535,6,0,L|430:274,1,120,6|8,1:2|0:0,0:0:0:0:
349,241,54047,2,0,P|310:195|357:166,1,120,0|0,1:0|1:0,0:0:0:0:
407,156,54558,1,8,0:0:0:0:
261,249,54899,6,0,L|113:238,1,120,6|8,1:2|0:0,0:0:0:0:
204,192,55410,1,0,0:0:0:0:
265,187,55581,2,0,P|306:143|251:120,1,120,0|8,1:0|0:0,0:0:0:0:
126,289,56263,6,0,L|269:272,1,120,6|8,1:2|0:0,0:0:0:0:
307,269,56774,2,0,P|343:222|289:203,1,120,0|0,1:0|1:0,0:0:0:0:
243,197,57285,1,8,0:0:0:0:
389,309,57626,6,0,L|389:162,1,120,6|8,1:2|0:0,0:0:0:0:
328,186,58138,1,0,0:0:0:0:
267,185,58308,2,0,L|160:177,2,60,0|0|8,1:0|1:0|0:0,0:0:0:0:
414,302,58990,6,0,P|451:257|407:232,1,120,6|8,1:2|0:0,0:0:0:0:
350,231,59501,1,0,0:0:0:0:
288,236,59672,2,0,L|203:227,2,60,0|0|8,1:0|1:0|0:0,0:0:0:0:
143,274,60354,6,0,L|144:147,1,120,6|8,1:2|0:0,0:0:0:0:
206,155,60865,1,0,0:0:0:0:
267,154,61035,2,0,L|381:143,2,60,0|0|8,1:0|1:0|0:0,0:0:0:0:
147,283,61717,6,0,L|65:273,2,60,0|0|8,1:0|1:0|0:0,0:0:0:0:
209,279,62229,1,0,1:0:0:0:
281,276,62399,2,0,B|81:255,1,180,6|8,1:2|0:0,0:0:0:0:
175,244,63081,6,0,L|306:227,1,120,6|8,1:2|0:0,0:0:0:0:
293,173,63592,1,0,0:0:0:0:
231,155,63763,2,0,P|192:117|249:94,1,120,0|8,1:0|0:0,0:0:0:0:
381,249,64444,6,0,L|231:235,1,120,6|8,1:2|0:0,0:0:0:0:
323,192,64956,2,0,L|324:58,1,120,0|0,1:0|1:0,0:0:0:0:
264,67,65467,1,8,0:0:0:0:
120,256,65808,6,0,P|84:202|131:181,1,120,6|8,1:2|0:0,0:0:0:0:
178,177,66319,1,0,0:0:0:0:
240,176,66490,2,0,L|70:155,1,120,0|8,1:0|0:0,0:0:0:0:
243,275,67172,6,0,L|313:262,2,60,0|0|8,1:0|1:0|0:0,0:0:0:0:
183,281,67683,1,0,1:0:0:0:
307,259,68024,2,0,P|344:209|303:186,1,120,8|0,0:0|1:0,0:0:0:0:
235,273,68535,6,0,L|377:262,1,120,6|8,1:2|0:0,0:0:0:0:
429,259,69047,2,0,P|469:215|424:182,1,120,0|8,1:2|0:0,0:0:0:0:
373,175,69558,1,0,1:2:0:0:
250,196,69899,6,0,L|249:66,1,120,8|8,1:2|1:2,0:0:0:0:
370,201,70581,2,0,L|225:195,1,120,8|8,1:2|1:2,0:0:0:0:
394,259,71263,5,6,1:2:0:0:
130,291,73308,2,0,L|63:284,2,60,8|0|8,0:0|1:0|0:0,0:0:0:0:
203,241,73820,6,0,L|336:230,1,120,6|0,1:2|1:0,0:0:0:0:
322,175,74331,1,8,0:0:0:0:
198,173,74672,2,0,L|172:94,2,60,0|0|8,1:0|1:0|0:0,0:0:0:0:
270,268,75183,6,0,P|307:216|247:200,1,120,6|0,1:2|1:0,0:0:0:0:
211,192,75695,1,8,0:0:0:0:
334,208,76036,2,0,L|360:129,2,60,0|0|8,1:0|1:0|0:0,0:0:0:0:
261,274,76547,6,0,L|409:266,1,120,6|0,1:2|1:0,0:0:0:0:
320,235,77058,1,8,0:0:0:0:
196,231,77399,2,0,L|170:152,2,60,0|0|8,1:0|1:0|0:0,0:0:0:0:
270,283,77911,6,0,L|138:271,1,120,6|0,1:2|1:0,0:0:0:0:
89,260,78422,1,8,0:0:0:0:
214,220,78763,2,0,L|287:215,2,60,0|0|8,1:0|1:0|0:0,0:0:0:0:
141,291,79274,6,0,P|109:245|148:206,1,120,6|0,1:2|1:0,0:0:0:0:
209,205,79786,1,8,0:0:0:0:
328,202,80126,2,0,L|354:123,2,60,0|0|8,1:0|1:0|0:0,0:0:0:0:
254,302,80638,6,0,L|119:295,1,120,6|0,1:2|1:0,0:0:0:0:
196,246,81149,1,8,0:0:0:0:
319,237,81490,2,0,L|345:158,2,60,0|0|8,1:0|1:0|0:0,0:0:0:0:
247,279,82001,6,0,L|399:260,1,120,6|0,1:2|1:0,0:0:0:0:
427,255,82513,1,8,0:0:0:0:
303,217,82854,2,0,L|277:138,2,60,0|0|8,1:0|1:0|0:0,0:0:0:0:
376,292,83365,6,0,L|241:287,1,120,6|0,1:2|1:0,0:0:0:0:
193,270,83876,1,8,0:0:0:0:
314,237,84217,2,0,L|390:232,2,60,0|0|8,1:0|1:0|0:0,0:0:0:0:
241,322,84729,5,6,1:2:0:0:
381,315,86092,1,0,1:0:0:0:
441,319,86263,6,0,L|442:163,1,120,8|0,0:0|1:0,0:0:0:0:
320,177,86944,6,0,L|236:156,2,60,6|6|6,1:2|1:2|1:2,0:0:0:0:
393,129,87456,1,6,1:2:0:0:
