osu file format v14

[General]
AudioFilename: audio.mp3
AudioLeadIn: 0
PreviewTime: 51319
Countdown: 0
SampleSet: Normal
StackLeniency: 0.7
Mode: 1
LetterboxInBreaks: 0
WidescreenStoryboard: 1

[Editor]
Bookmarks: 5638,11092,16547,19444,24899,30354,35808,41263,52172,57626,63081,68535,73819
DistanceSpacing: 0.8
BeatDivisor: 4
GridSize: 32
TimelineZoom: 0.6999998

[Metadata]
Title:Ketsui no Hikari
TitleUnicode:決意の光
Artist:Mifune Shioriko (CV: Koizumi Moeka)
ArtistUnicode:三船栞子 (CV: 小泉萌香)
Creator:-Maruko-
Version:iRedi's Kantan
Source:ラブライブ!虹ヶ咲学園スクールアイドル同好会
Tags:lovelive! love live! nijigasaki high school idol club rabu raibu! gakuen sukuuru aidoru doukou-kai sukūru sukuru dōkō-kai doko-kai japanese video game videogame rock j-rock jrock short ver. version 3rdアルバム 3rd album just believe!!! スクールアイドルフェスティバル all stars festival fesutibaru 中村歩 nakamura ayumu 菊池博人 kikuchi hiroto iRedi Sammu LACA-15840 LACA15840 anime kayoko k_a_y_o_k_o
BeatmapID:4420009
BeatmapSetID:2106427

[Difficulty]
HPDrainRate:8
CircleSize:2
OverallDifficulty:3
ApproachRate:10
SliderMultiplier:1.4
SliderTickRate:1

[Events]
//Background and Video events
0,0,"Kantan bg.jpg",0,90
//Break Periods
//Storyboard Layer 0 (Background)
//Storyboard Layer 1 (Fail)
//Storyboard Layer 2 (Pass)
//Storyboard Layer 3 (Foreground)
//Storyboard Layer 4 (Overlay)
//Storyboard Sound Samples

[TimingPoints]
346,340.909090909091,4,1,0,70,1,0
346,-100,4,1,0,70,0,0
5630,-100,4,1,0,80,0,0
16539,-100,4,1,0,80,0,0
16709,-100,4,1,0,70,0,0
19436,-100,4,1,0,60,0,0
30346,-100,4,1,0,70,0,0
41255,-100,4,1,0,70,0,0
50630,-100,4,1,0,70,0,0
51482,-100,4,1,0,70,0,0
52164,-100,4,1,0,80,0,1
71255,-100,4,1,0,80,0,0
71425,-100,4,1,0,50,0,0
73130,-100,4,1,0,70,0,0
73811,-100,4,1,0,80,0,0
84721,-100,4,1,0,80,0,0
84891,-100,4,1,0,70,0,0
86936,-100,4,1,0,80,0,0

[HitObjects]
256,192,346,5,0,0:0:0:0:
256,192,857,5,0,0:0:0:0:
256,192,1368,5,0,0:0:0:0:
256,192,1880,5,0,0:0:0:0:
256,192,3073,12,0,5118,0:0:0:0:
512,0,5630,5,12,0:0:0:0:
256,192,6141,1,0,0:0:0:0:
256,192,6482,1,0,0:0:0:0:
256,192,6993,1,8,0:0:0:0:
256,192,7505,1,0,0:0:0:0:
256,192,7846,1,8,0:0:0:0:
256,192,8357,1,0,0:0:0:0:
256,192,8868,1,8,0:0:0:0:
256,192,9209,1,8,0:0:0:0:
256,192,9721,1,0,0:0:0:0:
512,0,11084,1,4,0:0:0:0:
256,192,11596,1,8,0:0:0:0:
256,192,11936,1,8,0:0:0:0:
256,192,12448,1,0,0:0:0:0:
256,192,12959,1,8,0:0:0:0:
256,192,13299,1,0,0:0:0:0:
256,192,13811,1,8,0:0:0:0:
256,192,14323,1,0,0:0:0:0:
256,192,14663,1,8,0:0:0:0:
256,192,15175,1,0,0:0:0:0:
256,192,15686,1,8,0:0:0:0:
256,192,16026,1,8,0:0:0:0:
256,192,16539,1,0,0:0:0:0:
256,192,18755,1,0,0:0:0:0:
256,192,19436,1,8,0:0:0:0:
256,192,20800,1,8,0:0:0:0:
256,192,21652,1,0,0:0:0:0:
256,192,22164,1,8,0:0:0:0:
256,192,23527,1,8,0:0:0:0:
256,192,24550,1,0,0:0:0:0:
256,192,24891,1,8,0:0:0:0:
256,192,26255,1,8,0:0:0:0:
256,192,27107,1,0,0:0:0:0:
256,192,27618,1,8,0:0:0:0:
256,192,28811,1,8,0:0:0:0:
512,0,30346,1,4,0:0:0:0:
256,192,30686,1,8,0:0:0:0:
256,192,31368,1,8,0:0:0:0:
256,192,32050,1,8,0:0:0:0:
256,192,32732,1,0,0:0:0:0:
256,192,33073,1,8,0:0:0:0:
256,192,33414,1,0,0:0:0:0:
256,192,34096,1,0,0:0:0:0:
256,192,34777,1,8,0:0:0:0:
256,192,35459,1,8,0:0:0:0:
256,192,35800,1,0,0:0:0:0:
256,192,36823,1,8,0:0:0:0:
256,192,37164,1,8,0:0:0:0:
256,192,37505,1,0,0:0:0:0:
256,192,38186,1,0,0:0:0:0:
512,0,38527,1,12,0:0:0:0:
256,192,39209,1,0,0:0:0:0:
256,192,40232,1,8,0:0:0:0:
256,192,40573,1,0,0:0:0:0:
512,0,41255,1,12,0:0:0:0:
256,192,42618,1,8,0:0:0:0:
256,192,43471,1,0,0:0:0:0:
256,192,43982,1,8,0:0:0:0:
256,192,45175,1,0,0:0:0:0:
256,192,45686,1,8,0:0:0:0:
256,192,46027,1,0,0:0:0:0:
256,192,46709,1,8,0:0:0:0:
512,0,47391,1,12,0:0:0:0:
256,192,48073,1,0,0:0:0:0:
512,0,48755,1,12,0:0:0:0:
512,0,49436,1,4,0:0:0:0:
512,0,49948,1,12,0:0:0:0:
512,0,50289,1,12,0:0:0:0:
512,0,50630,1,12,0:0:0:0:
512,0,52164,1,4,0:0:0:0:
256,192,52846,1,8,0:0:0:0:
256,192,53186,1,8,0:0:0:0:
256,192,53527,1,0,0:0:0:0:
256,192,54039,1,8,0:0:0:0:
256,192,54380,1,8,0:0:0:0:
256,192,54891,1,0,0:0:0:0:
256,192,55573,1,8,0:0:0:0:
256,192,55914,1,0,0:0:0:0:
256,192,56255,1,8,0:0:0:0:
256,192,56766,1,0,0:0:0:0:
256,192,57107,1,0,0:0:0:0:
256,192,57618,1,8,0:0:0:0:
256,192,58641,1,8,0:0:0:0:
256,192,58982,1,0,0:0:0:0:
256,192,59664,1,8,0:0:0:0:
256,192,60005,1,0,0:0:0:0:
256,192,60346,1,8,0:0:0:0:
256,192,61027,1,0,0:0:0:0:
256,192,61709,1,0,0:0:0:0:
256,192,62050,1,0,0:0:0:0:
256,192,62391,1,8,0:0:0:0:
512,0,63073,1,4,0:0:0:0:
256,192,63755,1,8,0:0:0:0:
256,192,64096,1,8,0:0:0:0:
256,192,64436,1,0,0:0:0:0:
256,192,64948,1,8,0:0:0:0:
256,192,65289,1,0,0:0:0:0:
256,192,65800,1,8,0:0:0:0:
256,192,66482,1,0,0:0:0:0:
256,192,66823,1,8,0:0:0:0:
256,192,67164,1,0,0:0:0:0:
256,192,67675,1,8,0:0:0:0:
256,192,68016,1,8,0:0:0:0:
512,0,68527,1,4,0:0:0:0:
256,192,69550,1,8,0:0:0:0:
256,192,69891,1,0,0:0:0:0:
256,192,70573,1,8,0:0:0:0:
256,192,70914,1,8,0:0:0:0:
512,0,71255,1,4,0:0:0:0:
256,192,73300,1,0,0:0:0:0:
512,0,73811,1,12,0:0:0:0:
256,192,74323,1,0,0:0:0:0:
256,192,74664,1,0,0:0:0:0:
256,192,75175,1,8,0:0:0:0:
256,192,75687,1,0,0:0:0:0:
256,192,76028,1,8,0:0:0:0:
256,192,76539,1,0,0:0:0:0:
256,192,77050,1,8,0:0:0:0:
256,192,77391,1,8,0:0:0:0:
256,192,77903,1,0,0:0:0:0:
512,0,79266,1,4,0:0:0:0:
256,192,79778,1,8,0:0:0:0:
256,192,80118,1,8,0:0:0:0:
256,192,80630,1,0,0:0:0:0:
256,192,81141,1,8,0:0:0:0:
256,192,81481,1,0,0:0:0:0:
256,192,81993,1,8,0:0:0:0:
256,192,82505,1,0,0:0:0:0:
256,192,82845,1,8,0:0:0:0:
256,192,83357,1,0,0:0:0:0:
256,192,83868,1,8,0:0:0:0:
256,192,84208,1,8,0:0:0:0:
256,192,84721,1,0,0:0:0:0:
256,192,86255,1,0,0:0:0:0:
512,0,86936,1,12,0:0:0:0:
512,0,87448,1,12,0:0:0:0:
