osu file format v14

[General]
AudioFilename: audio.mp3
AudioLeadIn: 0
PreviewTime: 51319
Countdown: 0
SampleSet: Normal
StackLeniency: 0.7
Mode: 1
LetterboxInBreaks: 0
WidescreenStoryboard: 1

[Editor]
Bookmarks: 5638,11092,16547,19444,24899,30354,35808,41263,52172,57626,63081,68535,73819
DistanceSpacing: 0.8
BeatDivisor: 4
GridSize: 32
TimelineZoom: 1.2

[Metadata]
Title:Ketsui no Hikari
TitleUnicode:決意の光
Artist:Mifune Shioriko (CV: Koizumi Moeka)
ArtistUnicode:三船栞子 (CV: 小泉萌香)
Creator:-Maruko-
Version:Oni
Source:ラブライブ!虹ヶ咲学園スクールアイドル同好会
Tags:lovelive! love live! nijigasaki high school idol club rabu raibu! gakuen sukuuru aidoru doukou-kai sukūru sukuru dōkō-kai doko-kai japanese video game videogame rock j-rock jrock short ver. version 3rdアルバム 3rd album just believe!!! スクールアイドルフェスティバル all stars festival fesutibaru 中村歩 nakamura ayumu 菊池博人 kikuchi hiroto iRedi Sammu LACA-15840 LACA15840 anime kayoko k_a_y_o_k_o
BeatmapID:4420012
BeatmapSetID:2106427

[Difficulty]
HPDrainRate:5.5
CircleSize:5
OverallDifficulty:5.5
ApproachRate:5
SliderMultiplier:1.4
SliderTickRate:1

[Events]
//Background and Video events
0,0,"Oni bg.jpg",0,100
//Break Periods
//Storyboard Layer 0 (Background)
//Storyboard Layer 1 (Fail)
//Storyboard Layer 2 (Pass)
//Storyboard Layer 3 (Foreground)
//Storyboard Layer 4 (Overlay)
//Storyboard Sound Samples

[TimingPoints]
346,340.909090909091,4,1,0,70,1,0
346,-105.263157894737,4,1,0,70,0,0
5113,-105.263157894737,4,1,0,70,0,0
5198,-104.351370630796,4,1,0,70,0,0
5284,-103.444792403273,4,1,0,70,0,0
5369,-102.564102564103,4,1,0,70,0,0
5454,-101.698281855199,4,1,0,70,0,0
5630,-100,4,1,0,80,0,0
11169,-99.7506234413965,4,1,0,80,0,0
16624,-105.540897097625,4,1,0,80,0,0
16709,-105.540897097625,4,1,0,70,0,0
18750,-105.263157894737,4,1,0,70,0,0
18920,-106.664578275511,4,1,0,70,0,0
19005,-107.379375591296,4,1,0,70,0,0
19091,-108.112398793459,4,1,0,70,0,0
19176,-108.846799328698,4,1,0,70,0,0
19261,-109.591245574509,4,1,0,70,0,0
19436,-111.111111111111,4,1,0,60,0,0
29659,-111.111111111111,4,1,0,60,0,0
29829,-108.116677235257,4,1,0,60,0,0
29914,-106.679180353512,4,1,0,60,0,0
30000,-105.263157894737,4,1,0,60,0,0
30085,-103.900060938452,4,1,0,60,0,0
30170,-102.571815310573,4,1,0,60,0,0
30346,-100,4,1,0,70,0,0
40568,-100,4,1,0,70,0,0
40681,-101.684806918145,4,1,0,70,0,0
40795,-103.443045654482,4,1,0,70,0,0
40909,-105.263157894737,4,1,0,70,0,0
41022,-107.13163682061,4,1,0,70,0,0
41136,-109.085092770313,4,1,0,70,0,0
41255,-111.111111111111,4,1,0,70,0,0
45511,-111.111111111111,4,1,0,70,0,0
45681,-110.238403252634,4,1,0,70,0,0
45852,-109.374283749713,4,1,0,70,0,0
46022,-108.528542187855,4,1,0,70,0,0
46136,-107.968686365899,4,1,0,70,0,0
46250,-107.414577049475,4,1,0,70,0,0
46363,-106.870912837051,4,1,0,70,0,0
46477,-106.32798573975,4,1,0,70,0,0
46591,-105.790547131329,4,1,0,70,0,0
46704,-105.263157894737,4,1,0,70,0,0
48579,-105.263157894737,4,1,0,70,0,0
48750,-103.443045654482,4,1,0,70,0,0
48920,-101.694915254237,4,1,0,70,0,0
49091,-99.9951126533405,4,1,0,70,0,0
49261,-98.3606557377049,4,1,0,70,0,0
49346,-97.5633017023509,4,1,0,70,0,0
49431,-96.778771108273,4,1,0,70,0,0
49602,-95.2380952380953,4,1,0,70,0,0
49687,-94.490370849305,4,1,0,70,0,0
49772,-93.7542959263163,4,1,0,70,0,0
49858,-93.0211411684474,4,1,0,70,0,0
49943,-92.3076923076923,4,1,0,70,0,0
50284,-89.5522388059701,4,1,0,70,0,0
50630,-86.9565217391304,4,1,0,70,0,0
51482,-100,4,1,0,70,0,0
51562,-98.7690079652426,4,1,0,70,0,0
51647,-97.5679542203147,4,1,0,70,0,0
51733,-96.3821368004522,4,1,0,70,0,0
51818,-95.2380952380952,4,1,0,70,0,0
51988,-93.0296003273769,4,1,0,70,0,0
52073,-91.9633225458468,4,1,0,70,0,0
52164,-90.9090909090909,4,1,0,80,0,1
62045,-90.9090909090909,4,1,0,80,0,1
62130,-90.0900900900901,4,1,0,80,0,1
62216,-89.5483193277311,4,1,0,80,0,1
62301,-88.8869580328439,4,1,0,80,0,1
62386,-88.2352941176471,4,1,0,80,0,1
62556,-86.9602176130568,4,1,0,80,0,1
62642,-86.3291139240506,4,1,0,80,0,1
62727,-85.7142857142857,4,1,0,80,0,1
62812,-85.108153078203,4,1,0,80,0,1
62897,-84.5105328376704,4,1,0,80,0,1
62983,-83.9143630547125,4,1,0,80,0,1
63068,-83.3333333333333,4,1,0,80,0,1
63158,-90.9090909090909,4,1,0,80,0,1
67841,-90.8969745435159,4,1,0,80,0,1
68011,-88.8830965723967,4,1,0,80,0,1
68096,-87.9092549626192,4,1,0,80,0,1
68181,-86.9565217391304,4,1,0,80,0,1
68267,-86.0133686467398,4,1,0,80,0,1
68352,-85.1010731220364,4,1,0,80,0,1
68437,-84.2079269045561,4,1,0,80,0,1
68522,-83.3333333333333,4,1,0,80,0,1
71255,-83.3333333333334,4,1,0,80,0,0
71425,-83.1600831600832,4,1,0,50,0,0
72618,-105.263157894737,4,1,0,50,0,0
73130,-105.263157894737,4,1,0,70,0,0
73210,-104.576167076167,4,1,0,70,0,0
73295,-103.898085284919,4,1,0,70,0,0
73380,-103.228740336517,4,1,0,70,0,0
73466,-102.560240963855,4,1,0,70,0,0
73551,-101.907968574635,4,1,0,70,0,0
73636,-101.263940520446,4,1,0,70,0,0
73811,-100,4,1,0,80,0,0
73982,-100,4,1,0,80,0,0
79351,-99.7506234413965,4,1,0,80,0,0
83692,-100,4,1,0,80,0,0
83863,-101.691542288557,4,1,0,80,0,0
84033,-103.441295546559,4,1,0,80,0,0
84119,-104.349601797019,4,1,0,80,0,0
84204,-105.263157894737,4,1,0,80,0,0
84374,-107.139113114582,4,1,0,80,0,0
84460,-108.11382629853,4,1,0,80,0,0
84545,-109.094790777114,4,1,0,80,0,0
84721,-111.12319234533,4,1,0,80,0,0
84891,-111.12319234533,4,1,0,70,0,0
85909,-111.111111111111,4,1,0,70,0,0
86079,-107.152835987706,4,1,0,70,0,0
86164,-105.277606204104,4,1,0,70,0,0
86250,-103.445950502394,4,1,0,70,0,0
86335,-101.697162556351,4,1,0,70,0,0
86420,-100.006519329813,4,1,0,70,0,0
86505,-98.371168398102,4,1,0,70,0,0
86591,-96.770123643704,4,1,0,70,0,0
86676,-95.238095238095,4,1,0,70,0,0
86761,-93.753819826427,4,1,0,70,0,0
86846,-92.315098995005,4,1,0,70,0,0
86931,-90.919867235657,4,1,0,70,0,0
87102,-88.236985907391,4,1,0,70,0,0
87272,-85.722268790165,4,1,0,70,0,0
87443,-83.333333333333,4,1,0,70,0,0

[HitObjects]
256,192,346,5,0,0:0:0:0:
256,192,516,1,8,0:0:0:0:
256,192,686,1,8,0:0:0:0:
256,192,857,1,0,0:0:0:0:
256,192,1027,1,8,0:0:0:0:
256,192,1198,1,8,0:0:0:0:
256,192,1368,1,0,0:0:0:0:
256,192,1539,1,8,0:0:0:0:
256,192,1709,1,8,0:0:0:0:
256,192,1880,1,0,0:0:0:0:
256,192,2050,1,8,0:0:0:0:
256,192,2221,1,8,0:0:0:0:
256,192,2391,1,0,0:0:0:0:
256,192,2561,1,8,0:0:0:0:
256,192,2732,1,0,0:0:0:0:
256,192,3073,1,0,0:0:0:0:
256,192,3243,1,8,0:0:0:0:
256,192,3328,1,8,0:0:0:0:
256,192,3414,1,0,0:0:0:0:
256,192,3584,1,8,0:0:0:0:
256,192,3755,1,0,0:0:0:0:
256,192,3840,1,0,0:0:0:0:
256,192,3925,1,8,0:0:0:0:
256,192,4010,1,8,0:0:0:0:
256,192,4096,1,0,0:0:0:0:
256,192,4266,1,8,0:0:0:0:
256,192,4436,1,8,0:0:0:0:
256,192,4607,1,0,0:0:0:0:
256,192,4777,1,8,0:0:0:0:
256,192,5118,1,8,0:0:0:0:
256,192,5203,1,0,0:0:0:0:
256,192,5289,1,0,0:0:0:0:
256,192,5374,1,0,0:0:0:0:
256,192,5459,1,8,0:0:0:0:
352,96,5630,1,4,0:0:0:0:
256,192,5971,1,0,0:0:0:0:
256,192,6141,1,8,0:0:0:0:
256,192,6311,1,0,0:0:0:0:
256,192,6482,1,8,0:0:0:0:
256,192,6567,1,8,0:0:0:0:
256,192,6652,1,0,0:0:0:0:
256,192,6823,1,8,0:0:0:0:
256,192,6993,1,0,0:0:0:0:
256,192,7334,1,0,0:0:0:0:
256,192,7505,1,8,0:0:0:0:
256,192,7675,1,0,0:0:0:0:
256,192,7846,1,8,0:0:0:0:
256,192,8016,1,0,0:0:0:0:
256,192,8101,1,0,0:0:0:0:
256,192,8186,1,8,0:0:0:0:
256,192,8357,1,0,0:0:0:0:
256,192,8698,1,0,0:0:0:0:
256,192,8868,1,8,0:0:0:0:
256,192,9039,1,0,0:0:0:0:
256,192,9209,1,8,0:0:0:0:
256,192,9294,1,8,0:0:0:0:
256,192,9380,1,8,0:0:0:0:
256,192,9550,1,0,0:0:0:0:
256,192,9721,1,8,0:0:0:0:
256,192,10061,1,0,0:0:0:0:
256,192,10232,1,8,0:0:0:0:
256,192,10402,1,0,0:0:0:0:
256,192,10573,1,0,0:0:0:0:
256,192,10743,1,8,0:0:0:0:
256,192,10828,1,8,0:0:0:0:
256,192,10914,1,8,0:0:0:0:
352,96,11084,1,4,0:0:0:0:
256,192,11425,1,0,0:0:0:0:
256,192,11596,1,8,0:0:0:0:
256,192,11766,1,0,0:0:0:0:
256,192,11936,1,8,0:0:0:0:
256,192,12022,1,8,0:0:0:0:
256,192,12107,1,0,0:0:0:0:
256,192,12277,1,8,0:0:0:0:
256,192,12448,1,0,0:0:0:0:
256,192,12789,1,0,0:0:0:0:
256,192,12959,1,8,0:0:0:0:
256,192,13130,1,8,0:0:0:0:
256,192,13300,1,0,0:0:0:0:
256,192,13471,1,8,0:0:0:0:
256,192,13556,1,0,0:0:0:0:
256,192,13641,1,8,0:0:0:0:
256,192,13811,1,0,0:0:0:0:
256,192,14152,1,0,0:0:0:0:
256,192,14323,1,8,0:0:0:0:
256,192,14493,1,8,0:0:0:0:
256,192,14664,1,0,0:0:0:0:
256,192,14749,1,0,0:0:0:0:
256,192,14834,1,8,0:0:0:0:
256,192,15005,1,8,0:0:0:0:
256,192,15175,1,0,0:0:0:0:
256,192,15516,1,0,0:0:0:0:
256,192,15686,1,8,0:0:0:0:
256,192,15857,1,8,0:0:0:0:
256,192,16027,1,0,0:0:0:0:
256,192,16198,1,8,0:0:0:0:
256,192,16283,1,8,0:0:0:0:
256,192,16368,1,8,0:0:0:0:
256,192,16539,1,0,0:0:0:0:
256,192,16880,1,0,0:0:0:0:
256,192,17050,1,8,0:0:0:0:
256,192,17221,1,0,0:0:0:0:
256,192,17391,1,0,0:0:0:0:
256,192,17561,1,8,0:0:0:0:
256,192,17732,1,0,0:0:0:0:
256,192,17902,1,0,0:0:0:0:
256,192,18073,1,8,0:0:0:0:
256,192,18243,1,0,0:0:0:0:
256,192,18414,1,0,0:0:0:0:
256,192,18584,1,8,0:0:0:0:
256,192,18755,1,0,0:0:0:0:
256,192,18925,1,8,0:0:0:0:
256,192,19010,1,8,0:0:0:0:
256,192,19096,1,0,0:0:0:0:
256,192,19266,1,8,0:0:0:0:
256,192,19436,1,0,0:0:0:0:
256,192,19777,1,8,0:0:0:0:
256,192,19948,1,0,0:0:0:0:
256,192,20289,1,0,0:0:0:0:
256,192,20459,1,8,0:0:0:0:
256,192,20630,1,0,0:0:0:0:
256,192,20800,1,0,0:0:0:0:
256,192,20971,1,8,0:0:0:0:
256,192,21141,1,0,0:0:0:0:
256,192,21311,1,8,0:0:0:0:
256,192,21652,1,0,0:0:0:0:
256,192,21823,1,8,0:0:0:0:
256,192,21993,1,8,0:0:0:0:
256,192,22164,1,0,0:0:0:0:
256,192,22334,1,0,0:0:0:0:
256,192,22505,1,8,0:0:0:0:
256,192,22675,1,0,0:0:0:0:
256,192,23016,1,8,0:0:0:0:
256,192,23357,1,0,0:0:0:0:
256,192,23527,1,8,0:0:0:0:
256,192,23868,1,8,0:0:0:0:
256,192,24209,1,8,0:0:0:0:
256,192,24380,1,0,0:0:0:0:
256,192,24550,1,0,0:0:0:0:
256,192,24721,1,8,0:0:0:0:
256,192,24891,1,0,0:0:0:0:
256,192,25232,1,0,0:0:0:0:
256,192,25402,1,8,0:0:0:0:
256,192,25743,1,0,0:0:0:0:
256,192,26084,1,8,0:0:0:0:
256,192,26425,1,8,0:0:0:0:
256,192,26766,1,0,0:0:0:0:
256,192,27107,1,0,0:0:0:0:
256,192,27277,1,8,0:0:0:0:
256,192,27448,1,0,0:0:0:0:
256,192,27618,1,8,0:0:0:0:
256,192,27789,1,8,0:0:0:0:
256,192,27959,1,0,0:0:0:0:
256,192,28300,1,0,0:0:0:0:
256,192,28641,1,0,0:0:0:0:
256,192,28811,1,8,0:0:0:0:
256,192,29664,1,0,0:0:0:0:
256,192,29834,1,8,0:0:0:0:
256,192,29919,1,8,0:0:0:0:
256,192,30005,1,8,0:0:0:0:
256,192,30175,1,8,0:0:0:0:
352,96,30346,1,4,0:0:0:0:
256,192,30686,1,8,0:0:0:0:
256,192,30857,1,0,0:0:0:0:
256,192,31027,1,0,0:0:0:0:
256,192,31198,1,8,0:0:0:0:
256,192,31283,1,0,0:0:0:0:
256,192,31368,1,8,0:0:0:0:
256,192,31539,1,0,0:0:0:0:
256,192,31880,1,8,0:0:0:0:
256,192,32050,1,8,0:0:0:0:
256,192,32221,1,0,0:0:0:0:
256,192,32561,1,0,0:0:0:0:
256,192,32732,1,8,0:0:0:0:
256,192,32902,1,0,0:0:0:0:
256,192,32988,1,0,0:0:0:0:
256,192,33073,1,8,0:0:0:0:
256,192,33243,1,0,0:0:0:0:
256,192,33414,1,8,0:0:0:0:
256,192,33584,1,0,0:0:0:0:
256,192,33925,1,8,0:0:0:0:
256,192,34096,1,0,0:0:0:0:
256,192,34266,1,8,0:0:0:0:
256,192,34436,1,0,0:0:0:0:
256,192,34607,1,0,0:0:0:0:
256,192,34777,1,8,0:0:0:0:
256,192,34948,1,0,0:0:0:0:
256,192,35289,1,0,0:0:0:0:
256,192,35459,1,8,0:0:0:0:
256,192,35630,1,0,0:0:0:0:
256,192,35800,1,8,0:0:0:0:
256,192,36141,1,8,0:0:0:0:
256,192,36311,1,8,0:0:0:0:
256,192,36482,1,0,0:0:0:0:
256,192,36652,1,8,0:0:0:0:
256,192,36738,1,8,0:0:0:0:
256,192,36823,1,8,0:0:0:0:
256,192,36993,1,0,0:0:0:0:
256,192,37164,1,8,0:0:0:0:
256,192,37505,1,8,0:0:0:0:
256,192,37675,1,8,0:0:0:0:
256,192,37846,1,0,0:0:0:0:
256,192,38016,1,0,0:0:0:0:
256,192,38186,1,8,0:0:0:0:
256,192,38357,1,0,0:0:0:0:
256,192,38527,1,8,0:0:0:0:
256,192,38868,1,0,0:0:0:0:
256,192,39039,1,8,0:0:0:0:
256,192,39209,1,0,0:0:0:0:
256,192,39380,1,8,0:0:0:0:
256,192,39550,1,0,0:0:0:0:
256,192,39891,1,0,0:0:0:0:
256,192,40061,1,0,0:0:0:0:
256,192,40232,1,8,0:0:0:0:
256,192,40402,1,0,0:0:0:0:
256,192,40573,1,8,0:0:0:0:
256,192,40686,1,8,0:0:0:0:
256,192,40800,1,8,0:0:0:0:
256,192,40914,1,0,0:0:0:0:
352,96,41255,1,12,0:0:0:0:
256,192,41596,1,8,0:0:0:0:
256,192,41936,1,8,0:0:0:0:
256,192,42277,1,8,0:0:0:0:
256,192,42618,1,8,0:0:0:0:
256,192,42959,1,8,0:0:0:0:
256,192,43300,1,8,0:0:0:0:
256,192,43471,1,0,0:0:0:0:
256,192,43811,1,0,0:0:0:0:
256,192,43982,1,0,0:0:0:0:
256,192,44323,1,8,0:0:0:0:
256,192,44664,1,8,0:0:0:0:
256,192,45005,1,0,0:0:0:0:
256,192,45175,1,0,0:0:0:0:
256,192,45516,1,0,0:0:0:0:
256,192,45686,1,8,0:0:0:0:
256,192,45857,1,0,0:0:0:0:
256,192,46027,1,8,0:0:0:0:
256,192,46141,1,8,0:0:0:0:
256,192,46255,1,8,0:0:0:0:
256,192,46368,1,0,0:0:0:0:
352,96,46709,1,12,0:0:0:0:
256,192,47221,1,0,0:0:0:0:
256,192,47306,1,0,0:0:0:0:
256,192,47391,1,8,0:0:0:0:
256,192,47732,1,0,0:0:0:0:
256,192,47902,1,8,0:0:0:0:
256,192,47988,1,0,0:0:0:0:
256,192,48073,1,8,0:0:0:0:
256,192,48243,1,8,0:0:0:0:
256,192,48584,1,0,0:0:0:0:
256,192,48755,1,8,0:0:0:0:
256,192,48925,1,0,0:0:0:0:
256,192,49096,1,8,0:0:0:0:
256,192,49266,1,8,0:0:0:0:
256,192,49351,1,0,0:0:0:0:
256,192,49436,1,0,0:0:0:0:
256,192,49607,1,8,0:0:0:0:
256,192,49692,1,8,0:0:0:0:
256,192,49777,1,8,0:0:0:0:
352,96,49948,1,4,0:0:0:0:
352,96,50289,1,4,0:0:0:0:
352,96,50630,1,4,0:0:0:0:
256,192,51482,5,8,0:0:0:0:
256,192,51652,1,0,0:0:0:0:
256,192,51738,1,0,0:0:0:0:
256,192,51823,1,8,0:0:0:0:
256,192,51993,1,8,0:0:0:0:
352,96,52164,1,4,0:0:0:0:
256,192,52505,1,0,0:0:0:0:
256,192,52675,1,8,0:0:0:0:
256,192,52846,1,0,0:0:0:0:
256,192,52931,1,0,0:0:0:0:
256,192,53016,1,8,0:0:0:0:
256,192,53186,1,0,0:0:0:0:
256,192,53357,1,8,0:0:0:0:
256,192,53527,1,4,0:0:0:0:
256,192,53868,1,8,0:0:0:0:
256,192,54039,1,0,0:0:0:0:
256,192,54124,1,0,0:0:0:0:
256,192,54209,1,0,0:0:0:0:
256,192,54380,1,8,0:0:0:0:
256,192,54550,1,0,0:0:0:0:
256,192,54721,1,0,0:0:0:0:
352,96,54891,1,12,0:0:0:0:
256,192,55232,1,0,0:0:0:0:
256,192,55402,1,8,0:0:0:0:
256,192,55573,1,0,0:0:0:0:
256,192,55658,1,0,0:0:0:0:
256,192,55743,1,8,0:0:0:0:
256,192,55914,1,8,0:0:0:0:
256,192,56084,1,0,0:0:0:0:
256,192,56255,1,12,0:0:0:0:
256,192,56596,1,0,0:0:0:0:
256,192,56766,1,8,0:0:0:0:
256,192,57107,1,8,0:0:0:0:
256,192,57192,1,8,0:0:0:0:
256,192,57277,1,0,0:0:0:0:
256,192,57448,1,8,0:0:0:0:
352,96,57618,1,4,0:0:0:0:
256,192,57959,1,8,0:0:0:0:
256,192,58130,1,0,0:0:0:0:
256,192,58300,5,0,0:0:0:0:
256,192,58471,1,8,0:0:0:0:
256,192,58641,1,0,0:0:0:0:
256,192,58726,1,0,0:0:0:0:
256,192,58811,1,8,0:0:0:0:
352,96,58982,1,4,0:0:0:0:
256,192,59323,1,8,0:0:0:0:
256,192,59493,1,0,0:0:0:0:
256,192,59664,1,8,0:0:0:0:
256,192,59749,1,8,0:0:0:0:
256,192,59834,1,0,0:0:0:0:
256,192,60005,1,8,0:0:0:0:
256,192,60175,1,8,0:0:0:0:
352,96,60346,1,4,0:0:0:0:
256,192,60686,1,8,0:0:0:0:
256,192,60857,1,0,0:0:0:0:
256,192,61027,1,8,0:0:0:0:
256,192,61113,1,0,0:0:0:0:
256,192,61198,1,8,0:0:0:0:
256,192,61368,1,0,0:0:0:0:
256,192,61539,1,0,0:0:0:0:
256,192,61709,1,8,0:0:0:0:
256,192,62050,1,8,0:0:0:0:
256,192,62221,1,0,0:0:0:0:
256,192,62306,1,0,0:0:0:0:
256,192,62391,1,8,0:0:0:0:
256,192,62561,1,8,0:0:0:0:
256,192,62647,1,8,0:0:0:0:
256,192,62732,1,8,0:0:0:0:
256,192,62817,1,8,0:0:0:0:
256,192,62902,1,0,0:0:0:0:
352,96,63073,1,12,0:0:0:0:
256,192,63414,1,0,0:0:0:0:
256,192,63584,1,8,0:0:0:0:
256,192,63755,1,0,0:0:0:0:
256,192,63840,1,0,0:0:0:0:
256,192,63925,1,0,0:0:0:0:
256,192,64095,1,8,0:0:0:0:
256,192,64266,1,8,0:0:0:0:
352,96,64436,1,4,0:0:0:0:
256,192,64777,1,8,0:0:0:0:
256,192,64948,1,0,0:0:0:0:
256,192,65118,1,8,0:0:0:0:
256,192,65203,1,8,0:0:0:0:
256,192,65289,1,0,0:0:0:0:
256,192,65459,1,0,0:0:0:0:
256,192,65630,1,8,0:0:0:0:
352,96,65800,1,4,0:0:0:0:
256,192,66141,1,0,0:0:0:0:
256,192,66311,1,8,0:0:0:0:
256,192,66482,1,0,0:0:0:0:
256,192,66567,1,8,0:0:0:0:
256,192,66652,1,0,0:0:0:0:
256,192,66823,1,8,0:0:0:0:
256,192,66993,1,8,0:0:0:0:
256,192,67164,1,0,0:0:0:0:
256,192,67505,1,8,0:0:0:0:
256,192,67675,1,0,0:0:0:0:
256,192,68016,1,8,0:0:0:0:
256,192,68101,1,0,0:0:0:0:
256,192,68186,1,0,0:0:0:0:
256,192,68272,1,0,0:0:0:0:
256,192,68357,1,8,0:0:0:0:
352,96,68527,1,4,0:0:0:0:
256,192,68868,1,0,0:0:0:0:
256,192,69039,1,8,0:0:0:0:
256,192,69209,5,0,0:0:0:0:
256,192,69294,1,0,0:0:0:0:
256,192,69380,1,8,0:0:0:0:
256,192,69550,1,0,0:0:0:0:
256,192,69720,1,8,0:0:0:0:
256,192,69806,1,8,0:0:0:0:
256,192,69891,1,8,0:0:0:0:
256,192,70061,1,0,0:0:0:0:
256,192,70147,1,8,0:0:0:0:
256,192,70232,1,0,0:0:0:0:
256,192,70402,1,8,0:0:0:0:
256,192,70573,1,0,0:0:0:0:
256,192,70658,1,0,0:0:0:0:
256,192,70743,1,8,0:0:0:0:
288,192,70828,1,8,0:0:0:0:
256,192,70914,1,0,0:0:0:0:
256,192,71084,1,8,0:0:0:0:
352,96,71255,1,4,0:0:0:0:
256,192,73130,1,0,0:0:0:0:
256,192,73300,1,8,0:0:0:0:
256,192,73385,1,8,0:0:0:0:
256,192,73471,1,0,0:0:0:0:
256,192,73556,1,0,0:0:0:0:
256,192,73641,1,8,0:0:0:0:
352,96,73811,1,4,0:0:0:0:
256,192,74152,1,0,0:0:0:0:
256,192,74322,1,8,0:0:0:0:
256,192,74493,1,8,0:0:0:0:
256,192,74663,1,0,0:0:0:0:
256,192,74748,1,0,0:0:0:0:
256,192,74833,1,0,0:0:0:0:
256,192,75004,1,8,0:0:0:0:
256,192,75174,1,0,0:0:0:0:
256,192,75515,1,0,0:0:0:0:
256,192,75686,1,8,0:0:0:0:
256,192,75856,1,0,0:0:0:0:
256,192,76027,1,8,0:0:0:0:
256,192,76197,1,0,0:0:0:0:
256,192,76282,1,8,0:0:0:0:
256,192,76367,1,8,0:0:0:0:
256,192,76538,1,0,0:0:0:0:
256,192,76879,1,0,0:0:0:0:
256,192,77049,1,8,0:0:0:0:
256,192,77220,1,8,0:0:0:0:
256,192,77390,1,0,0:0:0:0:
256,192,77475,1,0,0:0:0:0:
256,192,77561,1,8,0:0:0:0:
256,192,77732,1,8,0:0:0:0:
256,192,77902,1,0,0:0:0:0:
256,192,78243,1,0,0:0:0:0:
256,192,78414,1,8,0:0:0:0:
256,192,78584,1,0,0:0:0:0:
256,192,78755,1,0,0:0:0:0:
256,192,78925,1,8,0:0:0:0:
256,192,79010,1,0,0:0:0:0:
256,192,79096,1,8,0:0:0:0:
352,96,79266,1,4,0:0:0:0:
256,192,79607,1,0,0:0:0:0:
256,192,79777,1,8,0:0:0:0:
256,192,79947,1,0,0:0:0:0:
256,192,80118,1,8,0:0:0:0:
256,192,80203,1,0,0:0:0:0:
256,192,80288,1,0,0:0:0:0:
256,192,80459,1,8,0:0:0:0:
256,192,80629,1,0,0:0:0:0:
256,192,80970,1,0,0:0:0:0:
256,192,81141,1,8,0:0:0:0:
256,192,81311,1,8,0:0:0:0:
256,192,81482,1,0,0:0:0:0:
256,192,81652,1,8,0:0:0:0:
256,192,81737,1,8,0:0:0:0:
256,192,81823,1,0,0:0:0:0:
256,192,81993,1,0,0:0:0:0:
256,192,82334,1,0,0:0:0:0:
256,192,82504,1,8,0:0:0:0:
256,192,82675,1,0,0:0:0:0:
256,192,82845,1,8,0:0:0:0:
256,192,82930,1,0,0:0:0:0:
256,192,83016,1,0,0:0:0:0:
256,192,83186,1,8,0:0:0:0:
256,192,83357,1,0,0:0:0:0:
256,192,83698,1,0,0:0:0:0:
256,192,83868,1,8,0:0:0:0:
256,192,84039,1,0,0:0:0:0:
256,192,84209,1,8,0:0:0:0:
256,192,84380,1,0,0:0:0:0:
256,192,84465,1,0,0:0:0:0:
256,192,84550,1,8,0:0:0:0:
256,192,84721,1,0,0:0:0:0:
256,192,85061,1,0,0:0:0:0:
256,192,85232,1,8,0:0:0:0:
256,192,85402,1,0,0:0:0:0:
256,192,85573,1,0,0:0:0:0:
256,192,85743,1,0,0:0:0:0:
256,192,85914,1,8,0:0:0:0:
256,192,86084,1,0,0:0:0:0:
256,192,86255,1,8,0:0:0:0:
256,192,86340,1,8,0:0:0:0:
256,192,86425,1,0,0:0:0:0:
256,192,86510,1,0,0:0:0:0:
256,192,86596,1,8,0:0:0:0:
256,192,86766,1,0,0:0:0:0:
352,96,86936,1,12,0:0:0:0:
352,96,87107,1,12,0:0:0:0:
352,96,87277,1,12,0:0:0:0:
352,96,87448,1,12,0:0:0:0:
