osu file format v14

[General]
AudioFilename: audio.mp3
AudioLeadIn: 0
PreviewTime: 54298
Countdown: 0
SampleSet: Soft
StackLeniency: 0.7
Mode: 0
LetterboxInBreaks: 0
EpilepsyWarning: 1
WidescreenStoryboard: 1

[Editor]
Bookmarks: 19155,37441,38584,55727,74012,92298,110584,128869,146584,147155,156298,165441,202012
DistanceSpacing: 1.1
BeatDivisor: 4
GridSize: 32
TimelineZoom: 0.6999998

[Metadata]
Title:Find Our Way (Night Drive Edit) [feat. klei]
TitleUnicode:Find Our Way (Night Drive Edit) [feat. klei]
Artist:Midnight Kids
ArtistUnicode:Midnight Kids
Creator:Dilectus
Version:Easy
Source:
Tags:davided striderin english remix electronic night drive klei
BeatmapID:2416324
BeatmapSetID:1155335

[Difficulty]
HPDrainRate:3
CircleSize:2
OverallDifficulty:3
ApproachRate:4
SliderMultiplier:1
SliderTickRate:2

[Events]
//Background and Video events
0,0,"bg.jpg",0,0
//Break Periods
2,55927,71835
2,147355,154978
//Storyboard Layer 0 (Background)
Sprite,Background,TopLeft,"bg.jpg",0,0
//Storyboard Layer 1 (Fail)
//Storyboard Layer 2 (Pass)
//Storyboard Layer 3 (Foreground)
//Storyboard Layer 4 (Overlay)
//Storyboard Sound Samples

[TimingPoints]
870,571.428571428571,4,2,1,60,1,0
73155,-100,4,3,3,65,0,0
73191,-100,4,2,1,65,0,0
74012,-100,4,2,1,70,0,0
80869,-100,4,2,30,70,0,0
80905,-100,4,2,1,70,0,0
81727,-100,4,2,31,70,0,0
81762,-100,4,2,1,70,0,0
82584,-100,4,2,32,70,0,0
83155,-100,4,2,33,70,0,0
83191,-100,4,2,1,70,0,0
90298,-100,4,3,2,70,0,0
90334,-100,4,2,1,70,0,0
90727,-100,4,3,3,70,0,0
90762,-100,4,2,1,70,0,0
91155,-100,4,3,4,70,0,0
91727,-100,4,2,1,70,0,0
92298,-100,4,2,13,60,0,0
92334,-100,4,2,1,60,0,0
92584,-100,4,2,14,60,0,0
92869,-100,4,2,12,75,0,0
93155,-100,4,2,10,75,0,0
93191,-100,4,2,1,75,0,0
96298,-100,4,2,12,75,0,0
96334,-100,4,2,1,75,0,0
96584,-100,4,2,14,75,0,0
96869,-100,4,2,13,75,0,0
96905,-100,4,2,1,75,0,0
97155,-100,4,2,14,75,0,0
97191,-100,4,2,1,75,0,0
97441,-100,4,2,16,75,0,0
97727,-100,4,2,10,75,0,0
97762,-100,4,2,1,75,0,0
100012,-100,4,2,31,75,0,0
100048,-100,4,2,1,75,0,0
100869,-100,4,2,32,75,0,0
101441,-100,4,2,13,75,0,0
101477,-100,4,2,1,75,0,0
101727,-100,4,2,14,75,0,0
102012,-100,4,2,12,75,0,0
102298,-100,4,2,10,75,0,0
102334,-100,4,2,1,75,0,0
105441,-100,4,2,12,75,0,0
105477,-100,4,2,1,75,0,0
105727,-100,4,2,14,75,0,0
106012,-100,4,2,13,75,0,0
106048,-100,4,2,1,75,0,0
106298,-100,4,2,14,75,0,0
106334,-100,4,2,1,75,0,0
106584,-100,4,2,11,75,0,0
106869,-100,4,2,15,75,0,0
106905,-100,4,2,1,75,0,0
107727,-100,4,2,12,75,0,0
108012,-100,4,2,10,75,0,0
108584,-100,4,2,1,75,0,0
110584,-100,4,2,1,75,0,0
156298,-100,4,2,1,60,0,0
162012,-100,4,2,1,65,0,0
163155,-100,4,2,1,55,0,0
164584,-100,4,3,3,65,0,0
164619,-100,4,2,1,65,0,0
165155,-100,4,2,1,65,0,0
165441,-100,4,2,1,90,0,1
172298,-100,4,2,30,90,0,1
172334,-100,4,2,1,90,0,1
173155,-100,4,2,31,90,0,1
173191,-100,4,2,1,90,0,1
174012,-100,4,2,32,90,0,1
174584,-100,4,2,33,90,0,1
174619,-100,4,2,1,90,0,1
181727,-100,4,3,2,90,0,1
181762,-100,4,2,1,90,0,1
182155,-100,4,3,3,90,0,1
182191,-100,4,2,1,90,0,1
182584,-100,4,3,4,90,0,1
183155,-100,4,2,1,90,0,1
183441,-100,4,2,3,90,0,1
183727,-100,4,2,1,90,0,1
190584,-100,4,2,30,90,0,1
190619,-100,4,2,1,90,0,1
191441,-100,4,2,31,90,0,1
191727,-100,4,2,1,90,0,1
192298,-100,4,2,32,90,0,1
192869,-100,4,2,33,90,0,1
192905,-100,4,2,1,90,0,1
200012,-100,4,3,2,90,0,1
200048,-100,4,2,1,90,0,1
200441,-100,4,3,3,90,0,1
200477,-100,4,2,1,90,0,1
200869,-100,4,3,4,90,0,1
201441,-100,4,2,1,90,0,1
202012,-100,4,2,1,80,0,0

[Colours]
Combo1 : 183,173,145
Combo2 : 183,194,220
Combo3 : 129,109,100
Combo4 : 111,88,109

[HitObjects]
119,193,19155,6,0,B|122:141|79:108|79:108|96:81|86:58,2,150,2|2|10,3:2|3:2|0:0,0:0:0:0:
119,293,21441,2,0,P|94:287|71:278,2,50,0|2|10,0:0|3:2|0:2,0:0:0:0:
206,243,22584,1,2,0:0:0:0:
224,341,23155,1,10,0:0:0:0:
318,308,23727,6,0,P|361:357|440:338,2,150,2|2|10,3:2|3:2|0:0,0:0:0:0:
331,158,26298,2,0,P|337:133|340:109,1,50,0|8,3:0|0:0,0:0:0:0:
351,60,26869,2,0,P|420:41|470:93,1,150,0|8,3:0|0:0,0:0:0:0:
389,152,28298,6,0,B|342:164|302:157|302:157|282:172|282:172|262:167|240:174,2,150,2|2|8,3:2|3:2|0:0,0:0:0:0:
459,223,30584,1,2,0:0:0:0:
437,320,31155,1,10,0:0:0:0:
337,323,31727,2,0,P|312:326|288:332,2,50,2|2|10,0:0|0:0|0:0,0:0:0:0:
359,225,32869,6,0,P|301:184|317:107,2,150,2|2|10,3:2|3:2|0:0,0:0:0:0:
481,138,35441,2,0,P|478:109|456:86,1,50,0|8,3:0|0:0,0:0:0:0:
424,64,36012,2,0,P|383:122|306:106,1,150,0|8,3:0|0:0,0:0:0:0:
238,43,37441,5,2,3:2:0:0:
138,54,38012,1,10,0:2:0:0:
149,154,38584,1,2,0:0:0:0:
49,165,39155,2,0,P|65:240|74:317,1,150,10|0,0:0|3:0,0:0:0:0:
87,360,40298,1,8,0:0:0:0:
136,369,40584,2,0,P|205:342|197:262,1,150,0|8,3:0|0:0,0:0:0:0:
119,225,42012,5,2,3:2:0:0:
165,135,42584,1,10,0:0:0:0:
265,132,43155,2,0,P|261:109|252:83,2,50,2|2|10,0:2|0:2|0:2,0:0:0:0:
216,219,44298,2,0,P|262:237|309:253,1,100,2|8,0:0|0:0,0:0:0:0:
350,224,45155,2,0,P|334:293|393:333,1,150,0|8,3:0|0:0,0:0:0:0:
491,320,46584,5,2,3:2:0:0:
479,221,47155,1,10,0:2:0:0:
380,233,47727,1,2,0:0:0:0:
368,134,48298,1,10,0:0:0:0:
490,43,49155,2,0,P|506:72|507:91,1,50,2|10,3:2|0:2,0:0:0:0:
492,136,49727,2,0,P|428:170|366:131,1,150,2|10,3:2|0:0,0:0:0:0:
358,33,51155,6,0,P|308:51|256:61,1,100,2|8,3:2|0:0,0:0:0:0:
228,97,52012,2,0,P|204:88|180:83,1,50,2|2,3:2|0:2,0:0:0:0:
83,57,52869,2,0,P|136:102|113:169,1,150,10|0,0:0|3:0,0:0:0:0:
68,194,54012,1,8,0:0:0:0:
78,293,54584,1,2,0:0:0:0:
167,337,55155,1,10,0:0:0:0:
256,291,55727,5,2,0:0:0:0:
191,64,73155,6,0,B|147:61|147:61|130:68|130:68|90:66,1,100,8|0,0:0|3:0,0:0:0:0:
58,103,74012,6,0,P|105:123|111:171,1,100,6|10,3:2|0:0,0:0:0:0:
49,245,75155,1,2,0:0:0:0:
118,316,75727,1,10,0:0:0:0:
266,337,76584,2,0,P|258:313|253:288,1,50,0|8,3:0|0:0,0:0:0:0:
215,256,77155,2,0,P|268:210|246:143,1,150,0|8,3:0|0:0,0:0:0:0:
156,96,78584,6,0,P|106:114|54:124,2,100,2|10|2,3:2|0:2|0:0,0:0:0:0:
245,142,80298,1,10,0:0:0:0:
340,111,80869,2,0,B|385:86|433:112|433:112|451:85|476:86,2,150,2|2|10,0:0|3:2|0:0,0:0:0:0:
267,179,83155,6,0,P|297:216|281:261,1,100,2|10,3:2|0:2,0:0:0:0:
200,320,84298,2,0,P|187:342|192:366,2,50,2|2|10,0:2|0:2|0:2,0:0:0:0:
280,261,85441,2,0,P|241:228|208:191,1,100,0|8,0:0|0:0,0:0:0:0:
159,180,86298,2,0,P|212:134|190:67,1,150,0|8,3:0|0:0,0:0:0:0:
90,47,87727,5,2,3:2:0:0:
67,144,88298,1,10,0:0:0:0:
138,213,88869,2,0,P|117:227|95:238,2,50,2|2|10,0:0|0:0|0:0,0:0:0:0:
255,119,90298,2,0,B|288:116|288:116|300:122|300:122|328:120,2,75,8|8|8,0:0|0:0|0:0,0:0:0:0:
166,72,91727,1,8,0:0:0:0:
70,102,92298,2,0,P|82:124|96:145,1,50,2|2,3:2|0:0,0:0:0:0:
127,183,92869,5,14,0:0:0:0:
92,219,93155,2,0,P|69:285|122:332,1,150,2|8,3:2|0:0,0:0:0:0:
219,305,94584,2,0,P|234:257|254:211,1,100,0|8,0:0|0:0,0:0:0:0:
224,116,95727,1,0,0:0:0:0:
301,52,96298,2,0,P|318:68|321:92,1,50,10|2,0:0|0:0,0:0:0:0:
355,129,96869,6,0,P|377:139|400:132,2,50,2|2|10,3:2|0:0|0:0,0:0:0:0:
306,140,97727,2,0,P|263:183|293:259,1,150,2|8,3:2|0:0,0:0:0:0:
422,332,99441,2,0,P|416:307|408:283,1,50,0|8,3:0|0:0,0:0:0:0:
393,236,100012,2,0,P|444:186|420:119,1,150,2|10,3:2|0:0,0:0:0:0:
338,62,101441,6,0,P|314:69|289:75,1,50,2|2,3:2|0:0,0:0:0:0:
241,87,102012,1,10,0:0:0:0:
217,131,102298,2,0,P|149:154|100:103,1,150,2|8,3:2|0:0,0:0:0:0:
180,43,103727,2,0,P|227:56|276:68,1,100,0|8,0:0|0:0,0:0:0:0:
354,131,104869,1,0,0:0:0:0:
280,199,105441,2,0,P|285:221|304:236,1,50,10|2,0:0|0:0,0:0:0:0:
319,285,106012,6,0,P|316:309|299:325,2,50,2|2|10,3:2|0:0|0:0,0:0:0:0:
353,248,106870,2,0,P|411:232|462:296,1,150,2|10,3:2|0:0,0:0:0:0:
461,344,108012,1,2,0:0:0:0:
361,348,108584,2,0,P|336:342|312:335,1,50,0|8,3:0|0:0,0:0:0:0:
262,339,109155,2,0,P|270:267|210:229,1,150,0|8,3:0|0:0,0:0:0:0:
114,204,110584,6,0,B|116:255|73:288|73:288|88:315|81:342,2,150,2|2|10,3:2|3:2|0:0,0:0:0:0:
74,112,112869,2,0,P|48:126|30:147,2,50,0|2|10,0:0|3:2|0:2,0:0:0:0:
136,33,114012,1,2,0:0:0:0:
174,125,114584,1,10,0:0:0:0:
114,204,115155,6,0,P|176:237|173:308,2,150,2|2|10,3:2|3:2|0:0,0:0:0:0:
36,75,117727,2,0,P|59:68|82:57,1,50,0|8,3:0|0:0,0:0:0:0:
130,41,118298,2,0,P|173:96|242:81,1,150,2|10,3:2|0:0,0:0:0:0:
308,155,119727,6,0,P|377:138|421:193,2,150,2|2|8,3:2|3:2|0:0,0:0:0:0:
246,233,122012,1,2,0:0:0:0:
338,271,122584,1,10,0:0:0:0:
429,228,123155,2,0,P|434:252|437:277,2,50,2|2|10,0:0|0:0|0:0,0:0:0:0:
349,165,124298,6,0,P|405:118|382:50,2,150,2|2|10,3:2|3:2|0:0,0:0:0:0:
199,148,126869,2,0,P|181:121|182:94,1,50,0|8,3:0|0:0,0:0:0:0:
204,60,127441,2,0,P|261:50|293:134,1,150,0|8,3:0|0:0,0:0:0:0:
256,213,128869,5,2,3:2:0:0:
157,224,129441,1,10,0:2:0:0:
168,323,130012,1,2,0:0:0:0:
69,334,130584,2,0,P|56:260|51:185,1,150,10|0,0:0|3:0,0:0:0:0:
74,140,131727,1,8,0:0:0:0:
121,154,132012,2,0,P|193:163|228:101,1,150,0|8,3:0|0:0,0:0:0:0:
181,14,133441,5,2,3:2:0:0:
88,52,134012,1,10,0:0:0:0:
78,152,134584,2,0,P|54:143|32:132,2,50,2|2|10,0:2|0:2|0:2,0:0:0:0:
171,116,135727,2,0,P|180:164|181:214,1,100,2|8,0:0|0:0,0:0:0:0:
148,252,136584,2,0,P|216:256|234:326,1,150,0|8,3:0|0:0,0:0:0:0:
333,314,138012,5,2,3:2:0:0:
431,332,138584,1,10,0:2:0:0:
449,234,139155,1,2,0:0:0:0:
351,216,139727,1,10,0:0:0:0:
213,155,140584,2,0,P|230:127|246:117,1,50,2|10,3:2|0:2,0:0:0:0:
291,107,141156,2,0,P|352:146|349:219,1,150,2|10,3:2|0:0,0:0:0:0:
293,299,142584,6,0,P|292:347|332:373,1,100,2|8,3:2|0:0,0:0:0:0:
381,366,143441,2,0,P|405:361|430:357,1,50,2|2,3:2|0:2,0:0:0:0:
418,257,144298,2,0,P|347:248|327:180,1,150,10|0,0:0|3:0,0:0:0:0:
335,132,145441,1,8,0:0:0:0:
256,69,146012,1,2,0:0:0:0:
177,132,146584,1,10,0:0:0:0:
256,195,147155,5,2,0:0:0:0:
212,252,156298,6,0,P|164:259|131:224,1,100,2|10,0:0|0:0,0:0:0:0:
199,150,157441,2,0,P|191:102|226:69,1,100,2|10,0:0|0:0,0:0:0:0:
300,137,158584,2,0,P|347:129|380:164,1,100,2|8,0:0|0:0,0:0:0:0:
313,239,159727,2,0,P|320:286|285:319,1,100,2|8,0:0|0:0,0:0:0:0:
212,252,160869,5,2,0:0:0:0:
199,150,161441,1,10,0:0:0:0:
300,137,162012,2,0,P|296:112|283:89,2,50,2|2|10,0:0|0:0|0:0,0:0:0:0:
313,239,163155,1,0,3:0:0:0:
82,336,164584,2,0,B|77:299|77:299|83:281|83:281|76:238,1,100,8|0,0:0|3:0,0:0:0:0:
44,199,165441,6,0,P|91:179|97:131,1,100,6|10,3:2|0:0,0:0:0:0:
151,49,166584,2,0,P|127:40|103:32,2,50,2|2|10,0:0|0:0|0:0,0:0:0:0:
250,59,167727,2,0,P|242:82|234:106,1,50,0|0,0:0|3:0,0:0:0:0:
206,148,168298,1,8,0:0:0:0:
161,170,168584,2,0,P|225:203|217:274,1,150,0|8,3:0|0:0,0:0:0:0:
137,330,170012,6,0,P|112:335|88:340,2,50,2|2|10,3:2|0:2|0:2,0:0:0:0:
227,371,171155,1,2,0:0:0:0:
324,349,171727,1,10,0:0:0:0:
385,270,172298,2,0,P|455:275|487:212,2,150,2|2|10,0:0|3:2|0:0,0:0:0:0:
296,223,174584,6,0,P|312:175|326:127,1,100,2|10,3:2|0:2,0:0:0:0:
412,77,175727,2,0,P|394:59|378:39,2,50,2|2|10,0:2|0:2|0:2,0:0:0:0:
494,133,176869,2,0,P|476:151|457:166,1,50,0|0,0:0|3:0,0:0:0:0:
411,188,177441,1,8,0:0:0:0:
364,165,177727,2,0,P|332:228|262:223,1,150,0|8,3:0|0:0,0:0:0:0:
179,164,179155,5,2,3:2:0:0:
86,201,179727,1,10,0:2:0:0:
74,300,180298,2,0,P|81:324|85:348,2,50,2|2|10,0:0|0:0|0:0,0:0:0:0:
156,174,181727,2,0,B|150:141|150:141|140:131|140:131|135:103,2,75,8|8|8,0:3|0:0|0:0,0:0:0:0:
100,257,183155,2,0,P|121:272|149:272,1,50,8|8,0:0|0:3,0:0:0:0:
188,297,183727,6,0,P|211:258|267:252,1,100,6|10,3:2|0:0,0:0:0:0:
348,299,184869,2,0,P|355:323|359:347,2,50,2|2|10,0:0|0:0|0:0,0:0:0:0:
363,251,185727,1,2,0:0:0:0:
412,258,186012,2,0,P|459:252|485:210,1,100,2|8,0:0|0:0,0:0:0:0:
471,110,187155,2,0,P|466:85|459:61,2,50,2|2|10,0:0|0:0|0:0,0:0:0:0:
394,174,188298,6,0,P|352:199|345:247,1,100,2|10,3:2|0:0,0:0:0:0:
371,289,189155,2,0,B|404:285|404:285|415:276|415:276|443:274,2,75,2|2|10,3:2|0:0|0:0,0:0:0:0:
275,318,190584,2,0,P|267:270|225:245,1,100,2|8,0:0|0:0,0:0:0:0:
176,236,191441,1,2,3:2:0:0:
132,260,191727,2,0,P|106:256|85:236,2,50,2|2|10,0:0|0:0|0:0,0:0:0:0:
195,182,192869,6,0,P|184:129|169:79,1,100,2|10,3:2|0:0,0:0:0:0:
234,6,194012,2,0,P|260:10|281:30,2,50,2|2|10,0:0|0:0|0:0,0:0:0:0:
202,44,194869,1,0,0:0:0:0:
171,85,195155,2,0,P|185:133|195:182,1,100,2|8,0:0|0:0,0:0:0:0:
288,216,196298,2,0,P|311:209|336:204,2,50,2|2|10,0:0|0:0|0:0,0:0:0:0:
238,302,197441,6,0,P|213:343|166:351,1,100,2|10,3:2|0:0,0:0:0:0:
119,329,198298,2,0,B|86:325|86:325|75:316|75:316|47:314,2,75,2|2|10,3:2|0:0|0:0,0:0:0:0:
226,224,200012,2,0,B|254:226|254:226|265:235|265:235|298:239,2,75,8|8|8,0:3|0:0|0:0,0:0:0:0:
141,169,201441,1,8,0:0:0:0:
56,114,202012,5,4,3:2:0:0:
