osu file format v14

[General]
AudioFilename: audio.mp3
AudioLeadIn: 0
PreviewTime: 86303
Countdown: 0
SampleSet: Soft
StackLeniency: 0.5
Mode: 0
LetterboxInBreaks: 0
WidescreenStoryboard: 1

[Editor]
Bookmarks: 50,10837,21623,32410,43196,64769,75556,86342,97129,118702
DistanceSpacing: 1
BeatDivisor: 6
GridSize: 4
TimelineZoom: 1.8

[Metadata]
Title:Slyshu kak ty dyshish'
TitleUnicode:Слышу как ты дышишь
Artist:Midix, quiizzzmeow
ArtistUnicode:Midix, quiizzzmeow
Creator:A3THER_XX
Version:Urghi's Normal
Source:
Tags:русский хайперпоп хайпер поп квизмяу мидикс quizmeow i can hear you breathing russian HYPERPOP hyper pop ATTACK hip hop glitchcore bass bara aether xx urghi azinlen
BeatmapID:3441357
BeatmapSetID:1664724

[Difficulty]
HPDrainRate:3.5
CircleSize:3.5
OverallDifficulty:5
ApproachRate:6
SliderMultiplier:2
SliderTickRate:1

[Events]
//Background and Video events
0,0,"slishybg.jpg",0,0
//Break Periods
2,64972,73160
2,86208,94733
//Storyboard Layer 0 (Background)
//Storyboard Layer 1 (Fail)
//Storyboard Layer 2 (Pass)
//Storyboard Layer 3 (Foreground)
//Storyboard Layer 4 (Overlay)
//Storyboard Sound Samples
Sample,118368,0,"drum-hitfinish69.wav",40

[TimingPoints]
10840,674.157303370787,4,2,1,50,1,0
20278,-100,4,2,3,50,0,0
21626,-83.3333333333333,4,2,1,50,0,0
22300,-90.9090909090909,4,2,1,50,0,0
23311,-83.3333333333333,4,2,1,50,0,0
23648,-90.9090909090909,4,2,1,50,0,0
24323,-83.3333333333333,4,2,1,50,0,0
24997,-90.9090909090909,4,2,1,50,0,0
26008,-83.3333333333333,4,2,1,50,0,0
26345,-90.9090909090909,4,2,1,50,0,0
28368,-83.3333333333333,4,2,1,50,0,0
29042,-90.9090909090909,4,2,1,50,0,0
29716,-83.3333333333333,4,2,1,50,0,0
30390,-90.9090909090909,4,2,1,50,0,0
31401,-83.3333333333333,4,2,1,50,0,0
31738,-90.9090909090909,4,2,1,50,0,0
32413,-100,4,2,1,50,0,0
43199,-76.9230769230769,4,2,2,85,0,1
43704,-76.9230769230769,4,2,2,85,0,1
43873,-83.3333333333333,4,2,2,85,0,0
44884,-76.9230769230769,4,2,2,85,0,1
45222,-83.3333333333333,4,2,2,85,0,0
45896,-76.9230769230769,4,2,2,85,0,1
46570,-83.3333333333333,4,2,2,85,0,0
47581,-76.9230769230769,4,2,2,85,0,1
47918,-83.3333333333333,4,2,2,85,0,0
48592,-76.9230769230769,4,2,2,85,0,1
49097,-76.9230769230769,4,2,2,85,0,1
49266,-83.3333333333333,4,2,2,85,0,0
50278,-76.9230769230769,4,2,2,85,0,1
50615,-83.3333333333333,4,2,2,85,0,0
51289,-76.9230769230769,4,2,2,85,0,1
51963,-83.3333333333333,4,2,2,85,0,0
53986,-76.9230769230769,4,2,2,85,0,1
54660,-83.3333333333333,4,2,2,85,0,0
55671,-76.9230769230769,4,2,2,85,0,1
56008,-83.3333333333333,4,2,2,85,0,0
56682,-76.9230769230769,4,2,2,85,0,1
57356,-83.3333333333333,4,2,2,85,0,0
58368,-76.9230769230769,4,2,2,85,0,1
58705,-83.3333333333333,4,2,2,85,0,0
59379,-76.9230769230769,4,2,2,85,0,1
60053,-83.3333333333333,4,2,2,85,0,0
61064,-76.9230769230769,4,2,2,85,0,1
61401,-83.3333333333333,4,2,2,85,0,0
62075,-76.9230769230769,4,2,2,85,0,1
62750,-83.3333333333333,4,2,2,85,0,0
63761,-76.9230769230769,4,2,2,85,0,1
64098,-83.3333333333333,4,2,2,85,0,0
64772,-100,4,2,1,100,0,0
74210,-100,4,2,3,50,0,0
75559,-83.3333333333333,4,2,1,50,0,0
76233,-90.9090909090909,4,2,1,50,0,0
77244,-83.3333333333333,4,2,1,50,0,0
77581,-90.9090909090909,4,2,1,50,0,0
78255,-83.3333333333333,4,2,2,50,0,0
80952,-90.9090909090909,4,2,2,50,0,0
81626,-90.9090909090909,4,2,1,50,0,0
82300,-83.3333333333333,4,2,1,50,0,0
82974,-90.9090909090909,4,2,1,50,0,0
83648,-83.3333333333333,4,2,1,50,0,0
84323,-90.9090909090909,4,2,1,50,0,0
85334,-83.3333333333333,4,2,1,50,0,0
85671,-90.9090909090909,4,2,1,50,0,0
86345,-100,4,2,1,50,0,0
95783,-100,4,2,3,50,0,0
97132,-76.9230769230769,4,2,2,90,0,1
97637,-76.9230769230769,4,2,2,90,0,1
97806,-83.3333333333333,4,2,2,90,0,0
98817,-76.9230769230769,4,2,2,90,0,1
99154,-83.3333333333333,4,2,2,90,0,0
99828,-76.9230769230769,4,2,2,90,0,1
100502,-83.3333333333333,4,2,2,90,0,0
101514,-76.9230769230769,4,2,2,90,0,1
101851,-83.3333333333333,4,2,2,90,0,0
102525,-76.9230769230769,4,2,2,90,0,1
103199,-83.3333333333333,4,2,2,90,0,0
104210,-76.9230769230769,4,2,2,90,0,1
104547,-83.3333333333333,4,2,2,90,0,0
105222,-76.9230769230769,4,2,2,90,0,1
105896,-83.3333333333333,4,2,2,90,0,0
107918,-76.9230769230769,4,2,2,90,0,1
108592,-83.3333333333333,4,2,2,90,0,0
109604,-76.9230769230769,4,2,2,90,0,1
109941,-83.3333333333333,4,2,2,90,0,0
110615,-76.9230769230769,4,2,2,90,0,1
111289,-83.3333333333333,4,2,2,90,0,0
112300,-76.9230769230769,4,2,2,90,0,1
112637,-83.3333333333333,4,2,2,90,0,0
113311,-76.9230769230769,4,2,2,90,0,1
113986,-83.3333333333333,4,2,2,90,0,0
114997,-76.9230769230769,4,2,2,90,0,1
115334,-83.3333333333333,4,2,2,90,0,0
116008,-76.9230769230769,4,2,2,90,0,1
116682,-83.3333333333333,4,2,2,90,0,0
117693,-76.9230769230769,4,2,2,90,0,1
118031,-83.3333333333333,4,2,2,90,0,0
118368,-83.3333333333333,4,2,69,100,0,0
118705,-83.3333333333333,4,2,1,5,0,0

[Colours]
Combo1 : 223,255,0
Combo2 : 255,128,255
Combo3 : 128,255,255
Combo4 : 128,255,128
Combo5 : 255,0,102
Combo6 : 45,92,255

[HitObjects]
62,139,10840,6,0,P|54:95|35:31,2,100
42,237,11851,1,0,0:0:0:0:
87,326,12188,2,0,P|122:283|176:265,1,100,0|2,0:0|0:2,0:0:0:0:
229,192,12862,2,0,P|284:186|335:211,1,100,2|2,0:2|0:2,0:0:0:0:
384,282,13536,1,0,0:0:0:0:
443,201,13873,6,0,P|451:157|470:93,2,100,0|0|0,2:0|0:0|0:0,0:0:0:0:
483,292,14884,1,0,0:0:0:0:
407,357,15222,1,2,0:2:0:0:
309,334,15559,2,0,B|192:321|277:252|127:234,1,200,2|0,0:2|0:0,0:0:0:0:
58,186,16570,6,0,P|60:141|103:101,2,100
41,284,17581,1,0,0:0:0:0:
135,252,17918,1,2,0:2:0:0:
172,159,18255,2,0,P|227:170|264:205,1,100,2|2,0:2|0:2,0:0:0:0:
303,287,18929,1,0,0:0:0:0:
402,299,19266,54,0,P|404:254|447:214,2,100,0|0|0,2:0|0:0|0:0,0:0:0:0:
331,369,20278,5,0,3:0:0:0:
240,325,20615,1,0,3:0:0:0:
197,234,20952,5,0,3:0:0:0:
197,234,21120,1,0,3:0:0:0:
197,234,21289,1,0,3:0:0:0:
223,116,21626,6,0,B|245:114|245:114|278:131|278:131|274:194|274:194|282:199|282:199|343:194,1,179.999994506836,0|0,3:0|2:0,0:0:0:0:
385,191,22300,1,8,0:2:0:0:
431,290,22637,2,0,P|380:326|322:324,1,110.000003356934,0|0,3:0|0:0,0:0:0:0:
216,303,23311,6,0,B|191:299|191:299|180:254|180:254|174:250|174:250|110:254,1,119.999996337891,0|8,3:0|0:2,0:0:0:0:
43,187,23986,1,0,0:0:0:0:
71,70,24323,6,0,B|122:80|122:80|127:79|127:79|159:140|159:140|164:135|164:135|227:129,1,179.999994506836,0|0,3:0|0:0,0:0:0:0:
265,124,24997,1,8,0:2:0:0:
372,147,25334,2,0,P|350:214|332:289,1,110.000003356934,0|0,3:0|0:0,0:0:0:0:
253,335,26008,54,0,B|228:324|228:324|226:320|226:320|179:304|179:304|167:261,1,119.999996337891,0|8,3:0|0:2,0:0:0:0:
146,159,26682,1,0,0:0:0:0:
146,159,28368,54,0,B|145:148|145:148|163:123|163:123|172:86,1,59.9999981689454,0|0,3:0|0:0,0:0:0:0:
214,68,28705,2,0,B|205:60|205:60|200:30|200:30|180:-2,1,59.9999981689454,0|0,3:0|0:0,0:0:0:0:
136,4,29042,6,0,P|73:14|34:54,1,110.000003356934,8|0,0:2|0:0,0:0:0:0:
20,162,29716,6,0,B|36:190|36:190|43:191|43:191|84:221|84:221|87:274|87:274|91:273|91:273|117:303,1,179.999994506836,0|0,3:0|2:0,0:0:0:0:
151,337,30390,1,8,0:2:0:0:
240,273,30727,2,0,P|251:201|268:160,1,110.000003356934,0|0,3:0|0:0,0:0:0:0:
380,134,31401,6,0,B|377:113|377:113|387:65|387:65|382:59|382:59|356:13,1,119.999996337891,0|8,3:0|0:2,0:0:0:0:
361,22,32413,22,0,P|264:29|162:44,1,200
162,43,34098,2,0,P|188:81|196:143,2,100,2|0|2,0:2|0:0|0:2,0:0:0:0:
65,15,35109,6,0,P|52:67|31:124,1,100
4,205,35783,1,0,0:0:0:0:
4,205,35952,1,0,0:0:0:0:
4,205,36120,6,0,P|20:252|32:300,2,100,0|0|2,0:0|0:0|0:2,0:0:0:0:
59,121,37132,1,0,0:0:0:0:
156,99,37469,1,2,0:2:0:0:
219,176,37806,54,0,B|356:200|250:256|405:286,1,200
378,280,39491,2,0,P|399:220|432:188,2,100,2|0|2,0:2|0:0|0:2,0:0:0:0:
281,304,40502,6,0,P|240:267|186:247,1,100
199,249,41514,1,0,0:0:0:0:
211,149,41851,1,0,0:0:0:0:
211,149,42019,1,0,0:0:0:0:
211,149,42188,2,0,L|221:81,1,50
218,99,43199,22,0,B|230:90|230:90|245:86|245:86|292:106|292:106|290:163|290:163|346:186,1,194.999991073609,2|0,3:3|0:0,0:0:0:0:
399,202,43873,1,8,0:1:0:0:
438,315,44210,2,0,P|388:288|315:295,1,119.999996337891,2|0,3:3|0:0,0:0:0:0:
225,208,44884,2,0,B|201:192|201:192|168:202|168:202|159:230|159:230|109:259,1,129.999994049073,2|8,3:3|0:1,0:0:0:0:
29,319,45559,1,0,0:0:0:0:
146,373,45896,6,0,B|170:342|170:342|167:332|167:332|160:253|160:253|174:231|174:231|180:174,1,194.999991073609,2|0,3:3|2:0,0:0:0:0:
183,131,46570,1,8,0:1:0:0:
262,41,46907,2,0,P|317:67|339:124,1,119.999996337891,2|0,3:3|0:0,0:0:0:0:
456,173,47581,2,0,B|446:219|446:219|440:218|440:218|376:304,1,129.999994049073,2|8,3:3|0:1,0:0:0:0:
293,344,48255,1,0,0:0:0:0:
165,317,48592,6,0,B|181:288|181:288|175:283|175:283|156:219|156:219|148:215|148:215|128:191|128:191|55:167,1,194.999991073609,2|0,3:3|0:0,0:0:0:0:
24,161,49266,1,8,0:1:0:0:
64,47,49604,2,0,P|128:43|175:5,1,119.999996337891,2|0,3:3|0:0,0:0:0:0:
301,9,50278,2,0,B|281:20|281:20|279:34|279:34|324:65|324:65|341:106,1,129.999994049073,2|8,3:3|0:1,0:0:0:0:
436,169,50952,1,0,0:0:0:0:
374,283,51289,54,0,B|364:253|364:253|365:248|365:248|341:201|341:201|321:194|321:194|212:230,1,194.999991073609,2|0,3:3|2:0,0:0:0:0:
182,236,51963,1,8,0:1:0:0:
72,284,52300,37,2,3:3:0:0:
72,284,53986,38,0,B|102:273|102:273|106:270|106:270|138:307|138:307|149:309|149:309|280:299,1,194.999991073609,2|0,3:3|0:0,0:0:0:0:
306,296,54660,1,8,0:1:0:0:
409,235,54997,2,0,P|412:164|379:114,1,119.999996337891,2|0,3:3|0:0,0:0:0:0:
293,34,55671,2,0,B|264:36|264:36|259:44|259:44|151:79,1,129.999994049073,2|8,3:3|0:1,0:0:0:0:
51,72,56345,1,0,0:0:0:0:
17,197,56682,6,0,B|77:165|77:165|91:177|91:177|140:192|140:192|151:197|151:197|230:215,1,194.999991073609,2|0,3:3|2:0,0:0:0:0:
252,223,57356,1,8,0:1:0:0:
277,105,57693,2,0,P|314:67|398:51,1,119.999996337891,2|0,3:3|0:0,0:0:0:0:
505,25,58368,2,0,B|511:43|511:43|476:90|476:90|465:97|465:97|469:157,1,129.999994049073,2|8,3:3|0:1,0:0:0:0:
476,195,58873,1,2,3:3:0:0:
476,195,59042,1,0,0:0:0:0:
502,322,59379,6,0,B|471:298|471:298|466:305|466:305|421:330|421:330|418:335|418:335|295:344,1,194.999991073609,2|0,3:3|0:0,0:0:0:0:
268,344,60053,1,8,2:1:0:0:
197,247,60390,2,0,P|150:219|71:220,1,119.999996337891,2|0,3:3|0:0,0:0:0:0:
43,92,61064,2,0,B|89:118|89:118|95:115|95:115|194:104,1,129.999994049073,2|8,3:3|0:1,0:0:0:0:
280,75,61738,1,0,0:0:0:0:
396,132,62075,54,0,B|450:101|450:101|447:95|447:95|437:35|437:35|421:21|421:21|332:10,1,194.999991073609,2|0,3:3|2:0,0:0:0:0:
317,9,62750,1,8,0:1:0:0:
265,117,63087,1,0,0:0:0:0:
265,117,63761,6,0,B|251:150|251:150|190:157|190:157|191:162|191:162|154:213,1,129.999994049073,2|0,3:3|0:0,0:0:0:0:
174,184,64772,5,4,0:2:0:0:
426,51,74210,5,0,3:0:0:0:
451,147,74547,1,0,3:0:0:0:
451,147,74716,1,0,3:0:0:0:
451,147,74884,2,0,P|439:194|431:264,1,100,0|0,3:0|3:0,0:0:0:0:
474,357,75559,38,0,B|471:335|471:335|465:331|465:331|372:346|372:346|366:340|366:340|296:328,1,179.999994506836,0|0,3:0|0:0,0:0:0:0:
265,315,76233,2,0,P|208:312|149:333,1,110.000003356934,8|0,0:2|0:0,0:0:0:0:
50,351,76907,1,0,0:0:0:0:
12,237,77244,6,0,B|24:217|24:217|32:214|32:214|69:187|69:187|65:124,1,119.999996337891,0|8,3:0|0:2,0:0:0:0:
56,35,77918,1,0,0:0:0:0:
175,21,78255,6,0,B|188:18|188:18|238:34|238:34|240:40|240:40|319:36,2,119.999996337891,2|2|2,3:3|3:3|3:3,0:0:0:0:
121,128,79266,1,2,3:3:0:0:
173,236,79604,54,0,B|225:221|225:221|265:230|265:230|270:237|270:237|300:240,2,119.999996337891,2|2|2,3:3|3:3|3:3,0:0:0:0:
119,343,80615,1,2,3:3:0:0:
224,372,80952,37,0,0:0:0:0:
224,372,81626,2,0,P|234:313|271:264,1,110.000003356934,8|0,0:2|0:0,0:0:0:0:
372,225,82300,6,0,B|368:202|368:202|373:187|373:187|378:143,1,59.9999981689454,0|0,3:0|0:0,0:0:0:0:
343,115,82637,2,0,B|356:95|356:95|370:88|370:88|405:61,1,59.9999981689454,0|0,3:0|0:0,0:0:0:0:
440,61,82974,6,0,P|373:48|326:9,1,110.000003356934,8|2,0:2|0:2,0:0:0:0:
220,7,83648,6,0,B|147:19|147:19|143:14|143:14|86:14|86:14|53:20|53:20|12:45,1,179.999994506836,0|0,3:0|0:0,0:0:0:0:
13,70,84323,2,0,P|36:117|46:186,1,110.000003356934,8|0,0:2|0:0,0:0:0:0:
45,173,85334,6,0,B|28:196|28:196|28:208|28:208|57:231|57:231|77:288,1,119.999996337891,0|8,0:0|0:2,0:0:0:0:
130,363,86008,1,0,0:0:0:0:
86,333,95783,21,0,3:0:0:0:
61,237,96120,1,0,3:0:0:0:
61,237,96289,1,0,3:0:0:0:
61,237,96457,2,0,P|73:190|81:120,1,100,0|0,3:0|3:0,0:0:0:0:
20,22,97132,38,0,B|61:12|61:12|63:15|63:15|89:23|89:23|119:49|119:49|123:47|123:47|210:40,1,194.999991073609,2|0,3:3|0:0,0:0:0:0:
260,34,97806,1,8,0:1:0:0:
377,58,98143,2,0,P|360:113|348:200,1,119.999996337891,2|0,3:3|0:0,0:0:0:0:
439,268,98817,2,0,B|442:307|442:307|445:313|445:313|395:336|395:336|390:336|390:336|344:346,1,129.999994049073,2|8,3:3|0:1,0:0:0:0:
249,312,99491,1,0,0:0:0:0:
121,336,99828,6,0,B|135:277|135:277|131:278|131:278|98:205|98:205|102:190|102:190|109:129,1,194.999991073609,2|0,3:3|0:0,0:0:0:0:
115,96,100502,1,8,0:1:0:0:
215,30,100840,2,0,P|277:17|373:17,1,119.999996337891,2|0,3:3|0:0,0:0:0:0:
463,14,101514,2,0,B|441:21|441:21|441:27|441:27|426:55|426:55|429:63|429:63|435:147,1,129.999994049073,2|8,3:3|0:1,0:0:0:0:
497,224,102188,1,0,0:0:0:0:
438,340,102525,6,0,B|413:327|413:327|409:328|409:328|366:354|366:354|360:350|360:350|288:342|288:342|241:347,1,194.999991073609,2|0,3:3|2:0,0:0:0:0:
196,356,103199,1,8,0:1:0:0:
103,279,103536,2,0,L|126:135,1,119.999996337891,2|0,3:3|0:0,0:0:0:0:
42,57,104210,2,0,B|25:12|25:12|22:10|22:10|74:3|74:3|78:5|78:5|126:11,1,129.999994049073,2|8,3:3|0:1,0:0:0:0:
216,32,104884,1,0,0:0:0:0:
339,75,105222,54,0,B|334:101|334:101|336:114|336:114|342:114|342:114|371:154|371:154|370:162|370:162|388:283,1,194.999991073609,2|0,3:3|2:0,0:0:0:0:
391,312,105896,1,8,0:1:0:0:
282,362,106233,37,2,3:3:0:0:
282,362,107918,38,0,B|256:311|256:311|254:312|254:312|202:255|202:255|202:249|202:249|227:183,1,194.999991073609,2|0,3:3|0:0,0:0:0:0:
248,146,108592,1,8,0:1:0:0:
177,49,108929,2,0,P|147:32|36:20,1,119.999996337891,2|0,3:3|0:0,0:0:0:0:
15,137,109604,2,0,B|35:148|35:148|32:150|32:150|29:207|29:207|30:212|30:212|57:275,1,129.999994049073,2|8,3:3|0:1,0:0:0:0:
121,343,110278,1,0,0:0:0:0:
230,273,110615,6,0,B|246:251|246:251|266:253|266:253|266:257|266:257|295:267|295:267|411:265,1,194.999991073609,2|0,3:3|0:0,0:0:0:0:
468,262,111289,1,8,0:1:0:0:
444,144,111626,2,0,P|458:74|482:21,1,119.999996337891,2|0,3:3|0:0,0:0:0:0:
349,7,112300,2,0,B|330:12|330:12|326:15|326:15|273:57|273:57|273:55|273:55|200:41,1,129.999994049073,2|8,3:3|0:1,0:0:0:0:
180,30,112806,1,2,3:3:0:0:
180,30,112974,1,0,0:0:0:0:
63,87,113311,6,0,B|81:105|81:105|84:109|84:109|71:132|71:132|58:179|58:179|60:185|60:185|49:298,1,194.999991073609,2|0,3:3|0:0,0:0:0:0:
48,328,113986,1,8,0:1:0:0:
161,367,114323,2,0,P|197:331|281:310,1,119.999996337891,2|0,3:3|0:0,0:0:0:0:
391,315,114997,2,0,B|383:295|383:295|385:292|385:292|406:253|406:253|407:242|407:242|398:183,1,129.999994049073,2|8,3:3|0:1,0:0:0:0:
376,75,115671,1,0,0:0:0:0:
256,24,116008,54,0,B|224:67|224:67|224:69|224:69|236:78|236:78|255:152|255:152|251:156|251:156|239:223,1,194.999991073609,2|0,3:3|0:0,0:0:0:0:
229,256,116682,1,8,0:1:0:0:
139,335,117019,1,0,0:0:0:0:
139,335,117693,6,0,B|138:299|138:299|139:294|139:294|114:262|114:262|119:256|119:256|136:219,1,129.999994049073,2|0,3:3|0:0,0:0:0:0:
256,192,118368,1,0,0:0:0:0:
256,192,118705,12,0,121570,0:0:0:0:
