osu file format v14

[General]
AudioFilename: audio.mp3
AudioLeadIn: 0
PreviewTime: 86303
Countdown: 0
SampleSet: Soft
StackLeniency: 0.3
Mode: 0
LetterboxInBreaks: 0
WidescreenStoryboard: 0

[Editor]
Bookmarks: 41,10827,21614,32400,43187,53983,64760,75546,86333,97119,107915,118692
DistanceSpacing: 2
BeatDivisor: 16
GridSize: 32
TimelineZoom: 3.999999

[Metadata]
Title:Slyshu kak ty dyshish'
TitleUnicode:Слышу как ты дышишь
Artist:Midix, quiizzzmeow
ArtistUnicode:Midix, quiizzzmeow
Creator:A3THER_XX
Version:Azinlen's Insane
Source:
Tags:русский хайперпоп хайпер поп квизмяу мидикс quizmeow i can hear you breathing russian HYPERPOP hyper pop ATTACK hip hop glitchcore bass bara aether xx urghi azinlen
BeatmapID:3443734
BeatmapSetID:1664724

[Difficulty]
HPDrainRate:4.5
CircleSize:4.2
OverallDifficulty:7.6
ApproachRate:8.6
SliderMultiplier:1.6
SliderTickRate:1

[Events]
//Background and Video events
0,0,"slishybg.jpg",0,0
//Break Periods
//Storyboard Layer 0 (Background)
//Storyboard Layer 1 (Fail)
//Storyboard Layer 2 (Pass)
//Storyboard Layer 3 (Foreground)
//Storyboard Layer 4 (Overlay)
//Storyboard Sound Samples
Sample,118368,0,"drum-hitfinish69.wav",40

[TimingPoints]
10840,674.157303370787,4,2,1,50,1,0
19603,-100,4,2,1,50,0,0
20278,-100,4,2,3,50,0,0
21626,-50,4,2,1,50,0,0
21878,-50,4,2,1,5,0,0
21963,-50,4,2,1,50,0,0
22131,-50,4,2,1,5,0,0
22300,-50,4,2,1,50,0,0
22637,-50,4,2,1,50,0,0
22889,-50,4,2,1,5,0,0
22974,-50,4,2,1,50,0,0
23142,-50,4,2,1,5,0,0
23311,-40,4,2,1,50,0,0
23563,-40,4,2,1,5,0,0
23648,-50,4,2,1,50,0,0
23816,-50,4,2,1,5,0,0
23986,-50,4,2,1,50,0,0
24154,-50,4,2,1,5,0,0
24323,-50,4,2,1,50,0,0
24575,-50,4,2,1,5,0,0
24660,-50,4,2,1,50,0,0
25249,-50,4,2,1,5,0,0
25334,-50,4,2,1,50,0,0
25502,-50,4,2,1,100,0,0
25671,-50,4,2,1,50,0,0
26934,-50,4,2,1,5,0,0
27019,-50,4,2,1,50,0,0
27103,-50,4,2,1,100,0,0
27356,-50,4,2,1,50,0,0
27861,-50,4,2,1,100,0,0
28031,-50,4,2,1,50,0,0
28199,-50,4,2,1,100,0,0
28368,-33.3333333333333,4,2,1,50,0,0
28620,-33.3333333333333,4,2,1,5,0,0
28705,-33.3333333333333,4,2,1,50,0,0
28957,-33.3333333333333,4,2,1,5,0,0
29042,-50,4,2,1,50,0,0
30390,-50,4,2,1,50,0,0
30642,-50,4,2,1,5,0,0
30727,-50,4,2,1,50,0,0
30895,-50,4,2,1,100,0,0
31064,-50,4,2,1,50,0,0
32327,-50,4,2,1,5,0,0
32413,-100,4,2,1,50,0,0
36288,-100,4,2,1,5,0,0
36457,-100,4,2,1,50,0,0
41345,-100,4,2,1,5,0,0
41514,-100,4,2,1,50,0,0
41682,-100,4,2,1,5,0,0
41851,-100,4,2,1,50,0,0
43199,-22.2222222222222,4,2,2,85,0,1
43283,-22.2222222222222,4,2,2,85,0,0
43451,-22.2222222222222,4,2,2,5,0,0
43536,-133.333333333333,4,2,2,85,0,0
43788,-133.333333333333,4,2,2,5,0,0
43873,-50,4,2,2,85,0,0
44884,-133.333333333333,4,2,2,85,0,0
45136,-133.333333333333,4,2,2,5,0,0
45222,-50,4,2,2,85,0,0
45896,-22.2222222222222,4,2,2,85,0,0
46148,-22.2222222222222,4,2,2,5,0,0
46233,-50,4,2,2,85,0,0
46907,-133.333333333333,4,2,2,85,0,0
47412,-133.333333333333,4,2,2,5,0,0
47581,-50,4,2,2,85,0,0
48592,-22.2222222222222,4,2,2,85,0,0
48844,-22.2222222222222,4,2,2,5,0,0
48929,-50,4,2,2,85,0,0
49181,-50,4,2,2,5,0,0
49266,-133.333333333333,4,2,2,85,0,0
49518,-133.333333333333,4,2,2,5,0,0
49604,-50,4,2,2,85,0,0
51289,-22.2222222222222,4,2,2,85,0,0
51963,-50,4,2,2,85,0,0
52131,-50,4,2,2,5,0,0
52300,-50,4,2,2,85,0,0
52637,-50,4,2,2,5,0,0
53986,-50,4,2,2,85,0,1
54070,-50,4,2,2,85,0,0
54238,-50,4,2,2,5,0,0
54323,-50,4,2,2,85,0,0
54912,-50,4,2,2,5,0,0
54997,-133.333333333333,4,2,2,85,0,0
55249,-133.333333333333,4,2,2,5,0,0
55334,-50,4,2,2,85,0,0
55671,-50,4,2,2,85,0,0
55923,-50,4,2,2,5,0,0
56008,-50,4,2,2,85,0,0
56597,-50,4,2,2,5,0,0
56682,-133.333333333333,4,2,2,85,0,0
56934,-133.333333333333,4,2,2,5,0,0
57019,-50,4,2,2,85,0,0
57271,-50,4,2,2,5,0,0
57356,-50,4,2,2,85,0,0
57608,-50,4,2,2,5,0,0
57693,-133.333333333333,4,2,2,85,0,0
58368,-50,4,2,2,85,0,0
60558,-50,4,2,2,100,0,0
60727,-50,4,2,2,85,0,0
61064,-33.3333333333333,4,2,2,85,0,0
61316,-33.3333333333333,4,2,2,5,0,0
61401,-133.333333333333,4,2,2,85,0,0
62075,-50,4,2,2,85,0,0
62327,-50,4,2,2,5,0,0
62413,-50,4,2,2,85,0,0
62581,-50,4,2,2,5,0,0
62750,-50,4,2,2,85,0,0
63002,-50,4,2,2,5,0,0
63087,-50,4,2,2,85,0,0
63255,-50,4,2,2,5,0,0
63761,-50,4,2,2,85,0,0
63845,-50,4,2,2,85,0,0
64435,-50,4,2,2,85,0,0
64687,-50,4,2,2,5,0,0
64772,-100,4,2,1,85,0,0
65446,-100,4,2,1,20,0,0
72862,-133.333333333333,4,2,1,20,0,0
74210,-133.333333333333,4,2,3,50,0,0
75390,-133.333333333333,4,2,3,85,0,0
75559,-50,4,2,1,50,0,0
77412,-50,4,2,1,85,0,0
77581,-50,4,2,1,50,0,0
78255,-31.25,4,2,2,50,0,0
78423,-31.25,4,2,2,5,0,0
78592,-35.7142857142857,4,2,2,50,0,0
78760,-35.7142857142857,4,2,2,5,0,0
78929,-41.6666666666667,4,2,2,50,0,0
79097,-41.6666666666667,4,2,2,5,0,0
79266,-50,4,2,2,50,0,0
79434,-50,4,2,2,5,0,0
79604,-62.5,4,2,2,50,0,0
79772,-62.5,4,2,2,5,0,0
79941,-83.3333333333333,4,2,2,50,0,0
80109,-83.3333333333333,4,2,2,5,0,0
80278,-125,4,2,2,50,0,0
80446,-125,4,2,2,5,0,0
80615,-250,4,2,2,50,0,0
80783,-250,4,2,2,5,0,0
80952,-250,4,2,1,50,0,0
81626,-43.4782608695652,4,2,1,50,0,0
82216,-43.4782608695652,4,2,1,5,0,0
82300,-50,4,2,1,50,0,0
82552,-50,4,2,1,5,0,0
82637,-50,4,2,1,50,0,0
82889,-50,4,2,1,5,0,0
82974,-43.4782608695652,4,2,1,50,0,0
83564,-43.4782608695652,4,2,1,5,0,0
83648,-50,4,2,1,50,0,0
85586,-50,4,2,1,5,0,0
85671,-50,4,2,1,50,0,0
86176,-50,4,2,1,5,0,0
86345,-133.333333333333,4,2,1,50,0,0
88283,-133.333333333333,4,2,1,5,0,0
88368,-133.333333333333,4,2,1,50,0,0
88957,-133.333333333333,4,2,1,5,0,0
89042,-133.333333333333,4,2,1,50,0,0
95446,-133.333333333333,4,2,1,5,0,0
95783,-133.333333333333,4,2,3,50,0,0
97132,-22.2222222222222,4,2,2,90,0,1
97216,-22.2222222222222,4,2,2,90,0,0
97384,-22.2222222222222,4,2,2,5,0,0
97469,-50,4,2,2,90,0,0
97721,-50,4,2,2,5,0,0
97806,-133.333333333333,4,2,2,90,0,0
97974,-133.333333333333,4,2,2,100,0,0
98143,-133.333333333333,4,2,2,90,0,0
98395,-133.333333333333,4,2,2,5,0,0
98480,-50,4,2,2,90,0,0
98732,-50,4,2,2,5,0,0
98817,-22.2222222222222,4,2,2,90,0,0
99069,-22.2222222222222,4,2,2,5,0,0
99154,-50,4,2,2,90,0,0
99406,-50,4,2,2,5,0,0
99491,-133.333333333333,4,2,2,90,0,0
99743,-133.333333333333,4,2,2,5,0,0
99828,-22.2222222222222,4,2,2,90,0,0
100502,-50,4,2,2,90,0,0
100754,-50,4,2,2,5,0,0
100840,-133.333333333333,4,2,2,90,0,0
101092,-133.333333333333,4,2,2,5,0,0
101177,-50,4,2,2,90,0,0
101429,-50,4,2,2,5,0,0
101514,-22.2222222222222,4,2,2,90,0,0
101766,-22.2222222222222,4,2,2,5,0,0
101851,-133.333333333333,4,2,2,90,0,0
102188,-50,4,2,2,90,0,0
102440,-50,4,2,2,5,0,0
102525,-22.2222222222222,4,2,2,90,0,0
102777,-22.2222222222222,4,2,2,5,0,0
102862,-50,4,2,2,90,0,0
103114,-50,4,2,2,5,0,0
103199,-133.333333333333,4,2,2,90,0,0
103873,-50,4,2,2,90,0,0
104125,-50,4,2,2,5,0,0
104210,-22.2222222222222,4,2,2,90,0,0
104462,-22.2222222222222,4,2,2,5,0,0
104547,-133.333333333333,4,2,2,90,0,0
104715,-133.333333333333,4,2,2,5,0,0
104884,-133.333333333333,4,2,2,90,0,0
105052,-133.333333333333,4,2,2,5,0,0
105222,-22.2222222222222,4,2,2,90,0,0
105896,-50,4,2,2,90,0,0
106148,-50,4,2,2,5,0,0
106233,-133.333333333333,4,2,2,90,0,0
106401,-133.333333333333,4,2,2,100,0,0
106907,-133.333333333333,4,2,2,40,0,0
107918,-50,4,2,2,90,0,0
108002,-50,4,2,2,90,0,1
108171,-50,4,2,2,5,0,0
108255,-50,4,2,2,90,0,0
109181,-50,4,2,2,5,0,0
109266,-50,4,2,2,90,0,0
109434,-50,4,2,2,5,0,0
109604,-50,4,2,2,90,0,0
109856,-50,4,2,2,5,0,0
109941,-50,4,2,2,90,0,0
110193,-50,4,2,2,5,0,0
110278,-50,4,2,2,90,0,0
110446,-50,4,2,2,5,0,0
110615,-33.3333333333333,4,2,2,90,0,0
110867,-33.3333333333333,4,2,2,5,0,0
110952,-33.3333333333333,4,2,2,90,0,0
111289,-50,4,2,2,90,0,0
111626,-50,4,2,2,90,0,0
111878,-50,4,2,2,5,0,0
111963,-50,4,2,2,90,0,0
112300,-50,4,2,2,90,0,0
112552,-50,4,2,2,5,0,0
112637,-50,4,2,2,90,0,0
112721,-50,4,2,2,5,0,0
112806,-50,4,2,2,90,0,0
112890,-50,4,2,2,5,0,0
112974,-28.5714285714286,4,2,2,90,0,0
113226,-28.5714285714286,4,2,2,5,0,0
113311,-33.3333333333333,4,2,2,90,0,0
113563,-33.3333333333333,4,2,2,5,0,0
113648,-33.3333333333333,4,2,2,90,0,0
114323,-33.3333333333333,4,2,2,90,0,0
114575,-33.3333333333333,4,2,2,5,0,0
114660,-33.3333333333333,4,2,2,90,0,0
114912,-33.3333333333333,4,2,2,5,0,0
114997,-22.2222222222222,4,2,2,90,0,0
115249,-22.2222222222222,4,2,2,5,0,0
115334,-50,4,2,2,90,0,0
115502,-50,4,2,2,5,0,0
115671,-50,4,2,2,90,0,0
115839,-50,4,2,2,5,0,0
116008,-33.3333333333333,4,2,2,90,0,0
116260,-33.3333333333333,4,2,2,5,0,0
116345,-50,4,2,2,90,0,0
116850,-50,4,2,2,100,0,0
117019,-50,4,2,2,90,0,0
118368,-50,4,2,69,100,0,0
118705,-50,4,2,1,5,0,0

[Colours]
Combo1 : 223,255,0
Combo2 : 255,128,255
Combo3 : 128,255,255
Combo4 : 128,255,128
Combo5 : 255,0,102
Combo6 : 45,92,255

[HitObjects]
45,65,10840,6,0,P|134:127|115:162,1,160
238,210,11851,1,0,0:0:0:0:
128,315,12188,2,0,L|151:218,2,80,0|2|2,0:0|0:2|0:2,0:0:0:0:
211,379,13199,1,2,0:2:0:0:
211,379,13536,6,0,B|316:365|247:306|362:295,1,160
475,325,14547,1,0,0:0:0:0:
475,325,14884,2,0,P|438:301|445:251,1,80,0|2,0:0|0:2,0:0:0:0:
370,203,15559,2,0,P|375:164|409:146,1,80,2|2,0:2|0:2,0:0:0:0:
511,117,16233,6,0,P|423:122|385:46,1,160
285,26,17244,1,0,0:0:0:0:
219,115,17581,2,0,P|173:129|136:112,1,80,0|2,0:0|0:2,0:0:0:0:
92,36,18255,2,0,P|46:22|9:39,1,80,2|2,0:2|0:2,0:0:0:0:
6,127,18929,53,0,0:0:0:0:
6,127,19266,2,0,L|26:237,2,80,0|0|0,2:0|0:0|0:0,0:0:0:0:
121,211,20278,5,0,3:0:0:0:
97,301,20446,1,0,3:0:0:0:
202,243,20615,5,0,3:0:0:0:
225,374,20783,1,0,3:0:0:0:
304,239,20952,53,0,3:0:0:0:
312,222,21036,1,0,3:0:0:0:
301,208,21120,1,0,3:0:0:0:
229,147,21289,5,0,3:0:0:0:
229,147,21457,5,0,0:0:0:0:
322,329,21626,6,0,L|466:301,1,120,0|0,3:0|2:0,0:0:0:0:
482,298,21963,2,0,L|463:396,1,80,0|0,0:0|2:0,0:0:0:0:
355,221,22300,1,8,0:2:0:0:
355,221,22469,1,0,2:0:0:0:
492,132,22637,2,0,P|508:81|445:43,1,120,0|0,3:0|2:0,0:0:0:0:
401,88,22974,2,0,P|359:77|301:67,1,80,0|0,0:0|2:0,0:0:0:0:
162,11,23311,6,0,B|207:36|206:66|206:66|154:78|137:126,1,150,0|0,3:0|2:0,0:0:0:0:
157,179,23648,2,0,P|117:153|69:171,1,80,8|0,0:2|2:0,0:0:0:0:
0,278,23986,2,0,P|40:252|88:270,1,80,0|0,0:0|2:0,0:0:0:0:
199,366,24323,6,0,P|151:353|170:272,1,120,0|0,3:0|2:0,0:0:0:0:
212,253,24660,1,0,0:0:0:0:
212,253,24828,1,0,0:0:0:0:
324,367,24997,2,0,P|393:340|463:327,1,120,8|0,0:2|2:0,0:0:0:0:
502,295,25334,2,0,P|457:276|437:239,1,80,0|0,3:0|0:0,0:0:0:0:
395,106,25671,54,0,P|366:201|349:285,2,160,0|0|8,0:0|3:0|0:2,0:0:0:0:
404,97,26682,6,0,P|365:52|302:57,1,120,0|0,0:0|2:0,0:0:0:0:
257,112,27019,22,0,L|208:132,2,40
152,71,27356,2,0,L|114:55,2,40,2|2|2,0:2|0:2|0:2,0:0:0:0:
108,157,27693,6,0,L|-2:178,1,80
192,252,28031,2,0,L|113:236,1,80
274,359,28368,6,0,B|301:312|301:312|179:339,1,180.000006866455,0|0,3:0|2:0,0:0:0:0:
295,236,28705,2,0,B|268:189|268:189|390:216,1,180.000006866455,0|0,3:0|2:0,0:0:0:0:
435,348,29042,6,0,P|448:295|431:346,1,160,8|0,0:2|0:0,0:0:0:0:
486,274,29716,6,0,P|467:166|453:93,1,160,0|0,3:0|0:0,0:0:0:0:
497,27,30222,1,0,2:0:0:0:
497,27,30390,2,0,P|429:72|391:62,1,120,8|0,0:2|2:0,0:0:0:0:
322,50,30727,2,0,P|344:83|350:132,1,80,0|0,3:0|0:0,0:0:0:0:
271,182,31064,54,0,P|183:147|100:133,2,160,0|0|8,0:0|3:0|0:2,0:0:0:0:
276,192,32075,6,0,P|300:241|265:298,1,120,0|0,0:0|2:0,0:0:0:0:
203,335,32413,22,0,P|115:300|32:286,1,160
0,226,34098,6,0,P|25:190|9:161,2,80,2|0|2,0:2|0:0|0:2,0:0:0:0:
114,196,35109,6,0,P|101:153|78:30,1,160
94,16,35868,1,0,0:0:0:0:
94,16,35952,1,0,0:0:0:0:
205,109,36120,54,0,P|212:82|219:60,1,40,0|0,0:0|2:0,0:0:0:0:
275,153,36457,6,0,P|234:163|213:219,1,80,0|2,0:0|0:2,0:0:0:0:
265,276,37132,2,0,B|353:290|325:211|412:224,1,160
425,228,38480,6,0,P|436:279|416:310,2,80
361,139,39491,54,0,P|368:90|376:42,1,80,2|0,0:2|0:0,0:0:0:0:
300,5,40165,1,2,0:2:0:0:
229,78,40502,5,0,0:0:0:0:
155,15,40840,2,0,P|106:-4|47:34,1,120,0|0,0:0|2:0,0:0:0:0:
16,99,41514,2,0,P|28:121|39:157,1,40,0|0,0:0|2:0,0:0:0:0:
97,195,41851,6,0,P|103:169|106:160,7,20
116,289,43199,6,0,B|157:282|157:282|196:273|181:206|142:212|142:212|-36:246,1,270.000010299683,2|0,3:3|2:0,0:0:0:0:
0,313,43536,6,0,L|53:302,1,45.0000017166138,0|0,0:0|2:0,0:0:0:0:
214,381,43873,6,0,P|139:361|120:273,2,160,8|2|0,0:1|3:3|0:0,0:0:0:0:
221,277,44884,54,0,P|212:293|223:283,1,45.0000017166138,2|0,3:3|2:0,0:0:0:0:
308,275,45222,6,0,P|283:202|209:182,1,160,8|0,0:1|0:0,0:0:0:0:
296,363,45896,6,0,B|364:390|407:324|382:296|448:244|541:311|519:343,1,270.000010299683,2|0,3:3|2:0,0:0:0:0:
460,367,46233,54,0,P|446:261|428:177,1,160,0|8,0:0|0:1,0:0:0:0:
466,95,46907,6,0,P|457:86|470:96,1,90.0000034332277,2|0,3:3|2:0,0:0:0:0:
512,190,47581,6,0,P|452:133|371:162,2,160,2|8|0,3:3|0:1|0:0,0:0:0:0:
369,56,48592,54,0,B|300:20|228:63|275:117|179:195|78:76,1,270.000010299683,2|0,3:3|2:0,0:0:0:0:
66,79,48929,6,0,B|50:63|50:63|121:30|121:30|127:64,1,120,0|0,0:0|2:0,0:0:0:0:
63,164,49266,6,0,L|7:156,1,45.0000017166138,8|0,0:1|2:0,0:0:0:0:
171,300,49604,54,0,B|146:331|112:328|89:308|66:274|73:231|120:199|175:215|175:215|301:257,1,320,2|2,3:3|3:3,0:0:0:0:
404,200,50615,5,8,0:1:0:0:
354,290,50952,5,0,0:0:0:0:
418,173,51289,54,0,B|443:204|477:201|500:181|523:147|516:104|469:72|414:88|414:88|277:133,1,360.000013732911,2|0,3:3|0:0,0:0:0:0:
210,141,51795,1,0,2:0:0:0:
260,61,51963,2,0,P|297:106|286:156,1,80,8|0,0:1|2:0,0:0:0:0:
237,230,52300,38,0,L|54:199,1,160,2|0,3:3|2:0,0:0:0:0:
79,203,53986,38,0,B|104:255|104:255|71:320,1,120,2|0,3:3|2:0,0:0:0:0:
3,371,54323,2,0,L|103:344,1,80
255,359,54660,6,0,P|184:332|191:284,1,120,8|0,0:1|2:0,0:0:0:0:
248,235,54997,2,0,L|260:285,1,45.0000017166138,2|0,3:3|2:0,0:0:0:0:
338,365,55334,5,0,0:0:0:0:
347,339,55418,1,0,0:0:0:0:
328,314,55502,1,0,2:0:0:0:
355,222,55671,54,0,B|410:250|410:250|462:225,1,120,2|0,3:3|2:0,0:0:0:0:
415,119,56008,6,0,B|379:59|379:59|420:3|420:3|457:68|457:68|415:119,1,280,8|0,0:1|2:0,0:0:0:0:
415,118,56682,6,0,L|412:170,1,45.0000017166138,2|0,3:3|2:0,0:0:0:0:
308,136,57019,2,0,L|294:-4,1,120,0|0,0:0|2:0,0:0:0:0:
142,146,57356,54,0,P|181:163|225:104,1,120,8|0,0:1|2:0,0:0:0:0:
184,52,57693,6,0,P|150:53|130:77,1,60.0000022888184,2|0,3:3|0:0,0:0:0:0:
62,167,58368,6,0,B|-12:139|-12:139|72:113,1,160,2|8,3:3|0:1,0:0:0:0:
76,255,58873,5,2,3:3:0:0:
76,255,59042,2,0,L|-22:221,1,80
91,350,59379,38,0,B|161:337|177:257|177:257|204:332|279:329,1,240,2|0,3:3|0:0,0:0:0:0:
352,276,60053,6,0,P|361:293|353:285,1,80,8|0,2:1|0:0,0:0:0:0:
272,185,60390,6,0,P|288:117|306:62,1,80,2|0,3:3|0:0,0:0:0:0:
243,32,60727,1,0,0:0:0:0:
243,32,60811,1,0,0:0:0:0:
243,32,60896,1,0,2:0:0:0:
351,66,61064,54,0,P|281:69|176:153,1,180.000006866455,2|0,3:3|2:0,0:0:0:0:
110,27,61401,6,0,P|127:52|122:86,1,60.0000022888184,8|0,0:1|0:0,0:0:0:0:
194,242,62075,6,0,P|155:203|81:215,1,120,2|0,3:3|2:0,0:0:0:0:
45,258,62413,2,0,P|57:305|63:352,1,80,0|0,0:0|2:0,0:0:0:0:
262,366,62750,54,0,P|271:290|282:217,1,120,8|0,0:1|2:0,0:0:0:0:
346,222,63087,2,0,P|319:216|292:173,1,80,0|0,0:0|2:0,0:0:0:0:
424,72,63761,6,0,P|436:70|423:77,3,40,2|0|0|0,3:3|0:0|0:0|0:0,0:0:0:0:
482,148,64435,6,0,P|523:94|508:41,1,120,0|0,0:0|2:0,0:0:0:0:
451,4,64772,6,0,L|274:32,1,160,4|0,0:2|0:0,0:0:0:0:
209,91,65783,1,0,0:0:0:0:
111,55,66120,2,0,L|122:-12,1,40
25,62,66457,6,0,L|38:154,2,80
2,224,67469,6,0,P|40:165|140:181,1,160
198,240,68480,1,0,0:0:0:0:
198,240,68648,1,0,0:0:0:0:
198,240,68817,2,0,L|185:310,1,40
227,343,69154,54,0,P|190:330|137:364,2,80
425,358,70165,6,0,B|453:333|453:333|415:230,1,120
382,191,70840,2,0,L|393:137,1,40
355,88,71177,1,0,0:0:0:0:
418,50,71345,1,0,0:0:0:0:
326,10,71514,1,0,0:0:0:0:
484,123,71851,6,0,L|493:202,2,80
326,10,72862,54,0,P|256:88|140:45,1,240.000009155274,0|0,0:0|3:0,0:0:0:0:
66,154,74547,5,0,3:0:0:0:
71,139,74632,1,0,3:0:0:0:
74,126,74716,1,0,3:0:0:0:
18,76,74884,1,0,3:0:0:0:
0,285,75222,5,0,3:0:0:0:
180,209,75390,1,0,0:0:0:0:
235,357,75559,6,0,P|104:329|127:239,1,240,0|0,3:0|0:0,0:0:0:0:
180,209,76233,2,0,L|355:254,1,160,8|0,0:2|0:0,0:0:0:0:
364,229,76654,1,0,0:0:0:0:
364,229,76738,1,0,0:0:0:0:
328,83,76907,6,0,B|299:102|299:102|319:175,1,80
414,25,77244,2,0,B|443:44|443:44|423:117,1,80,0|0,3:0|0:0,0:0:0:0:
255,23,77581,6,0,P|206:20|177:126,1,160,8|0,0:2|0:0,0:0:0:0:
122,368,78255,54,0,L|0:333,1,128,2|0,3:3|0:0,0:0:0:0:
110,162,78592,6,0,L|3:194,1,111.999996582031,2|0,3:3|0:0,0:0:0:0:
266,325,78929,6,0,L|172:302,1,95.9999970703126,2|0,3:3|0:0,0:0:0:0:
250,201,79266,54,0,L|173:221,1,80,2|0,3:3|0:0,0:0:0:0:
396,295,79604,6,0,L|333:279,1,64,2|0,3:3|0:0,0:0:0:0:
405,183,79941,6,0,L|358:194,1,47.9999985351563,2|0,3:3|0:0,0:0:0:0:
505,261,80278,54,0,L|473:256,1,32,2|0,3:3|0:0,0:0:0:0:
511,179,80615,6,0,L|495:181,1,16,2|0,3:3|0:0,0:0:0:0:
190,117,81626,54,0,B|159:92|162:58|182:35|216:12|259:19|291:66|275:121|275:121|237:241,1,322.000006141663,8|0,0:2|2:0,0:0:0:0:
279,280,82300,6,0,P|172:251|156:268,1,120,0|0,3:0|2:0,0:0:0:0:
157,319,82637,2,0,P|264:348|280:331,1,120,0|0,3:0|2:0,0:0:0:0:
341,334,82974,6,0,B|394:288|394:288|471:339|471:339|415:383|415:383|331:327,1,322.000006141663,8|0,0:2|2:0,0:0:0:0:
83,234,83648,6,0,B|47:225|8:261|8:261|37:192|91:179|91:179|125:253|206:247,1,320,0|8,3:0|0:2,0:0:0:0:
363,118,85334,70,0,P|377:62|328:41,1,120,0|0,0:0|2:0,0:0:0:0:
271,113,85671,6,0,B|305:188|305:188|387:146|387:146|479:189,1,240,8|0,0:2|2:0,0:0:0:0:
446,173,86345,6,0,L|423:41,1,120.000004577637
47,327,88031,6,0,L|57:269,1,45.0000017166138,2|0,0:2|2:0,0:0:0:0:
70,210,88368,2,0,L|75:182,3,15.0000005722046,2|0|0|0,0:2|0:0|0:0|0:0,0:0:0:0:
90,123,88705,2,0,L|100:65,1,45.0000017166138,0|0,0:0|2:0,0:0:0:0:
51,11,89042,6,0,B|86:51|86:51|176:15|176:15|161:57|161:57,2,180.000006866455,2|2|2,0:2|0:2|0:2,0:0:0:0:
219,181,91738,54,0,P|256:157|339:169,1,120.000004577637,2|0,0:2|0:0,0:0:0:0:
339,242,93424,6,0,P|302:266|219:254,1,120.000004577637,2|0,0:2|0:0,0:0:0:0:
35,114,94435,6,0,P|110:129|136:229,1,180.000006866455,2|0,0:2|2:0,0:0:0:0:
96,285,95783,53,0,3:0:0:0:
52,217,95952,1,0,3:0:0:0:
186,339,96120,5,0,3:0:0:0:
232,179,96289,1,0,3:0:0:0:
341,304,96457,5,0,3:0:0:0:
334,274,96542,1,0,3:0:0:0:
327,248,96626,1,0,3:0:0:0:
448,384,96795,53,0,3:0:0:0:
448,384,96963,1,0,3:0:0:0:
509,202,97132,38,0,B|392:235|342:142|342:142|421:162|465:88,1,270.000010299683,2|0,3:3|2:0,0:0:0:0:
457,6,97469,6,0,P|411:3|377:66,1,120,0|0,0:0|2:0,0:0:0:0:
493,117,97806,6,0,L|484:75,1,30.0000011444092,8|0,0:1|0:0,0:0:0:0:
280,28,98143,53,2,3:3:0:0:
280,28,98227,1,0,0:0:0:0:
280,28,98311,2,0,L|283:46,1,15.0000005722046,0|0,0:0|2:0,0:0:0:0:
228,99,98480,2,0,P|169:95|146:24,1,120,0|0,0:0|2:0,0:0:0:0:
4,80,98817,6,0,B|26:60|31:16|31:16|50:166|50:166|58:120|79:94,1,270.000010299683,2|0,3:3|2:0,0:0:0:0:
171,194,99154,6,0,P|161:217|170:190,1,120,8|0,0:1|2:0,0:0:0:0:
268,178,99491,54,0,L|259:222,1,45.0000017166138,0|0,0:0|2:0,0:0:0:0:
230,315,99828,6,0,B|201:277|201:277|359:252|359:252|418:259|431:327|372:380|325:326,1,360.000013732911,2|0,3:3|0:0,0:0:0:0:
259,223,100334,5,0,0:0:0:0:
416,136,100502,54,0,P|430:76|369:52,1,120,8|0,0:1|2:0,0:0:0:0:
328,100,100840,6,0,L|340:152,1,45.0000017166138,2|0,3:3|2:0,0:0:0:0:
268,178,101177,6,0,P|214:150|225:69,1,120,0|0,0:0|2:0,0:0:0:0:
276,29,101514,54,0,B|247:64|247:64|79:22|79:22|129:104,1,270.000010299683,2|0,3:3|2:0,0:0:0:0:
31,171,101851,6,0,L|41:121,1,45.0000017166138,8|0,0:1|0:0,0:0:0:0:
148,214,102188,6,0,P|84:239|74:308,1,120,0|0,0:0|2:0,0:0:0:0:
113,351,102525,54,0,B|184:392|251:318|204:279|271:200|394:278,1,270.000010299683,2|0,3:3|2:0,0:0:0:0:
462,368,102862,6,0,P|389:344|393:318,1,120,0|0,0:0|2:0,0:0:0:0:
463,248,103199,6,0,L|472:288,1,30.0000011444092,8|0,0:1|0:0,0:0:0:0:
505,158,103536,53,2,3:3:0:0:
491,169,103620,1,0,0:0:0:0:
471,156,103705,1,0,0:0:0:0:
376,79,103873,6,0,P|418:73|377:85,1,120,0|0,0:0|2:0,0:0:0:0:
117,129,104210,6,0,B|105:175|105:175|185:198|239:134|239:134|337:159,1,270.000010299683,2|0,3:3|2:0,0:0:0:0:
250,45,104547,54,0,L|237:4,1,30.0000011444092,8|0,0:1|2:0,0:0:0:0:
170,39,104884,2,0,L|179:67,1,30.0000011444092,0|0,0:0|2:0,0:0:0:0:
297,329,105222,6,0,B|322:360|356:357|379:337|402:303|395:260|348:228|293:244|293:244|156:289,1,360.000013732911,2|0,3:3|0:0,0:0:0:0:
10,196,105727,1,0,2:0:0:0:
107,384,105896,2,0,P|110:323|66:283,1,120,8|0,0:1|2:0,0:0:0:0:
2,365,106233,6,0,L|36:354,1,30.0000011444092,2|0,3:3|0:0,0:0:0:0:
69,202,106907,6,0,L|-2:194,2,60.0000022888184
185,140,107918,38,0,P|138:107|156:40,1,120,2|0,3:3|2:0,0:0:0:0:
217,17,108255,2,0,L|307:36,1,80
426,172,108592,2,0,L|412:114,3,40,8|0|0|0,0:1|0:0|2:0|0:0,0:0:0:0:
381,236,108929,6,0,P|317:249|285:185,1,120,2|0,3:3|2:0,0:0:0:0:
270,134,109266,2,0,P|327:142|344:175,1,80,0|0,0:0|2:0,0:0:0:0:
227,335,109604,6,0,P|217:275|208:215,1,120,2|0,3:3|2:0,0:0:0:0:
149,164,109941,2,0,P|107:148|79:223,1,120,8|0,0:1|2:0,0:0:0:0:
31,280,110278,2,0,P|100:285|117:252,1,80,0|0,0:0|2:0,0:0:0:0:
344,325,110615,54,0,B|206:300|206:300|226:321|233:361,1,180.000006866455,2|0,3:3|2:0,0:0:0:0:
419,371,110952,6,0,B|445:313|445:313|386:242,1,120.000004577637
285,211,111289,6,0,L|271:153,3,40,8|0|0|0,0:1|0:0|2:0|0:0,0:0:0:0:
359,144,111626,2,0,P|297:135|270:63,1,120,2|0,3:3|2:0,0:0:0:0:
318,29,111963,1,0,0:0:0:0:
318,29,112132,1,0,2:0:0:0:
163,132,112300,6,0,P|179:68|194:2,1,120,2|0,3:3|2:0,0:0:0:0:
54,101,112637,2,0,P|62:133|72:176,1,40,8|0,0:1|2:0,0:0:0:0:
85,211,112806,2,0,P|93:243|103:286,1,40,2|0,3:3|2:0,0:0:0:0:
118,340,112974,6,0,B|126:308|157:293|157:293|55:253|-1:349,1,210.000002002716,0|0,0:0|2:0,0:0:0:0:
208,366,113311,22,0,B|260:392|301:352|280:324|324:284|383:325,1,180.000006866455,2|0,3:3|2:0,0:0:0:0:
455,338,113648,2,0,P|406:307|408:250,1,120.000004577637
512,77,113986,6,0,L|501:136,3,60.0000022888184,8|0|0|0,0:1|0:0|0:0|0:0,0:0:0:0:
450,19,114323,6,0,B|398:-7|357:33|378:61|334:101|275:60,1,180.000006866455,2|0,3:3|2:0,0:0:0:0:
238,18,114660,2,0,B|199:42|147:46|147:46|204:70|215:93,1,180.000006866455,0|0,0:0|2:0,0:0:0:0:
264,183,114997,54,0,B|273:165|296:146|296:146|207:100|143:167|143:167|191:188|210:245,1,270.000010299683,2|0,3:3|2:0,0:0:0:0:
283,332,115334,6,0,P|300:278|280:246,1,80,8|0,0:1|2:0,0:0:0:0:
157,275,115671,2,0,P|147:313|165:348,1,80,0|0,0:0|2:0,0:0:0:0:
426,183,116008,6,0,B|394:215|394:215|249:179,1,180.000006866455,2|0,3:3|2:0,0:0:0:0:
487,122,116345,54,0,L|499:22,1,80
426,183,116682,2,0,L|435:262,1,80,8|0,0:1|0:0,0:0:0:0:
345,90,117019,6,0,P|277:52|212:97,1,160
206,108,117693,6,0,B|252:180|252:180|192:275,1,160,2|0,3:3|0:0,0:0:0:0:
162,308,118368,5,0,0:0:0:0:
256,192,118705,12,0,121570,0:0:0:0:
