osu file format v14

[General]
AudioFilename: audio.mp3
AudioLeadIn: 0
PreviewTime: 113746
Countdown: 0
SampleSet: Drum
StackLeniency: 0.8
Mode: 0
LetterboxInBreaks: 0
WidescreenStoryboard: 1

[Editor]
Bookmarks: 28480
DistanceSpacing: 1.1
BeatDivisor: 4
GridSize: 8
TimelineZoom: 1

[Metadata]
Title:Ubey menya
TitleUnicode:Убей меня
Artist:Midix feat. Lirin & Chuyko
ArtistUnicode:Midix feat. Lirin & Chuyko
Creator:Qqrisen
Version:Crafter_YTKA's Hard
Source:
Tags:Midix russian ubey menya Midix feat. Lirin & Chuyko Убей меня мидикс Убей_меня
BeatmapID:3248175
BeatmapSetID:1509371

[Difficulty]
HPDrainRate:5
CircleSize:3.5
OverallDifficulty:6
ApproachRate:9.3
SliderMultiplier:1.9
SliderTickRate:2

[Events]
//Background and Video events
0,0,"TBxhCTOJoiU.jpg",0,0
//Break Periods
//Storyboard Layer 0 (Background)
//Storyboard Layer 1 (Fail)
//Storyboard Layer 2 (Pass)
//Storyboard Layer 3 (Foreground)
//Storyboard Layer 4 (Overlay)
//Storyboard Sound Samples

[TimingPoints]
14256,444.444444444443,4,3,0,100,1,0
14256,-200,4,3,0,100,0,0
21367,-133.333333333333,4,3,0,100,0,0
24922,-100,4,3,0,100,0,0
28535,-90.9090909090909,4,3,0,100,0,1
42479,-100,4,3,0,100,0,0
49813,-133.333333333333,4,3,0,100,0,0
50479,-100,4,3,0,100,0,0
56479,-76.9230769230769,4,3,0,100,0,0
56702,-100,4,3,0,100,0,0
62257,-66.6666666666667,4,3,0,100,0,0
62479,-100,4,3,0,100,0,0
67146,-66.6666666666667,4,3,0,100,0,0
67368,-100,4,3,0,100,0,0
71144,-66.6666666666667,4,3,0,100,0,0
73367,-200,4,3,0,100,0,0
74700,-100,4,3,0,100,0,0
84922,-1000,4,3,0,100,0,0
85367,-133.333333333333,4,3,0,30,0,0
92479,-100,4,3,0,100,0,1
92591,-100,4,3,0,100,0,0
99591,-100,4,3,0,100,0,0
113813,-90.9090909090909,4,3,0,100,0,1
142257,-90.9090909090909,4,3,0,100,0,1
156479,-90.9090909090909,4,3,0,100,0,0

[Colours]
Combo1 : 204,0,0
Combo2 : 66,0,0

[HitObjects]
112,288,14256,6,0,P|160:248|192:240,1,95
280,216,15144,1,0,0:0:0:0:
216,152,15589,1,0,0:0:0:0:
280,80,16033,2,0,P|240:56|192:48,2,95
208,136,17367,1,0,0:0:0:0:
112,104,17811,2,0,P|64:120|32:160,1,95
40,248,18700,1,0,0:0:0:0:
112,192,19144,2,0,P|136:184|216:240,2,95
40,248,20478,5,0,0:0:0:0:
112,312,20922,1,0,0:0:0:0:
128,224,21367,2,0,P|184:152|232:136,1,142.500005435944
384,120,22255,1,0,0:0:0:0:
384,120,22700,2,0,P|456:88|496:8,2,142.500005435944
248,152,24033,1,0,0:0:0:0:
352,248,24478,1,0,0:0:0:0:
192,344,24922,2,0,P|280:328|384:336,1,190
504,368,25811,5,0,0:0:0:0:
424,192,26255,2,0,P|344:240|272:160,2,190
504,24,27589,1,0,0:0:0:0:
336,104,28033,1,0,0:0:0:0:
490,197,28478,2,0,B|466:213|466:213|426:205|426:205|370:245,1,95
316,275,28922,1,0,0:0:0:0:
215,219,29144,1,0,0:0:0:0:
178,311,29367,2,0,P|114:231|186:111,1,209.000006378174
218,71,30033,5,0,0:0:0:0:
314,47,30255,2,0,P|370:63|402:127,1,104.500003189087
434,199,30700,2,0,P|434:247|378:287,1,104.500003189087,0|0,0:3|0:0,0:3:0:0:
290,319,31144,1,0,0:0:0:0:
178,303,31589,5,0,0:0:0:0:
402,175,32033,1,0,0:0:0:0:
146,143,32478,1,0,0:0:0:0:
314,319,32922,1,0,0:0:0:0:
274,47,33367,1,0,0:0:0:0:
178,303,33589,1,0,0:0:0:0:
256,192,33811,12,0,34255,0:0:0:0:
256,192,34700,5,0,0:0:0:0:
262,193,35144,1,0,0:0:0:0:
271,194,35589,2,0,B|335:213|335:213|442:109,1,209.000006378174
495,44,36478,1,0,0:0:0:0:
291,88,36922,1,0,0:0:0:0:
218,13,37144,1,0,0:0:0:0:
148,91,37367,6,0,P|103:97|55:142,1,104.500003189087
37,236,37811,1,0,0:0:0:0:
234,169,38255,1,0,0:0:0:0:
110,337,38700,1,0,0:0:0:0:
110,337,39144,2,0,P|170:323|323:252,1,209.000006378174
483,156,40033,1,0,0:0:0:0:
275,127,40478,1,0,0:0:0:0:
330,38,40700,1,0,0:0:0:0:
226,49,40922,2,0,P|160:43|112:93,1,104.500003189087
59,139,41367,6,0,P|124:155|216:266,1,209.000006378174
233,360,42255,1,0,0:0:0:0:
406,282,42700,2,0,L|306:306,1,95
234,270,43144,2,0,L|134:294,1,95
35,235,43589,2,0,L|135:211,1,95
216,192,44033,2,0,L|320:216,1,95
400,240,44478,1,0,0:0:0:0:
304,216,44700,1,0,0:0:0:0:
304,216,44922,2,0,L|200:240,1,95
120,264,45367,5,0,0:0:0:0:
24,176,45589,1,0,0:0:0:0:
32,312,45811,2,0,P|96:352|144:344,1,95
248,352,46255,1,0,0:0:0:0:
368,288,46478,1,0,0:0:0:0:
480,224,46700,2,0,P|416:184|368:192,1,95
272,216,47144,1,0,0:0:0:0:
400,264,47367,1,0,0:0:0:0:
280,304,47589,6,0,P|340:349|388:345,1,95
488,312,48033,1,0,0:0:0:0:
440,184,48255,1,0,0:0:0:0:
352,272,48478,2,0,P|291:226|240:240,1,95
144,248,48922,1,0,0:0:0:0:
16,208,49144,1,0,0:0:0:0:
8,344,49367,1,0,0:0:0:0:
192,216,49811,2,0,P|200:136|368:280,1,475
296,360,51144,5,0,0:0:0:0:
432,368,51367,1,0,0:0:0:0:
368,256,51589,2,0,P|320:216|328:176,1,95
321,188,52033,2,0,P|297:140|241:140,1,95
259,132,52478,2,0,P|211:124|179:68,1,95
152,0,52922,1,0,0:0:0:0:
8,16,53367,6,0,P|46:96|32:136,1,95
46,97,53811,2,0,P|13:179|32:217,1,95
13,180,54255,2,0,P|83:235|85:278,1,95
83,235,54700,2,0,P|118:317|159:330,1,95
248,376,55144,1,0,0:0:0:0:
296,248,55367,1,0,0:0:0:0:
176,312,55589,1,0,0:0:0:0:
304,336,55811,1,0,0:0:0:0:
216,240,56033,1,0,0:0:0:0:
96,368,56478,6,0,P|80:312|48:264,1,95
8,216,56922,2,0,B|-16:168|-16:168|-32:120|64:48|302:222|320:232|320:232|352:176|408:176|448:232,1,570
504,264,58478,1,0,0:0:0:0:
376,240,58700,2,0,B|328:304|264:160|480:120|480:120|400:104|400:104|368:80,1,380
299,85,60033,2,0,P|344:16|441:35,2,190
248,194,61367,5,0,0:0:0:0:
118,165,61811,1,0,0:0:0:0:
185,50,62033,1,0,0:0:0:0:
53,66,62255,2,0,P|22:118|63:251,1,190
294,310,63144,1,0,0:0:0:0:
379,207,63367,1,0,0:0:0:0:
246,202,63589,1,0,0:0:0:0:
347,116,63811,1,0,0:0:0:0:
347,116,64033,2,0,B|292:116|258:79|258:79|200:96|175:117|174:134|174:134|164:211|164:211|146:241|114:244|114:244|53:299|30:290|43:118,1,570
52,4,65589,5,0,0:0:0:0:
52,4,65811,2,0,B|107:4|141:-33|141:-33|199:-16|195:22|195:22|236:-2|275:3|275:3|294:4|325:62|386:32,1,380
454,0,67144,1,0,0:0:0:0:
494,263,67589,2,0,P|454:222|399:235,1,95
310,299,68033,6,0,B|305:287|283:281|283:281|252:277|252:277|231:269|214:256,1,95
110,195,68478,1,0,0:0:0:0:
16,101,68700,1,0,0:0:0:0:
131,35,68922,1,0,0:0:0:0:
225,129,69144,1,0,0:0:0:0:
289,12,69367,2,0,B|297:26|316:30|316:30|346:30|346:30|371:38|382:57,1,95
479,140,69811,1,0,0:0:0:0:
461,281,70033,1,0,0:0:0:0:
352,192,70255,2,0,P|304:144|256:120,1,95
144,80,70700,5,0,0:0:0:0:
144,80,71144,2,0,P|120:136|208:200,1,142.500005435944
368,248,71589,1,0,0:0:0:0:
336,112,71811,1,0,0:0:0:0:
448,216,72033,2,0,P|432:312|392:336,1,142.500005435944
256,360,72478,1,0,0:0:0:0:
184,240,72700,1,0,0:0:0:0:
328,232,72922,2,0,P|288:144|208:112,1,142.500005435944
112,96,73367,6,0,P|40:104|40:120,2,95
72,384,74700,2,0,P|120:336|144:280,1,95
168,224,75144,1,0,0:0:0:0:
248,264,75367,1,0,0:0:0:0:
248,264,75589,2,0,P|320:256|352:208,1,95
384,160,76033,1,0,0:0:0:0:
464,112,76255,1,0,0:0:0:0:
384,64,76478,2,0,P|315:87|266:57,1,95
208,40,76922,2,0,P|136:59|112:92,1,95
88,160,77367,5,0,0:0:0:0:
8,280,77589,1,0,0:0:0:0:
152,256,77811,2,0,P|208:208|272:192,1,95
352,136,78255,1,0,0:0:0:0:
392,272,78478,1,0,0:0:0:0:
392,272,78700,2,0,L|296:312,1,95
168,352,79144,5,0,0:0:0:0:
272,256,79367,1,0,0:0:0:0:
128,248,79589,1,0,0:0:0:0:
232,344,79811,1,0,0:0:0:0:
200,208,80033,1,0,0:0:0:0:
144,336,80255,1,0,0:0:0:0:
272,256,80478,6,0,L|376:232,1,95
504,192,80922,1,0,0:0:0:0:
376,128,81144,1,0,0:0:0:0:
472,24,81367,1,0,0:0:0:0:
328,40,81589,1,0,0:0:0:0:
216,112,81811,2,0,P|128:104|88:128,1,95
64,232,82255,1,0,0:0:0:0:
168,328,82478,1,0,0:0:0:0:
184,184,82700,1,0,0:0:0:0:
104,296,82922,1,0,0:0:0:0:
240,240,83144,2,0,L|424:352,2,190
56,272,84922,2,0,L|64:264,1,9.5
72,256,85367,6,0,B|40:200|80:176|80:176|104:168|128:192|152:224|184:168,1,213.750008153916
352,160,86255,2,0,B|400:120|336:72|336:72|440:56,1,213.750008153916
454,138,87144,2,0,B|438:226|406:258|406:258|422:290|422:290|414:346|344:300|344:300|318:282|303:219|270:178|222:234|214:266|214:266|198:282|161:255,1,498.750019025803
112,216,88922,2,0,B|64:208|32:96|32:96|104:48|176:40,1,285.000010871888
368,48,90255,2,0,P|424:40|448:112,1,142.500005435944
392,240,91144,2,0,B|368:273|368:273|342:289|342:289|319:264|276:279|281:310|281:310|276:279|237:207|164:353|99:258,1,356.25001358986
25,208,92478,2,0,P|70:166|156:143,1,142.500005435944
334,169,93367,2,0,B|310:109|258:96|252:43|252:43|305:30|305:30|354:89|419:-31|444:131,1,380
451,327,94700,5,0,0:0:0:0:
238,246,95144,1,0,0:0:0:0:
448,157,95589,1,0,0:0:0:0:
448,157,96033,2,0,B|500:133|388:298|309:35|226:199,1,285
192,283,96922,1,0,0:0:0:0:
192,283,97367,2,0,B|83:266|90:198|90:198|78:186|55:152|55:152|73:111|108:69|223:64,1,380
424,55,98700,1,0,0:0:0:0:
347,269,99144,1,0,0:0:0:0:
178,115,99589,2,0,P|270:109|370:125,1,190
480,169,100478,5,0,0:0:0:0:
425,350,100922,1,0,0:0:0:0:
355,180,101367,2,0,B|403:148|251:205|189:104,1,190
144,56,102255,1,0,0:0:0:0:
64,80,102700,2,0,B|6:88|112:154|87:257,2,190
256,48,104033,1,0,0:0:0:0:
344,192,104478,1,0,0:0:0:0:
256,312,104922,2,0,P|200:344|72:272,1,190
24,128,105811,5,0,0:0:0:0:
168,248,106255,1,0,0:0:0:0:
168,56,106700,2,0,L|280:72,1,95
256,168,107144,2,0,L|368:176,1,95
464,192,107589,2,0,B|400:256|400:256|288:264,1,190
128,336,108478,2,0,P|72:304|24:184,1,190
24,48,109367,2,0,B|72:88|72:88|224:40,1,190
384,16,110255,2,0,L|484:27,1,95
496,120,110700,2,0,L|395:131,1,95
325,233,111144,6,0,L|411:286,1,95
488,336,111589,2,0,P|440:360|304:312,2,190
408,168,112922,1,0,0:0:0:0:
408,16,113367,1,0,0:0:0:0:
256,128,113811,2,0,P|176:144|160:136,1,95
80,88,114255,1,0,0:0:0:0:
168,32,114478,1,0,0:0:0:0:
168,136,114700,2,0,P|184:216|224:232,1,104.500003189087
296,256,115144,5,0,0:0:0:0:
208,320,115367,1,0,0:0:0:0:
200,216,115589,2,0,P|264:176|304:176,1,104.500003189087
384,216,116033,1,0,0:0:0:0:
304,280,116255,1,0,0:0:0:0:
296,176,116478,2,0,P|304:104|352:40,1,104.500003189087
400,8,116922,2,0,P|420:77|478:132,1,104.500003189087
486,180,117367,1,0,0:0:0:0:
384,216,117589,1,0,0:0:0:0:
384,216,117811,6,0,P|416:296|448:296,1,104.500003189087
512,304,118255,1,0,0:0:0:0:
432,376,118478,1,0,0:0:0:0:
432,376,118700,2,0,P|368:360|336:336,1,104.500003189087
264,264,119144,1,0,0:0:0:0:
200,352,119367,1,0,0:0:0:0:
152,256,119589,2,0,B|144:224|144:224|152:192|152:192|136:128,1,104.500003189087
120,64,120033,1,0,0:0:0:0:
24,248,120478,1,0,0:0:0:0:
152,256,120922,6,0,P|216:200|240:200,1,104.500003189087
336,216,121367,1,0,0:0:0:0:
296,104,121589,1,0,0:0:0:0:
400,152,121811,2,0,P|440:208|440:248,1,104.500003189087
400,352,122255,1,0,0:0:0:0:
336,256,122478,1,0,0:0:0:0:
441,241,122700,2,0,P|475:181|472:141,1,104.500003189087
424,48,123144,5,0,0:0:0:0:
320,72,123367,1,0,0:0:0:0:
296,176,123589,1,0,0:0:0:0:
400,256,123811,1,0,0:0:0:0:
400,256,124033,2,0,L|424:32,1,209.000006378174
480,184,124700,1,0,0:0:0:0:
336,152,124922,1,0,0:0:0:0:
248,264,125144,1,0,0:0:0:0:
248,264,125367,2,0,P|264:320|160:288,1,209.000006378174
157,312,126033,6,0,P|104:272|120:200,1,104.500003189087
104,216,126700,2,0,B|128:152|224:224|96:112|288:104,1,209.000006378174
480,88,127589,1,0,0:0:0:0:
448,296,128033,1,0,0:0:0:0:
352,256,128255,1,0,0:0:0:0:
376,344,128478,6,0,P|296:328|272:296,1,104.500003189087
200,248,128922,1,0,0:0:0:0:
176,352,129144,1,0,0:0:0:0:
280,312,129367,2,0,P|272:248|295:209,1,104.500003189087
392,128,129811,5,0,0:0:0:0:
287,105,130034,1,0,0:0:0:0:
221,189,130256,1,0,0:0:0:0:
282,306,130478,1,0,0:0:0:0:
282,306,130700,2,0,L|398:113,1,209.000006378174
385,274,131367,1,0,0:0:0:0:
268,185,131589,1,0,0:0:0:0:
400,128,131811,1,0,0:0:0:0:
400,128,132033,2,0,P|344:72|272:56,1,104.500003189087
216,48,132478,5,0,0:0:0:0:
256,144,132700,1,0,0:0:0:0:
328,64,132922,2,0,P|392:32|440:40,1,104.500003189087
504,80,133367,1,0,0:0:0:0:
408,120,133589,1,0,0:0:0:0:
488,192,133811,2,0,P|432:240|392:240,1,104.500003189087
304,216,134255,2,0,P|232:224|192:248,1,104.500003189087
128,312,134700,2,0,P|57:274|32:144,2,209.000006378174
336,288,136033,2,0,B|288:208|504:280|464:136,1,209.000006378174
480,64,136700,5,0,0:0:0:0:
392,120,136922,2,0,P|320:128|288:104,1,104.500003189087
193,58,137367,1,0,0:0:0:0:
15,36,137811,1,0,0:0:0:0:
173,286,138255,2,0,B|176:362|60:373|32:248,2,209.000006378174
152,56,139589,1,0,0:0:0:0:
287,241,140033,1,0,0:0:0:0:
260,129,140255,1,0,0:0:0:0:
317,12,140478,2,0,P|403:58|419:171,1,209.000006378174
320,365,141367,5,0,0:0:0:0:
504,228,141811,1,0,0:0:0:0:
275,253,142255,2,0,L|129:229,1,104.500003189087
227,140,142700,2,0,P|175:117|85:100,1,104.500003189087
36,40,143144,2,0,P|119:28|239:58,1,209.000006378174
330,128,143811,1,0,0:0:0:0:
396,221,144033,2,0,P|312:251|291:265,1,104.500003189087
253,364,144478,2,0,P|171:326|152:311,1,104.500003189087
86,229,144922,1,0,0:0:0:0:
200,228,145144,1,0,0:0:0:0:
136,178,145367,6,0,P|93:107|30:102,1,104.500003189087
58,178,145811,2,0,B|195:52|330:348|422:123,1,418.000012756348
438,50,146922,1,0,0:0:0:0:
329,127,147144,2,0,P|354:193|396:257,1,104.500003189087
412,329,147589,2,0,B|275:203|140:499|48:274,1,418.000012756348
19,195,148700,5,0,0:0:0:0:
124,240,148922,2,0,L|210:164,1,104.500003189087
286,93,149367,1,0,0:0:0:0:
178,52,149589,1,0,0:0:0:0:
284,10,149811,2,0,P|362:23|407:59,1,104.500003189087
442,133,150255,1,0,0:0:0:0:
332,168,150478,1,0,0:0:0:0:
378,272,150700,2,0,L|484:238,2,104.500003189087
156,333,151589,5,0,0:0:0:0:
93,111,152033,1,0,0:0:0:0:
179,187,152255,1,0,0:0:0:0:
189,72,152478,2,0,P|239:37|285:46,1,104.500003189087
377,101,152922,2,0,P|337:178|211:265,1,209.000006378174
23,322,153811,1,0,0:0:0:0:
135,346,154033,1,0,0:0:0:0:
91,239,154255,2,0,P|118:189|173:150,1,104.500003189087
263,120,154700,2,0,B|298:75|298:75|314:49|381:88|394:160|377:217,1,209.000006378174
364,285,155367,5,0,0:0:0:0:
472,247,155589,1,0,0:0:0:0:
431,354,155811,1,0,0:0:0:0:
316,354,156033,2,0,P|224:335|203:304,1,104.500003189087
147,235,156478,6,0,B|126:171|82:164|63:171|63:173|37:114|105:62,1,209.000006378174
