osu file format v14

[General]
AudioFilename: audio.mp3
AudioLeadIn: 0
PreviewTime: -1
Countdown: 0
SampleSet: None
StackLeniency: 0.7
Mode: 1
LetterboxInBreaks: 0
WidescreenStoryboard: 1

[Editor]
DistanceSpacing: 1.5
BeatDivisor: 4
GridSize: 32
TimelineZoom: 1.8

[Metadata]
Title:Dark Star Dance
TitleUnicode:Dark Star Dance
Artist:MidiGuyDP
ArtistUnicode:MidiGuyDP
Creator:[Zapper]
Version:Muzukashii
Source:
Tags:mario luigi bowser rpg mario&luigi story final boss
BeatmapID:968489
BeatmapSetID:442667

[Difficulty]
HPDrainRate:6
CircleSize:5
OverallDifficulty:6
ApproachRate:7
SliderMultiplier:1.2
SliderTickRate:1

[Events]
//Background and Video events
0,0,"Black hole.jpg",0,0
//Break Periods
//Storyboard Layer 0 (Background)
//Storyboard Layer 1 (Fail)
//Storyboard Layer 2 (Pass)
//Storyboard Layer 3 (Foreground)
//Storyboard Sound Samples

[TimingPoints]
6.47934487996927,363.636363636364,4,1,0,100,1,0
13097,-86.9565217391304,4,1,0,100,0,0
40733,-83.3333333333333,4,1,0,100,0,0
41461,-76.9230769230769,4,1,0,100,0,0
42188,-68.9655172413793,4,1,0,100,0,1
53824,-86.9565217391304,4,1,0,100,0,0
65461,-71.4285714285714,4,1,0,100,0,1
77097,-105.263157894737,4,1,0,100,0,0
88733,-100,4,1,0,100,0,0
106188,-90.9090909090909,4,1,0,100,0,0
107642,-86.9565217391304,4,1,0,100,0,0
109097,-83.3333333333333,4,1,0,100,0,0
110551,-80,4,1,0,100,0,0
112006,-76.9230769230769,4,1,0,100,0,0

[HitObjects]
32,32,6,5,4,0:0:0:0:
32,32,733,1,2,0:0:0:0:
32,32,1461,1,0,0:0:0:0:
32,32,2188,1,2,0:0:0:0:
32,32,2915,1,0,0:0:0:0:
32,32,3642,1,2,0:0:0:0:
32,32,4370,1,0,0:0:0:0:
32,32,5097,1,2,0:0:0:0:
32,32,5824,1,0,0:0:0:0:
32,32,6188,1,0,0:0:0:0:
32,32,6551,1,2,0:0:0:0:
32,32,6915,1,0,0:0:0:0:
32,32,7279,1,0,0:0:0:0:
32,32,7642,1,0,0:0:0:0:
32,32,8006,1,2,0:0:0:0:
32,32,8370,1,2,0:0:0:0:
32,32,8733,1,0,0:0:0:0:
32,32,9097,1,0,0:0:0:0:
32,32,9461,1,2,0:0:0:0:
32,32,9824,1,0,0:0:0:0:
32,32,10188,1,0,0:0:0:0:
32,32,10551,1,0,0:0:0:0:
32,32,10915,1,2,0:0:0:0:
32,32,11279,1,2,0:0:0:0:
32,32,11642,1,4,0:0:0:0:
32,32,12370,1,2,0:0:0:0:
32,32,12642,1,2,0:0:0:0:
32,32,12915,1,0,0:0:0:0:
32,32,13097,1,4,0:0:0:0:
32,32,13461,1,0,0:0:0:0:
32,32,13824,1,0,0:0:0:0:
32,32,14188,1,2,0:0:0:0:
32,32,14551,1,2,0:0:0:0:
32,32,14915,1,0,0:0:0:0:
32,32,15279,1,2,0:0:0:0:
32,32,15642,1,0,0:0:0:0:
32,32,16006,1,2,0:0:0:0:
32,32,16370,1,0,0:0:0:0:
32,32,16733,1,0,0:0:0:0:
32,32,17097,1,2,0:0:0:0:
32,32,17461,1,2,0:0:0:0:
32,32,17824,1,0,0:0:0:0:
32,32,18188,1,2,0:0:0:0:
32,32,18551,1,2,0:0:0:0:
32,32,18915,1,2,0:0:0:0:
32,32,19097,1,0,0:0:0:0:
32,32,19279,1,0,0:0:0:0:
32,32,19642,1,0,0:0:0:0:
32,32,19824,1,0,0:0:0:0:
32,32,20006,1,2,0:0:0:0:
32,32,20370,1,2,0:0:0:0:
32,32,20551,1,0,0:0:0:0:
32,32,20733,1,0,0:0:0:0:
32,32,21097,1,0,0:0:0:0:
32,32,21279,1,0,0:0:0:0:
32,32,21461,1,2,0:0:0:0:
32,32,21824,1,2,0:0:0:0:
32,32,22006,1,0,0:0:0:0:
32,32,22188,1,0,0:0:0:0:
32,32,22551,1,0,0:0:0:0:
32,32,22733,1,0,0:0:0:0:
32,32,22915,1,0,0:0:0:0:
160,64,23279,1,2,0:0:0:0:
192,128,23461,1,0,0:0:0:0:
192,128,23824,1,0,0:0:0:0:
192,128,24006,1,2,0:0:0:0:
32,32,24370,1,2,0:0:0:0:
32,32,24551,1,2,0:0:0:0:
32,32,24733,1,4,0:0:0:0:
32,32,25097,1,0,0:0:0:0:
32,32,25279,1,0,0:0:0:0:
32,32,25461,1,2,0:0:0:0:
32,32,25642,1,0,0:0:0:0:
32,32,25824,1,0,0:0:0:0:
32,32,26006,1,2,0:0:0:0:
32,32,26188,1,0,0:0:0:0:
32,32,26551,1,2,0:0:0:0:
32,32,26915,1,0,0:0:0:0:
32,32,27279,1,2,0:0:0:0:
32,32,27461,1,2,0:0:0:0:
32,32,27642,1,0,0:0:0:0:
32,32,28006,1,0,0:0:0:0:
32,32,28188,1,0,0:0:0:0:
32,32,28370,1,2,0:0:0:0:
32,32,28551,1,0,0:0:0:0:
32,32,28733,1,2,0:0:0:0:
32,32,28915,1,2,0:0:0:0:
32,32,29097,1,2,0:0:0:0:
32,32,29461,1,0,0:0:0:0:
32,32,29642,1,0,0:0:0:0:
32,32,29824,1,2,0:0:0:0:
32,32,30006,1,0,0:0:0:0:
32,32,30188,1,0,0:0:0:0:
32,32,30551,1,4,0:0:0:0:
32,32,30915,1,2,0:0:0:0:
32,32,31279,1,0,0:0:0:0:
32,32,31461,1,0,0:0:0:0:
32,32,31642,1,2,0:0:0:0:
32,32,31824,1,0,0:0:0:0:
32,32,32006,1,2,0:0:0:0:
32,32,32370,1,0,0:0:0:0:
32,32,32551,1,0,0:0:0:0:
32,32,32733,1,2,0:0:0:0:
32,32,33097,1,0,0:0:0:0:
32,32,33279,1,0,0:0:0:0:
32,32,33461,1,2,0:0:0:0:
32,32,33824,1,0,0:0:0:0:
32,32,34006,1,0,0:0:0:0:
32,32,34188,1,2,0:0:0:0:
32,32,34370,1,0,0:0:0:0:
32,32,34551,1,0,0:0:0:0:
32,32,34733,1,0,0:0:0:0:
32,32,34915,1,2,0:0:0:0:
32,32,35279,1,0,0:0:0:0:
32,32,35642,1,2,0:0:0:0:
32,32,36006,1,2,0:0:0:0:
32,32,36370,1,2,0:0:0:0:
32,32,36491,1,0,0:0:0:0:
32,32,36612,1,0,0:0:0:0:
32,32,36733,1,2,0:0:0:0:
32,32,37097,1,0,0:0:0:0:
32,32,37279,1,0,0:0:0:0:
32,32,37461,1,2,0:0:0:0:
32,32,37824,1,0,0:0:0:0:
32,32,38188,1,2,0:0:0:0:
32,32,38370,1,0,0:0:0:0:
32,32,38733,1,0,0:0:0:0:
32,32,38915,1,2,0:0:0:0:
32,32,39279,1,2,0:0:0:0:
32,32,39461,1,0,0:0:0:0:
32,32,39642,1,2,0:0:0:0:
32,32,39824,1,0,0:0:0:0:
32,32,40006,1,0,0:0:0:0:
32,32,40370,1,0,0:0:0:0:
256,192,40733,12,0,41461,0:0:0:0:
32,32,41824,5,0,0:0:0:0:
32,32,42006,1,0,0:0:0:0:
32,32,42097,1,0,0:0:0:0:
32,32,42188,1,2,0:0:0:0:
32,32,42551,1,2,0:0:0:0:
32,32,42733,1,0,0:0:0:0:
32,32,42915,1,0,0:0:0:0:
32,32,43097,1,0,0:0:0:0:
32,32,43279,1,2,0:0:0:0:
32,32,43642,1,0,0:0:0:0:
32,32,43824,1,0,0:0:0:0:
32,32,44006,1,2,0:0:0:0:
32,32,44188,1,0,0:0:0:0:
32,32,44370,1,2,0:0:0:0:
32,32,44551,1,0,0:0:0:0:
32,32,44733,1,2,0:0:0:0:
32,32,45097,1,0,0:0:0:0:
32,32,45279,1,0,0:0:0:0:
32,32,45461,1,2,0:0:0:0:
32,32,45642,1,0,0:0:0:0:
32,32,45733,1,0,0:0:0:0:
32,32,45824,1,2,0:0:0:0:
32,32,46188,1,2,0:0:0:0:
32,32,46551,1,0,0:0:0:0:
32,32,46733,1,0,0:0:0:0:
32,32,46915,1,2,0:0:0:0:
32,32,47279,1,2,0:0:0:0:
32,32,47642,1,2,0:0:0:0:
32,32,48006,1,4,0:0:0:0:
32,32,48370,1,2,0:0:0:0:
32,32,48551,1,0,0:0:0:0:
32,32,48733,1,0,0:0:0:0:
32,32,49097,1,0,0:0:0:0:
32,32,49279,1,0,0:0:0:0:
32,32,49461,1,2,0:0:0:0:
32,32,49642,1,0,0:0:0:0:
32,32,49824,1,2,0:0:0:0:
32,32,50006,1,0,0:0:0:0:
32,32,50188,1,2,0:0:0:0:
32,32,50370,1,2,0:0:0:0:
32,32,50551,1,2,0:0:0:0:
32,32,50915,1,2,0:0:0:0:
32,32,51097,1,0,0:0:0:0:
32,32,51279,1,2,0:0:0:0:
32,32,51461,1,2,0:0:0:0:
32,32,51551,1,2,0:0:0:0:
32,32,51642,1,2,0:0:0:0:
32,32,52006,1,2,0:0:0:0:
32,32,52188,1,2,0:0:0:0:
32,32,52370,1,0,0:0:0:0:
32,32,52733,1,2,0:0:0:0:
32,32,52915,1,0,0:0:0:0:
32,32,53097,1,2,0:0:0:0:
32,32,53279,1,0,0:0:0:0:
32,32,53461,1,2,0:0:0:0:
32,32,53824,1,4,0:0:0:0:
32,32,54188,1,2,0:0:0:0:
192,128,54551,1,2,0:0:0:0:
192,192,54915,1,0,0:0:0:0:
192,192,55279,1,0,0:0:0:0:
160,192,55642,1,2,0:0:0:0:
160,192,56006,1,2,0:0:0:0:
128,224,56370,1,0,0:0:0:0:
128,224,56733,1,0,0:0:0:0:
192,224,57279,1,0,0:0:0:0:
192,224,57370,1,0,0:0:0:0:
192,224,57461,1,2,0:0:0:0:
224,224,57824,1,0,0:0:0:0:
224,224,58188,1,0,0:0:0:0:
128,192,58551,1,0,0:0:0:0:
128,192,58733,1,0,0:0:0:0:
192,160,58915,1,2,0:0:0:0:
192,160,59279,1,2,0:0:0:0:
224,160,59642,1,2,0:0:0:0:
288,160,59885,1,2,0:0:0:0:
288,160,60127,1,0,0:0:0:0:
288,160,60370,1,0,0:0:0:0:
160,192,60733,1,2,0:0:0:0:
160,192,60915,1,2,0:0:0:0:
160,192,61097,1,0,0:0:0:0:
192,192,61461,1,2,0:0:0:0:
224,256,61824,1,0,0:0:0:0:
224,256,62006,1,0,0:0:0:0:
224,256,62188,1,2,0:0:0:0:
288,160,62551,1,0,0:0:0:0:
160,128,62915,1,2,0:0:0:0:
160,160,63097,1,2,0:0:0:0:
160,160,63188,1,0,0:0:0:0:
160,160,63279,1,2,0:0:0:0:
224,160,63642,1,2,0:0:0:0:
288,192,64006,1,0,0:0:0:0:
224,192,64370,1,2,0:0:0:0:
160,192,64733,1,0,0:0:0:0:
160,192,64915,1,0,0:0:0:0:
160,192,65097,1,2,0:0:0:0:
160,192,65279,1,2,0:0:0:0:
192,128,65461,1,4,0:0:0:0:
96,96,65824,1,2,0:0:0:0:
96,96,66006,1,2,0:0:0:0:
64,160,66188,1,0,0:0:0:0:
64,160,66370,1,0,0:0:0:0:
128,192,66551,1,2,0:0:0:0:
128,224,66733,1,2,0:0:0:0:
128,256,66915,1,0,0:0:0:0:
224,192,67279,1,2,0:0:0:0:
224,192,67461,1,0,0:0:0:0:
224,192,67642,1,2,0:0:0:0:
224,192,67824,1,2,0:0:0:0:
224,192,68006,1,0,0:0:0:0:
192,192,68370,1,0,0:0:0:0:
192,192,68551,1,0,0:0:0:0:
192,192,68733,1,2,0:0:0:0:
192,192,68915,1,0,0:0:0:0:
192,192,69006,1,0,0:0:0:0:
192,192,69097,1,2,0:0:0:0:
96,192,69461,1,0,0:0:0:0:
96,192,69642,1,2,0:0:0:0:
96,192,69824,1,0,0:0:0:0:
128,160,70188,1,0,0:0:0:0:
128,160,70370,1,0,0:0:0:0:
128,160,70551,1,2,0:0:0:0:
128,160,70733,1,0,0:0:0:0:
128,160,70915,1,2,0:0:0:0:
128,160,71097,1,0,0:0:0:0:
192,128,71279,1,2,0:0:0:0:
64,96,71642,1,0,0:0:0:0:
224,128,72006,1,0,0:0:0:0:
288,128,72188,1,2,0:0:0:0:
288,128,72370,1,0,0:0:0:0:
288,128,72551,1,2,0:0:0:0:
288,128,72733,1,0,0:0:0:0:
96,128,73097,1,0,0:0:0:0:
96,128,73279,1,0,0:0:0:0:
96,128,73461,1,2,0:0:0:0:
96,128,73824,1,2,0:0:0:0:
96,128,74188,1,2,0:0:0:0:
96,128,74370,1,0,0:0:0:0:
96,128,74551,1,2,0:0:0:0:
96,128,74733,1,2,0:0:0:0:
96,128,74824,1,0,0:0:0:0:
96,128,74915,1,2,0:0:0:0:
96,128,75279,1,0,0:0:0:0:
128,128,75642,1,0,0:0:0:0:
128,128,75824,1,2,0:0:0:0:
128,128,76006,1,0,0:0:0:0:
128,128,76188,1,0,0:0:0:0:
128,128,76279,1,2,0:0:0:0:
128,160,76370,1,0,0:0:0:0:
192,160,76733,1,2,0:0:0:0:
192,160,77097,1,4,0:0:0:0:
192,160,78551,1,2,0:0:0:0:
192,160,78915,1,0,0:0:0:0:
224,160,79279,1,2,0:0:0:0:
224,160,79642,1,2,0:0:0:0:
192,160,81461,1,2,0:0:0:0:
192,160,81824,1,2,0:0:0:0:
192,192,82188,1,2,0:0:0:0:
192,192,82551,1,0,0:0:0:0:
192,192,82915,1,0,0:0:0:0:
128,160,84370,1,0,0:0:0:0:
160,128,84733,1,2,0:0:0:0:
160,128,85097,1,2,0:0:0:0:
160,128,85461,1,0,0:0:0:0:
160,128,85824,1,2,0:0:0:0:
192,192,86188,1,0,0:0:0:0:
192,192,86370,1,0,0:0:0:0:
192,192,86551,1,2,0:0:0:0:
256,192,86915,1,0,0:0:0:0:
256,192,87097,1,0,0:0:0:0:
256,192,87279,1,2,0:0:0:0:
256,128,87642,1,0,0:0:0:0:
256,128,87824,1,0,0:0:0:0:
256,128,88006,1,2,0:0:0:0:
256,128,88188,1,2,0:0:0:0:
256,128,88370,1,0,0:0:0:0:
256,128,88551,1,0,0:0:0:0:
256,128,88733,1,6,0:0:0:0:
160,96,89097,1,2,0:0:0:0:
352,192,89279,1,0,0:0:0:0:
160,96,89461,1,0,0:0:0:0:
256,96,89824,1,2,0:0:0:0:
320,64,90188,1,0,0:0:0:0:
256,96,90551,1,2,0:0:0:0:
288,160,90733,1,0,0:0:0:0:
288,160,90915,1,0,0:0:0:0:
160,192,91097,1,0,0:0:0:0:
160,192,91279,1,2,0:0:0:0:
256,64,91642,1,0,0:0:0:0:
320,192,92006,1,2,0:0:0:0:
320,192,92188,1,0,0:0:0:0:
320,192,92370,1,2,0:0:0:0:
320,192,92551,1,2,0:0:0:0:
320,192,92733,1,2,0:0:0:0:
160,192,93097,1,0,0:0:0:0:
320,128,93461,1,2,0:0:0:0:
320,128,93642,1,0,0:0:0:0:
320,128,93824,1,2,0:0:0:0:
320,128,94006,1,0,0:0:0:0:
320,128,94188,1,2,0:0:0:0:
192,96,94551,1,0,0:0:0:0:
128,192,95642,1,0,0:0:0:0:
192,224,95824,1,2,0:0:0:0:
192,224,96006,1,0,0:0:0:0:
320,128,97097,1,2,0:0:0:0:
320,128,97279,1,2,0:0:0:0:
320,128,97461,1,0,0:0:0:0:
192,192,97824,1,0,0:0:0:0:
192,192,98006,1,2,0:0:0:0:
192,192,98188,1,0,0:0:0:0:
256,192,98551,1,2,0:0:0:0:
256,192,98733,1,2,0:0:0:0:
256,192,98915,1,0,0:0:0:0:
256,192,99097,1,0,0:0:0:0:
256,192,99279,1,2,0:0:0:0:
256,192,99461,1,0,0:0:0:0:
256,192,99642,1,2,0:0:0:0:
256,192,99824,1,0,0:0:0:0:
256,224,100006,1,2,0:0:0:0:
256,224,100188,1,2,0:0:0:0:
256,224,100370,1,4,0:0:0:0:
96,192,100733,1,0,0:0:0:0:
160,192,100915,1,0,0:0:0:0:
160,192,101006,1,0,0:0:0:0:
160,192,101097,1,2,0:0:0:0:
320,128,101461,1,0,0:0:0:0:
320,128,101824,1,0,0:0:0:0:
256,160,102188,1,0,0:0:0:0:
160,192,102370,1,2,0:0:0:0:
160,192,102461,1,2,0:0:0:0:
160,192,102551,1,2,0:0:0:0:
224,256,102915,1,0,0:0:0:0:
224,256,103279,1,0,0:0:0:0:
160,192,103642,1,0,0:0:0:0:
256,160,103824,1,2,0:0:0:0:
256,160,103915,1,0,0:0:0:0:
256,160,104006,1,2,0:0:0:0:
288,192,104370,1,0,0:0:0:0:
288,192,104733,1,0,0:0:0:0:
288,192,105097,1,0,0:0:0:0:
192,128,105279,1,0,0:0:0:0:
192,128,105370,1,0,0:0:0:0:
192,128,105461,1,2,0:0:0:0:
192,192,106188,1,6,0:0:0:0:
256,160,106551,1,0,0:0:0:0:
256,160,106642,1,0,0:0:0:0:
256,160,106733,1,0,0:0:0:0:
256,160,106915,1,2,0:0:0:0:
128,160,107279,1,0,0:0:0:0:
128,160,107642,1,0,0:0:0:0:
224,160,108006,1,2,0:0:0:0:
224,160,108097,1,2,0:0:0:0:
224,160,108188,1,2,0:0:0:0:
224,160,108370,1,2,0:0:0:0:
128,192,108733,1,0,0:0:0:0:
192,224,109097,1,0,0:0:0:0:
256,192,109279,1,0,0:0:0:0:
256,192,109461,1,2,0:0:0:0:
256,192,109642,1,0,0:0:0:0:
256,192,109824,1,2,0:0:0:0:
256,192,110006,1,2,0:0:0:0:
256,192,110188,1,0,0:0:0:0:
256,192,110370,1,2,0:0:0:0:
256,192,110551,1,0,0:0:0:0:
256,192,110733,1,2,0:0:0:0:
256,192,110915,1,0,0:0:0:0:
256,192,111097,1,0,0:0:0:0:
256,192,111279,1,2,0:0:0:0:
160,160,111461,1,2,0:0:0:0:
192,192,111642,1,0,0:0:0:0:
192,192,111824,1,0,0:0:0:0:
96,128,112006,1,6,0:0:0:0:
